osu file format v14

[General]
AudioFilename: audio.ogg
AudioLeadIn: 0
PreviewTime: 62516
Countdown: 0
SampleSet: Soft
StackLeniency: 0.7
Mode: 3
LetterboxInBreaks: 0
SpecialStyle: 0
WidescreenStoryboard: 1

[Editor]
DistanceSpacing: 0.4
BeatDivisor: 4
GridSize: 32
TimelineZoom: 2.2

[Metadata]
Title:Chu, Tayousei. (TV Size)
TitleUnicode:ちゅ、多様性。(TV Size)
Artist:ano
ArtistUnicode:ano
Creator:Akasha-
Version:Easy
Source:チェンソーマン
Tags:Chainsaw Man J-Pop JPop Pop Chinese Cantonese Mandarin English Japanese Anime Ending ED 7 Seven ALL KINDS OF KISSES TOY'S FACTORY TAKU INOUE 真部脩一 Shuichi Mabe 西浦謙助 Kensuke Nishiura Kuo Kyoka
BeatmapID:3904209
BeatmapSetID:1890225

[Difficulty]
HPDrainRate:6.5
CircleSize:4
OverallDifficulty:6.5
ApproachRate:5
SliderMultiplier:1.4
SliderTickRate:1

[Events]
//Background and Video events
0,0,"79109083_p0.jpg",0,0
Video,100,"BGA.mp4"
//Break Periods
//Storyboard Layer 0 (Background)
//Storyboard Layer 1 (Fail)
//Storyboard Layer 2 (Pass)
//Storyboard Layer 3 (Foreground)
//Storyboard Layer 4 (Overlay)
//Storyboard Sound Samples
Sample,6242,0,"clap.wav",60
Sample,7026,0,"clap.wav",60
Sample,8399,0,"tom01.wav",60
Sample,8595,0,"clap.wav",60
Sample,8987,0,"tom02.wav",60
Sample,9379,0,"clap.wav",60
Sample,10163,0,"clap.wav",60
Sample,10948,0,"drumsnare.wav",60
Sample,31340,0,"tom02.wav",60
Sample,43105,0,"HHOpen.wav",20
Sample,50163,0,"snare.wav",60
Sample,56438,0,"tom02.wav",60
Sample,68791,0,"cym_short.wav",60
Sample,69183,0,"cym_short.wav",60
Sample,74477,0,"cymbal.wav",60
Sample,82712,0,"cym_short.wav",60
Sample,85458,0,"HHOpen.wav",20
Sample,85850,0,"HHOpen.wav",20
Sample,86830,0,"drumsnare.wav",60
Sample,87222,0,"drumsnare.wav",60
Sample,87614,0,"drumsnare.wav",60
Sample,88007,0,"drumsnare.wav",60

[TimingPoints]
360,392.156862745098,4,2,1,50,1,0
63105,-100,4,2,1,50,0,1
74085,-100,4,2,1,50,0,0
75654,-100,4,2,1,50,0,1
81928,-100,4,2,1,50,0,0
86438,-100,4,2,1,50,0,1
88007,-100,4,2,1,50,0,0

[HitObjects]
64,192,360,5,0,0:0:0:60:kick.wav
448,192,360,1,0,0:0:0:60:cymbal.wav
320,192,556,1,0,0:0:0:20:HHOpen.wav
192,192,752,1,0,0:0:0:60:kick.wav
448,192,948,1,0,0:0:0:20:HHOpen.wav
64,192,1340,1,0,0:0:0:20:HHOpen.wav
64,192,1732,1,0,0:0:0:20:HHOpen.wav
192,192,2124,1,0,0:0:0:20:HHOpen.wav
320,192,2320,1,0,0:0:0:60:kick.wav
64,192,2516,1,0,0:0:0:20:HHOpen.wav
448,192,2712,128,0,3105:0:0:0:60:kick.wav
192,192,3105,128,0,3497:0:0:0:60:kick.wav
64,192,3497,1,0,0:0:0:60:kick.wav
320,192,3693,1,0,0:0:0:60:drumsnare.wav
192,192,3889,1,0,0:0:0:60:drumsnare.wav
448,192,4085,1,0,0:0:0:60:drumsnare.wav
64,192,4477,1,0,0:0:0:60:tom01.wav
64,192,4869,1,0,0:0:0:60:tom03.wav
320,192,5065,1,0,0:0:0:60:kick.wav
448,192,5065,1,0,0:0:0:60:cymbal.wav
192,192,5458,1,0,0:0:0:60:kick.wav
320,192,5654,1,0,0:0:0:0:
448,192,5850,128,0,6242:0:0:0:60:kick.wav
192,192,6242,128,0,6634:0:0:0:60:kick.wav
64,192,6634,1,0,0:0:0:60:kick.wav
448,192,6634,1,0,0:0:0:60:cymbal.wav
320,192,6830,1,0,0:0:0:0:
192,192,7026,1,0,0:0:0:60:kick.wav
448,192,7222,1,0,0:0:0:20:HHOpen.wav
64,192,7614,1,0,0:0:0:20:HHOpen.wav
64,192,8007,1,0,0:0:0:20:HHOpen.wav
192,192,8399,1,0,0:0:0:20:HHOpen.wav
320,192,8595,1,0,0:0:0:60:kick.wav
64,192,8791,1,0,0:0:0:20:HHOpen.wav
448,192,8987,128,0,9379:0:0:0:60:kick.wav
192,192,9379,128,0,9771:0:0:0:60:kick.wav
64,192,9771,1,0,0:0:0:60:kick.wav
448,192,9771,1,0,0:0:0:60:cymbal.wav
192,192,9967,1,0,0:0:0:20:HHOpen.wav
320,192,10163,1,0,0:0:0:60:kick.wav
448,192,10360,1,0,0:0:0:20:HHOpen.wav
192,192,10752,1,0,0:0:0:20:HHOpen.wav
320,192,10948,1,0,0:0:0:60:kick.wav
64,192,11144,1,0,0:0:0:60:kick.wav
448,192,11144,1,0,0:0:0:60:cym_short.wav
64,192,11536,1,0,0:0:0:60:snare.wav
320,192,11732,1,0,0:0:0:60:snare.wav
192,192,11928,1,0,0:0:0:60:snare.wav
448,192,12124,128,0,12516:0:0:0:60:snare.wav
64,192,12516,128,0,12909:0:0:0:60:drumsnare.wav
320,192,12909,128,0,13301:0:0:0:60:kick.wav
448,192,12909,1,0,0:0:0:60:cymbal.wav
192,192,13301,128,0,13693:0:0:0:60:kick.wav
448,192,13693,128,0,14281:0:0:0:60:kick.wav
64,192,14281,1,0,0:0:0:60:drumsnare.wav
192,192,14281,1,0,0:0:0:0:
320,192,14673,1,0,0:0:0:0:
64,192,14869,1,0,0:0:0:60:kick.wav
448,192,15065,1,0,0:0:0:0:
192,192,15261,128,0,15654:0:0:0:60:kick.wav
320,192,15654,128,0,16046:0:0:0:60:kick.wav
192,192,16046,128,0,16438:0:0:0:60:kick.wav
448,192,16438,128,0,16830:0:0:0:60:kick.wav
64,192,16830,128,0,17418:0:0:0:60:kick.wav
320,192,17418,1,0,0:0:0:60:drumsnare.wav
448,192,17418,1,0,0:0:0:0:
320,192,17810,1,0,0:0:0:0:
448,192,18007,1,0,0:0:0:60:kick.wav
64,192,18203,1,0,0:0:0:0:
192,192,18399,128,0,18791:0:0:0:60:kick.wav
320,192,18791,128,0,19183:0:0:0:60:kick.wav
64,192,19183,1,0,0:0:0:60:kick.wav
192,192,19183,128,0,19575:0:0:0:60:cymbal.wav
448,192,19575,128,0,19967:0:0:0:60:kick.wav
64,192,19967,128,0,20556:0:0:0:60:kick.wav
320,192,20556,1,0,0:0:0:60:drumsnare.wav
448,192,20556,1,0,0:0:0:0:
320,192,20948,1,0,0:0:0:0:
64,192,21144,1,0,0:0:0:60:kick.wav
448,192,21340,1,0,0:0:0:0:
192,192,21536,128,0,21928:0:0:0:60:kick.wav
320,192,21928,128,0,22320:0:0:0:60:kick.wav
448,192,22320,128,0,23497:0:0:0:60:kick.wav
64,192,22712,1,0,0:0:0:60:kick.wav
64,192,23105,1,0,0:0:0:60:kick.wav
64,192,23497,1,0,0:0:0:60:kick.wav
192,192,23693,1,0,0:0:0:60:drumsnare.wav
320,192,23889,1,0,0:0:0:60:kick.wav
448,192,23889,1,0,0:0:0:60:cym_short.wav
192,192,24085,1,0,0:0:0:60:snare.wav
64,192,24281,128,0,24673:0:0:0:60:snare.wav
448,192,24673,128,0,25065:0:0:0:60:snare.wav
192,192,25065,128,0,25458:0:0:0:60:drumsnare.wav
320,192,25458,128,0,25850:0:0:0:60:kick.wav
448,192,25458,1,0,0:0:0:60:cymbal.wav
64,192,25850,128,0,26242:0:0:0:60:kick.wav
448,192,26242,128,0,26830:0:0:0:60:kick.wav
64,192,26830,1,0,0:0:0:60:drumsnare.wav
192,192,26830,1,0,0:0:0:0:
64,192,27222,1,0,0:0:0:0:
192,192,27418,1,0,0:0:0:60:kick.wav
320,192,27614,1,0,0:0:0:0:
448,192,27810,128,0,28203:0:0:0:60:kick.wav
192,192,28203,128,0,28595:0:0:0:60:kick.wav
320,192,28595,128,0,28987:0:0:0:60:kick.wav
64,192,28987,128,0,29379:0:0:0:60:kick.wav
192,192,29379,128,0,29967:0:0:0:60:kick.wav
320,192,29967,1,0,0:0:0:60:drumsnare.wav
448,192,29967,1,0,0:0:0:0:
320,192,30359,1,0,0:0:0:0:
64,192,30556,1,0,0:0:0:60:kick.wav
448,192,30752,1,0,0:0:0:0:
192,192,30948,128,0,31340:0:0:0:60:kick.wav
64,192,31340,128,0,31732:0:0:0:60:kick.wav
320,192,31732,128,0,32124:0:0:0:60:kick.wav
448,192,31732,1,0,0:0:0:60:cymbal.wav
192,192,32124,128,0,32516:0:0:0:60:kick.wav
448,192,32516,128,0,33105:0:0:0:60:kick.wav
64,192,33105,1,0,0:0:0:60:drumsnare.wav
192,192,33105,1,0,0:0:0:0:
192,192,33497,1,0,0:0:0:0:
64,192,33693,1,0,0:0:0:60:kick.wav
448,192,33889,1,0,0:0:0:0:
320,192,34085,128,0,34477:0:0:0:60:kick.wav
64,192,34477,128,0,34869:0:0:0:60:kick.wav
448,192,34869,128,0,36046:0:0:0:60:kick.wav
192,192,35261,1,0,0:0:0:60:kick.wav
192,192,35654,1,0,0:0:0:60:kick.wav
64,192,36046,1,0,0:0:0:60:kick.wav
320,192,36242,1,0,0:0:0:60:drumsnare.wav
448,192,36242,1,0,0:0:0:60:cym_short.wav
192,192,36634,1,0,0:0:0:60:snare.wav
448,192,36830,1,0,0:0:0:60:snare.wav
192,192,37026,1,0,0:0:0:60:snare.wav
448,192,37222,128,0,37614:0:0:0:60:snare.wav
64,192,37614,128,0,38007:0:0:0:60:drumsnare.wav
320,192,38007,1,0,0:0:0:60:kick.wav
448,192,38007,1,0,0:0:0:60:cymbal.wav
192,192,38399,1,0,0:0:0:60:kick.wav
320,192,38791,1,0,0:0:0:60:kick.wav
192,192,39183,1,0,0:0:0:60:kick.wav
448,192,39575,1,0,0:0:0:60:kick.wav
192,192,39967,1,0,0:0:0:60:kick.wav
448,192,40360,1,0,0:0:0:60:kick.wav
192,192,40752,1,0,0:0:0:60:kick.wav
320,192,41144,1,0,0:0:0:60:kick.wav
192,192,41536,1,0,0:0:0:60:kick.wav
320,192,41928,1,0,0:0:0:60:kick.wav
192,192,42320,1,0,0:0:0:60:kick.wav
320,192,42712,1,0,0:0:0:60:kick.wav
64,192,43105,1,0,0:0:0:60:kick.wav
320,192,43497,1,0,0:0:0:60:kick.wav
64,192,43889,1,0,0:0:0:60:kick.wav
320,192,44281,1,0,0:0:0:60:kick.wav
448,192,44281,1,0,0:0:0:60:cymbal.wav
192,192,44673,1,0,0:0:0:60:kick.wav
320,192,45065,1,0,0:0:0:60:kick.wav
192,192,45458,1,0,0:0:0:60:kick.wav
448,192,45850,1,0,0:0:0:60:kick.wav
192,192,46242,1,0,0:0:0:60:kick.wav
448,192,46634,1,0,0:0:0:60:kick.wav
192,192,47026,1,0,0:0:0:60:kick.wav
320,192,47418,1,0,0:0:0:60:kick.wav
192,192,47810,1,0,0:0:0:60:kick.wav
320,192,48203,1,0,0:0:0:60:kick.wav
192,192,48595,1,0,0:0:0:60:kick.wav
320,192,48987,1,0,0:0:0:60:kick.wav
64,192,49379,1,0,0:0:0:60:kick.wav
320,192,49771,1,0,0:0:0:60:kick.wav
192,192,49967,1,0,0:0:0:60:kick.wav
64,192,50163,1,0,0:0:0:60:kick.wav
192,192,50360,1,0,0:0:0:60:kick.wav
320,192,50556,1,0,0:0:0:60:kick.wav
448,192,50556,128,0,50948:0:0:0:60:cymbal.wav
192,192,50948,128,0,51340:0:0:0:60:kick.wav
320,192,51340,128,0,51732:0:0:0:60:kick.wav
64,192,51732,128,0,52124:0:0:0:60:kick.wav
192,192,52124,1,0,0:0:0:60:kick.wav
448,192,52320,1,0,0:0:0:0:
64,192,52516,1,0,0:0:0:60:kick.wav
320,192,52712,128,0,53301:0:0:0:0:
192,192,53301,1,0,0:0:0:60:kick.wav
320,192,53497,1,0,0:0:0:60:drumsnare.wav
448,192,53693,128,0,54085:0:0:0:60:kick.wav
192,192,54085,128,0,54477:0:0:0:60:kick.wav
320,192,54477,128,0,54869:0:0:0:60:kick.wav
64,192,54869,128,0,55261:0:0:0:60:kick.wav
448,192,55261,1,0,0:0:0:60:kick.wav
192,192,55458,1,0,0:0:0:0:
320,192,55654,1,0,0:0:0:60:kick.wav
448,192,55850,128,0,56438:0:0:0:0:
64,192,56438,1,0,0:0:0:60:kick.wav
192,192,56634,1,0,0:0:0:60:tom02.wav
320,192,56830,128,0,57222:0:0:0:60:kick.wav
448,192,56830,1,0,0:0:0:60:cymbal.wav
64,192,57222,128,0,57614:0:0:0:60:kick.wav
448,192,57614,128,0,58007:0:0:0:60:kick.wav
192,192,58007,1,0,0:0:0:60:kick.wav
192,192,58203,128,0,58595:0:0:0:60:drumsnare.wav
320,192,58595,128,0,58987:0:0:0:0:
64,192,58987,1,0,0:0:0:0:
448,192,59183,1,0,0:0:0:60:kick.wav
192,192,59575,1,0,0:0:0:60:kick.wav
320,192,59771,1,0,0:0:0:60:drumsnare.wav
448,192,59967,128,0,61144:0:0:0:60:kick.wav
64,192,60359,1,0,0:0:0:60:kick.wav
64,192,60752,1,0,0:0:0:60:kick.wav
64,192,61144,1,0,0:0:0:60:kick.wav
320,192,61340,1,0,0:0:0:60:drumsnare.wav
448,192,61340,1,0,0:0:0:60:cym_short.wav
192,192,61732,1,0,0:0:0:60:snare.wav
320,192,61928,1,0,0:0:0:60:snare.wav
192,192,62124,1,0,0:0:0:60:snare.wav
448,192,62320,128,0,62712:0:0:0:60:snare.wav
64,192,62712,128,0,63105:0:0:0:60:drumsnare.wav
320,192,63105,1,0,0:0:0:60:kick.wav
448,192,63105,1,0,0:0:0:60:cymbal.wav
192,192,63301,1,0,0:0:0:60:kick.wav
320,192,63497,1,0,0:0:0:60:drumsnare.wav
448,192,63497,1,0,0:0:0:0:
320,192,63889,1,0,0:0:0:60:kick.wav
192,192,64085,1,0,0:0:0:60:kick.wav
320,192,64281,1,0,0:0:0:60:drumsnare.wav
448,192,64281,1,0,0:0:0:0:
192,192,64673,1,0,0:0:0:60:kick.wav
320,192,64869,1,0,0:0:0:60:kick.wav
64,192,65065,128,0,65458:0:0:0:60:drumsnare.wav
448,192,65065,1,0,0:0:0:0:
192,192,65458,1,0,0:0:0:60:kick.wav
64,192,65850,1,0,0:0:0:60:drumsnare.wav
192,192,65850,1,0,0:0:0:0:
320,192,66242,1,0,0:0:0:60:kick.wav
192,192,66438,1,0,0:0:0:60:kick.wav
320,192,66634,1,0,0:0:0:60:drumsnare.wav
448,192,66634,1,0,0:0:0:0:
320,192,67026,1,0,0:0:0:60:kick.wav
192,192,67222,1,0,0:0:0:60:kick.wav
320,192,67418,1,0,0:0:0:60:drumsnare.wav
448,192,67418,1,0,0:0:0:0:
64,192,67614,128,0,68007:0:0:0:0:
448,192,68007,1,0,0:0:0:60:kick.wav
64,192,68203,1,0,0:0:0:60:drumsnare.wav
192,192,68203,1,0,0:0:0:0:
320,192,68595,1,0,0:0:0:60:kick.wav
64,192,68791,1,0,0:0:0:60:drumsnare.wav
64,192,69183,1,0,0:0:0:60:drumsnare.wav
320,192,69379,1,0,0:0:0:60:kick.wav
448,192,69379,1,0,0:0:0:0:
192,192,69575,1,0,0:0:0:60:kick.wav
64,192,69771,1,0,0:0:0:60:drumsnare.wav
448,192,69771,1,0,0:0:0:0:
448,192,70163,1,0,0:0:0:60:kick.wav
320,192,70359,1,0,0:0:0:60:kick.wav
64,192,70556,1,0,0:0:0:60:drumsnare.wav
192,192,70556,1,0,0:0:0:0:
320,192,70948,1,0,0:0:0:60:kick.wav
192,192,71144,1,0,0:0:0:60:kick.wav
320,192,71340,1,0,0:0:0:60:drumsnare.wav
448,192,71340,1,0,0:0:0:0:
192,192,71536,128,0,71928:0:0:0:0:
448,192,71928,1,0,0:0:0:60:kick.wav
64,192,72124,1,0,0:0:0:60:drumsnare.wav
192,192,72124,1,0,0:0:0:0:
320,192,72320,1,0,0:0:0:0:
64,192,72516,128,0,72909:0:0:0:60:kick.wav
320,192,72909,1,0,0:0:0:60:drumsnare.wav
448,192,72909,1,0,0:0:0:0:
192,192,73301,1,0,0:0:0:60:kick.wav
64,192,73693,1,0,0:0:0:60:drumsnare.wav
192,192,73693,1,0,0:0:0:0:
320,192,74085,1,0,0:0:0:60:kick.wav
64,192,74281,1,0,0:0:0:60:kick.wav
192,192,74477,1,0,0:0:0:60:drumsnare.wav
320,192,74673,1,0,0:0:0:0:
448,192,74869,128,0,75261:0:0:0:60:kick.wav
64,192,75261,128,0,75654:0:0:0:60:kick.wav
320,192,75654,1,0,0:0:0:60:kick.wav
448,192,75654,1,0,0:0:0:60:cymbal.wav
192,192,75850,1,0,0:0:0:0:
320,192,76046,1,0,0:0:0:60:kick.wav
320,192,76438,1,0,0:0:0:60:kick.wav
192,192,76634,1,0,0:0:0:0:
320,192,76830,1,0,0:0:0:60:kick.wav
192,192,77222,1,0,0:0:0:60:kick.wav
320,192,77418,1,0,0:0:0:0:
64,192,77614,128,0,78007:0:0:0:60:kick.wav
448,192,78007,128,0,78399:0:0:0:60:kick.wav
192,192,78399,128,0,78791:0:0:0:60:kick.wav
320,192,78791,1,0,0:0:0:60:kick.wav
448,192,78791,1,0,0:0:0:60:cymbal.wav
192,192,78987,1,0,0:0:0:0:
320,192,79183,1,0,0:0:0:60:kick.wav
320,192,79575,1,0,0:0:0:60:kick.wav
192,192,79771,1,0,0:0:0:0:
320,192,79967,1,0,0:0:0:60:kick.wav
64,192,80163,128,0,80556:0:0:0:60:drumsnare.wav
192,192,80556,1,0,0:0:0:0:
448,192,80752,128,0,81144:0:0:0:60:kick.wav
64,192,81144,1,0,0:0:0:60:kick.wav
192,192,81340,1,0,0:0:0:60:drumsnare.wav
320,192,81536,1,0,0:0:0:60:tom02.wav
192,192,81732,1,0,0:0:0:60:tom03.wav
64,192,81928,1,0,0:0:0:60:kick.wav
448,192,81928,128,0,82320:0:0:0:60:cymbal.wav
192,192,82320,128,0,82712:0:0:0:0:
448,192,82712,128,0,83105:0:0:0:60:kick.wav
64,192,83301,128,0,83693:0:0:0:60:tom02.wav
320,192,83693,128,0,84085:0:0:0:0:
64,192,84085,128,0,84477:0:0:0:60:drumsnare.wav
64,192,85065,1,0,0:0:0:60:kick.wav
192,192,85065,128,0,85458:0:0:0:60:cymbal.wav
320,192,85458,128,0,85850:0:0:0:60:kick.wav
448,192,85850,128,0,86242:0:0:0:60:kick.wav
64,192,86242,1,0,0:0:0:60:drumsnare.wav
64,192,86438,1,0,0:0:0:60:kick.wav
192,192,86438,128,0,86830:0:0:0:60:cym_short.wav
448,192,86830,128,0,87222:0:0:0:60:kick.wav
64,192,87222,128,0,87614:0:0:0:60:kick.wav
320,192,87614,128,0,88007:0:0:0:60:kick.wav
64,192,88007,1,0,0:0:0:60:kick.wav
192,192,88007,1,0,0:0:0:60:cymbal.wav
