osu file format v14

[General]
AudioFilename: audio.mp3
AudioLeadIn: 0
PreviewTime: -1
Countdown: 0
SampleSet: Normal
StackLeniency: 0.7
Mode: 0
LetterboxInBreaks: 0
WidescreenStoryboard: 0

[Editor]
DistanceSpacing: 5.1
BeatDivisor: 4
GridSize: 16
TimelineZoom: 1.900006

[Metadata]
Title:Dancing on Keys
TitleUnicode:Танец на Клавишах
Artist:anime opening
ArtistUnicode:anime opening
Creator:desuqe
Version:Expert
Source:
Tags:tv size farm jumps aim
BeatmapID:4548507
BeatmapSetID:2157651

[Difficulty]
HPDrainRate:4
CircleSize:3.9
OverallDifficulty:9.5
ApproachRate:9
SliderMultiplier:1.8
SliderTickRate:1

[Events]
//Background and Video events
0,0,"devushka_trava_gorod_213102_1920x1080.jpg",0,0
//Break Periods
//Storyboard Layer 0 (Background)
//Storyboard Layer 1 (Fail)
//Storyboard Layer 2 (Pass)
//Storyboard Layer 3 (Foreground)
//Storyboard Layer 4 (Overlay)
//Storyboard Sound Samples

[TimingPoints]
-577.006366987984,319.148936170213,4,1,0,100,1,0
699,-100,4,2,0,53,0,0
3252,-250,4,2,0,53,0,0
5805,-100,4,2,0,53,0,0
11231,-250,4,2,0,53,0,0
13784,-100,4,2,0,53,0,0
16018,-100,4,2,0,53,0,1
28305,-100,4,2,0,53,0,0
38997,-66.6666666666667,4,2,0,53,0,0
39316,-100,4,2,0,53,0,0
49688,-100,4,2,0,53,0,1
52401,-100,4,2,0,53,0,0

[HitObjects]
15,162,699,6,0,B|102:96|-10:67|81:-15,1,180
294,42,1178,1,0,0:0:0:0:
294,42,1337,2,0,L|310:131,1,90
411,173,1657,2,0,L|435:273,1,90
321,342,1976,6,0,L|226:356,1,90
37,370,2295,2,0,B|37:328|47:305|47:305|75:327|70:360,1,90
171,210,2614,2,0,B|158:214|183:200|183:200|211:225|190:268,1,90
64,204,2933,2,0,P|75:138|70:71,1,135
101,70,3252,2,0,P|126:283|262:99,1,558
246,84,5805,5,0,0:0:0:0:
246,84,5965,1,0,0:0:0:0:
246,84,6125,2,0,L|236:194,1,90
236,277,6444,1,0,0:0:0:0:
44,230,6603,2,0,P|88:268|126:250,1,90
318,373,6922,2,0,P|353:336|419:318,1,90
483,160,7242,2,0,P|482:217|461:273,1,90
381,196,7561,2,0,P|383:67|245:79,1,270
60,57,8359,2,0,B|55:121|55:121|60:122|60:122|55:202,1,135
56,226,8678,1,0,0:0:0:0:
463,33,9954,5,0,0:0:0:0:
501,143,10274,2,0,L|509:249,1,90
308,20,10593,2,0,L|296:115,1,90
390,279,10912,2,0,L|382:190,1,90
378,311,11231,2,0,B|326:277|324:182|226:171|255:309|354:372|275:130|197:144|119:286|28:139|-7:136|111:50|186:98,1,504
432,36,13784,6,0,L|444:113,3,45
446,51,14103,2,0,L|475:126,3,45
464,125,14422,1,0,0:0:0:0:
468,143,14502,1,0,0:0:0:0:
471,163,14582,1,0,0:0:0:0:
475,185,14662,1,0,0:0:0:0:
473,254,14742,5,0,0:0:0:0:
412,255,14821,1,0,0:0:0:0:
362,217,14901,1,0,0:0:0:0:
343,162,14981,1,0,0:0:0:0:
356,104,15061,1,0,0:0:0:0:
69,45,15699,5,0,0:0:0:0:
251,18,15859,1,0,0:0:0:0:
173,95,16018,6,0,L|142:188,1,90
65,275,16337,2,0,L|114:352,1,90
229,365,16657,2,0,P|262:284|334:283,1,135
351,266,16976,5,0,0:0:0:0:
191,113,17135,1,0,0:0:0:0:
191,113,17295,2,0,L|277:139,1,90
405,164,17614,2,0,P|444:189|457:246,1,90
390,355,17933,2,0,P|339:352|339:319,1,90
267,174,18252,2,0,L|234:264,1,90
47,19,18571,6,0,P|96:7|123:34,1,90
72,108,18891,2,0,L|47:204,1,90
52,215,19210,1,0,0:0:0:0:
231,119,19369,1,0,0:0:0:0:
219,293,19529,1,0,0:0:0:0:
219,293,19688,1,0,0:0:0:0:
315,295,19848,6,0,L|292:386,1,90
435,288,20167,2,0,L|457:193,1,90
415,90,20486,2,0,P|393:56|367:91,1,90
236,76,20805,1,0,0:0:0:0:
135,260,20965,1,0,0:0:0:0:
339,162,21125,1,0,0:0:0:0:
112,135,21284,1,0,0:0:0:0:
281,273,21444,6,0,L|350:338,1,90
27,361,21763,2,0,L|64:272,1,90
200,68,22082,2,0,L|198:177,1,90
298,110,22401,5,0,0:0:0:0:
470,28,22561,1,0,0:0:0:0:
281,16,22720,5,0,0:0:0:0:
465,146,22880,1,0,0:0:0:0:
371,275,23040,5,0,0:0:0:0:
226,77,23199,1,0,0:0:0:0:
131,183,23359,5,0,0:0:0:0:
376,102,23518,1,0,0:0:0:0:
403,199,23678,5,0,0:0:0:0:
161,69,23837,1,0,0:0:0:0:
489,20,23997,6,0,L|474:125,1,90
408,227,24316,2,0,L|395:319,1,90
326,140,24635,2,0,L|349:30,1,90
222,226,24954,2,0,L|198:325,1,90
70,26,25274,5,0,0:0:0:0:
105,207,25433,1,0,0:0:0:0:
119,14,25593,5,0,0:0:0:0:
38,273,25752,1,0,0:0:0:0:
10,32,25912,5,0,0:0:0:0:
179,247,26071,1,0,0:0:0:0:
169,11,26231,5,0,0:0:0:0:
112,315,26391,5,0,0:0:0:0:
112,315,26470,1,0,0:0:0:0:
112,315,26550,2,0,P|158:276|176:239,1,90
70,144,26869,2,0,P|33:170|8:207,1,90
248,98,27188,2,0,L|236:207,1,90
273,323,27508,6,0,B|316:295|334:278|406:321,1,135
417,335,27827,2,0,B|431:222|431:222|435:223|435:223|458:61,1,270
76,29,29103,6,0,L|56:146,1,90
51,228,29422,1,0,0:0:0:0:
170,170,29582,1,0,0:0:0:0:
170,170,29742,2,0,P|216:157|274:175,1,90
206,288,30061,1,0,0:0:0:0:
397,202,30220,1,0,0:0:0:0:
375,355,30380,2,0,P|318:309|301:180,1,180
336,81,30859,2,0,P|287:63|233:57,1,90
100,112,31178,2,0,P|147:136|202:137,1,90
56,274,31497,6,0,L|32:363,1,90
189,285,31816,2,0,L|210:193,1,90
337,301,32135,2,0,L|317:390,1,90
460,204,32454,2,0,P|440:157|420:133,1,45
430,136,32614,6,0,P|405:85|359:39,1,90
269,57,32933,2,0,P|246:117|249:177,1,90
98,157,33252,2,0,P|88:96|69:55,1,90
136,282,33571,2,0,P|188:290|221:259,1,90
381,244,33891,2,0,L|353:348,1,90
301,97,34210,5,0,0:0:0:0:
152,204,34369,1,0,0:0:0:0:
169,84,34529,5,0,0:0:0:0:
309,203,34688,1,0,0:0:0:0:
224,30,34848,5,0,0:0:0:0:
93,227,35008,1,0,0:0:0:0:
35,131,35167,2,0,P|48:65|39:3,1,90
150,91,35486,1,0,0:0:0:0:
256,205,35646,1,0,0:0:0:0:
281,67,35805,2,0,P|324:36|366:48,1,90
436,153,36125,5,0,0:0:0:0:
262,200,36284,1,0,0:0:0:0:
383,299,36444,2,0,P|361:343|323:346,1,90
169,203,36763,1,0,0:0:0:0:
216,298,36922,1,0,0:0:0:0:
238,174,37082,1,0,0:0:0:0:
128,314,37242,1,0,0:0:0:0:
268,244,37401,1,0,0:0:0:0:
73,238,37561,1,0,0:0:0:0:
250,336,37720,5,0,0:0:0:0:
85,126,37880,1,0,0:0:0:0:
186,374,38040,5,0,0:0:0:0:
151,91,38199,1,0,0:0:0:0:
59,354,38359,1,0,0:0:0:0:
283,167,38518,1,0,0:0:0:0:
21,186,38678,1,0,0:0:0:0:
243,364,38837,1,0,0:0:0:0:
462,48,38997,2,0,B|449:182|449:182|452:183|452:183|440:321,1,270.000010299683
95,89,39635,5,0,0:0:0:0:
389,101,39954,5,0,0:0:0:0:
173,163,40274,5,0,0:0:0:0:
338,171,40593,5,0,0:0:0:0:
224,229,40912,5,0,0:0:0:0:
294,230,41231,5,0,0:0:0:0:
32,272,41550,5,0,0:0:0:0:
32,272,41710,2,0,L|46:183,1,90
79,71,42029,2,0,P|149:115|20:370,1,450
239,376,43146,2,0,L|255:277,1,90
422,280,43465,2,0,P|392:323|345:305,1,90
263,190,43784,2,0,L|353:191,1,90
80,25,44103,5,0,0:0:0:0:
6,173,44263,1,0,0:0:0:0:
157,183,44422,2,0,L|156:289,1,90
309,186,44742,1,0,0:0:0:0:
309,186,44901,2,0,L|307:93,1,90
178,38,45220,2,0,P|181:93|166:135,1,90
206,318,45540,2,0,P|204:267|210:237,1,45
188,238,45699,2,0,P|155:278|119:324,1,90
310,282,46018,2,0,P|352:318|425:343,1,90
276,164,46337,2,0,L|253:69,1,90
397,103,46657,6,0,L|428:197,1,90
397,103,46976,2,0,L|427:192,1,90
57,90,48093,5,0,0:0:0:0:
127,321,48731,5,0,0:0:0:0:
461,352,49050,5,0,0:0:0:0:
418,194,49210,1,0,0:0:0:0:
310,327,49369,2,0,P|262:309|225:240,1,90
121,21,49688,5,0,0:0:0:0:
207,232,49848,1,0,0:0:0:0:
9,113,50008,1,0,0:0:0:0:
239,93,50167,1,0,0:0:0:0:
44,239,50327,1,0,0:0:0:0:
119,9,50486,1,0,0:0:0:0:
220,238,50646,1,0,0:0:0:0:
301,22,50805,1,0,0:0:0:0:
108,128,50965,1,0,0:0:0:0:
355,201,51125,1,0,0:0:0:0:
116,244,51284,1,0,0:0:0:0:
309,72,51444,1,0,0:0:0:0:
37,88,51603,1,0,0:0:0:0:
185,293,51763,1,0,0:0:0:0:
381,76,51922,1,0,0:0:0:0:
81,211,52082,6,0,L|65:314,1,90
234,360,52401,5,0,0:0:0:0:
256,192,52481,12,0,54070,0:0:0:0:
