osu file format v14

[General]
AudioFilename: audio.mp3
AudioLeadIn: 0
PreviewTime: 83762
Countdown: 0
SampleSet: None
StackLeniency: 0.7
Mode: 0
LetterboxInBreaks: 1
WidescreenStoryboard: 1

[Editor]
Bookmarks: 50428,61832,73060,84288,106569
DistanceSpacing: 2.6
BeatDivisor: 4
GridSize: 4
TimelineZoom: 1

[Metadata]
Title:Light up My Love
TitleUnicode:Light up My Love
Artist:ani feat. moco
ArtistUnicode:ani feat. moco
Creator:Efso
Version:Efsane
Source:Cytus
Tags:
BeatmapID:1716259
BeatmapSetID:818525

[Difficulty]
HPDrainRate:8
CircleSize:4
OverallDifficulty:8
ApproachRate:9.3
SliderMultiplier:2.4
SliderTickRate:1

[Events]
//Background and Video events
0,0,"BG.jpg",0,0
//Break Periods
//Storyboard Layer 0 (Background)
//Storyboard Layer 1 (Fail)
//Storyboard Layer 2 (Pass)
//Storyboard Layer 3 (Foreground)
//Storyboard Sound Samples

[TimingPoints]
78,350.877192982456,4,2,2,50,1,0
2885,-200,4,2,2,25,0,0
15692,-200,4,2,2,50,0,0
16569,-66.6666666666667,4,2,2,50,0,0
16920,-100,4,2,2,50,0,0
65341,-133.333333333333,4,2,2,50,0,0
83060,-100,4,2,2,50,0,0
83937,-50,4,2,2,50,0,0
84288,-66.6666666666667,4,2,2,50,0,1
106569,-100,4,2,2,50,0,0

[Colours]
Combo1 : 0,240,90
Combo2 : 0,98,244
Combo3 : 122,0,244
Combo4 : 45,192,255

[HitObjects]
256,192,2885,5,4,0:0:0:0:
322,125,3060,1,0,0:0:0:0:
256,192,3235,2,0,P|200:208|184:208,1,60,0|2,0:0|0:0,0:0:0:0:
322,125,3586,2,0,P|368:112|400:112,1,60,0|2,0:0|0:0,0:0:0:0:
257,191,3937,2,0,P|278:227|282:254,1,60,0|2,0:0|0:0,0:0:0:0:
379,111,4288,2,0,P|395:86|403:57,1,60,0|2,0:0|0:0,0:0:0:0:
257,191,4814,5,0,0:0:0:0:
298,131,4990,1,0,0:0:0:0:
298,59,5165,1,0,0:0:0:0:
236,97,5341,1,0,0:0:0:0:
298,131,5516,1,0,0:0:0:0:
324,198,5692,1,4,0:0:0:0:
324,198,5867,6,0,P|363:175|396:168,1,60,0|2,0:0|0:0,0:0:0:0:
427,119,6218,1,0,0:0:0:0:
236,97,6393,2,0,P|197:74|164:67,1,60,0|2,0:0|0:0,0:0:0:0:
132,18,6744,1,0,0:0:0:0:
324,198,7095,1,0,0:0:0:0:
324,198,7797,5,0,0:0:0:0:
292,132,7972,1,0,0:0:0:0:
296,60,8148,1,0,0:0:0:0:
356,100,8323,1,0,0:0:0:0:
292,132,8499,2,0,P|264:144|232:144,1,60,4|0,0:0|0:0,0:0:0:0:
324,198,8849,6,0,P|336:234|336:262,1,60,0|2,0:0|0:0,0:0:0:0:
413,179,9200,2,0,P|401:143|401:115,1,60,0|2,0:0|0:0,0:0:0:0:
416,52,9551,2,0,P|384:40|352:32,1,60,0|2,0:0|0:0,0:0:0:0:
413,179,9902,2,0,P|445:191|477:199,1,60,0|2,0:0|0:0,0:0:0:0:
324,198,10428,5,0,0:0:0:0:
272,146,10604,1,0,0:0:0:0:
280,76,10779,1,0,0:0:0:0:
340,120,10955,1,0,0:0:0:0:
272,146,11130,1,0,0:0:0:0:
214,189,11306,2,0,P|192:206|136:220,1,60,0|2,0:0|0:0,0:0:0:0:
340,120,11656,2,0,P|380:104|480:104,1,120,0|2,0:0|0:0,0:0:0:0:
456,99,12183,5,2,0:0:0:0:
354,200,12534,1,0,0:0:0:0:
252,301,12885,1,0,0:0:0:0:
302,250,13060,2,0,P|288:216|288:124,1,120,2|4,0:0|0:0,0:0:0:0:
256,192,13586,12,0,15516,0:0:0:0:
256,192,15692,5,4,0:0:0:0:
247,200,15867,1,4,0:0:0:0:
247,182,16042,1,4,0:0:0:0:
271,182,16218,1,4,0:0:0:0:
271,211,16393,1,4,0:0:0:0:
347,134,16569,1,12,0:0:0:0:
347,134,16920,5,4,0:0:0:0:
465,15,17095,1,0,0:0:0:0:
347,134,17270,1,8,0:0:0:0:
304,91,17358,1,0,0:0:0:0:
261,48,17446,1,0,0:0:0:0:
380,48,17621,5,0,0:0:0:0:
422,90,17709,1,0,0:0:0:0:
464,132,17797,1,0,0:0:0:0:
271,211,17972,5,8,0:0:0:0:
231,166,18059,1,0,0:0:0:0:
221,108,18147,1,0,0:0:0:0:
271,211,18323,5,0,0:0:0:0:
259,152,18410,1,0,0:0:0:0:
272,94,18498,1,0,0:0:0:0:
368,56,18674,5,8,0:0:0:0:
393,109,18761,1,0,0:0:0:0:
399,169,18849,1,0,0:0:0:0:
384,227,18937,1,0,0:0:0:0:
426,269,19025,5,0,0:0:0:0:
222,65,19200,1,0,0:0:0:0:
360,292,19376,1,8,0:0:0:0:
368,56,19551,1,0,0:0:0:0:
231,166,19727,5,0,0:0:0:0:
173,181,19814,1,0,0:0:0:0:
113,179,19902,1,0,0:0:0:0:
368,56,20077,5,8,0:0:0:0:
388,112,20164,1,0,0:0:0:0:
389,172,20252,1,0,0:0:0:0:
360,292,20428,5,0,0:0:0:0:
419,297,20515,1,0,0:0:0:0:
477,305,20603,1,0,0:0:0:0:
144,328,20779,5,8,0:0:0:0:
123,271,20866,1,0,0:0:0:0:
122,211,20954,1,0,0:0:0:0:
152,92,21130,2,0,B|96:72|68:108|20:68,1,120
122,211,21481,1,8,0:0:0:0:
368,56,21832,5,0,0:0:0:0:
114,309,22007,1,0,0:0:0:0:
419,116,22183,1,8,0:0:0:0:
114,309,22358,1,0,0:0:0:0:
452,184,22534,1,4,0:0:0:0:
114,309,22885,5,8,0:0:0:0:
100,250,22972,1,0,0:0:0:0:
98,190,23060,1,0,0:0:0:0:
398,75,23235,5,0,0:0:0:0:
411,133,23322,1,0,0:0:0:0:
413,193,23410,1,0,0:0:0:0:
398,75,23586,5,8,0:0:0:0:
353,115,23674,1,0,0:0:0:0:
298,134,23761,1,0,0:0:0:0:
98,190,23937,1,0,0:0:0:0:
98,190,24113,2,0,P|126:127|179:70,1,120
298,134,24463,5,0,0:0:0:0:
127,304,24639,1,0,0:0:0:0:
366,304,24814,1,0,0:0:0:0:
195,133,24990,1,8,0:0:0:0:
256,364,25165,1,0,0:0:0:0:
256,75,25341,1,0,0:0:0:0:
256,75,25692,6,0,P|272:144|264:196,1,120,8|0,0:0|0:0,0:0:0:0:
366,304,26042,1,0,0:0:0:0:
366,304,26218,1,0,0:0:0:0:
94,32,26569,1,0,0:0:0:0:
456,32,26920,5,0,0:0:0:0:
440,89,27007,1,0,0:0:0:0:
430,148,27095,1,8,0:0:0:0:
382,179,27183,1,0,0:0:0:0:
322,183,27270,1,0,0:0:0:0:
194,56,27446,5,2,0:0:0:0:
447,309,27621,1,2,0:0:0:0:
148,108,27797,1,2,0:0:0:0:
447,309,27972,2,0,L|436:236,1,60,2|2,0:0|0:0,0:0:0:0:
382,179,28148,5,4,0:0:0:0:
148,108,28323,1,0,0:0:0:0:
382,179,28499,5,8,0:0:0:0:
339,136,28586,1,0,0:0:0:0:
296,93,28674,1,0,0:0:0:0:
234,194,28849,5,0,0:0:0:0:
191,151,28936,1,0,0:0:0:0:
148,108,29024,1,0,0:0:0:0:
173,270,29200,5,8,0:0:0:0:
116,249,29287,1,0,0:0:0:0:
59,228,29375,1,0,0:0:0:0:
339,136,29551,5,0,0:0:0:0:
339,136,29727,2,0,P|363:65|391:25,1,120
269,93,30077,5,0,0:0:0:0:
151,323,30253,1,0,0:0:0:0:
151,59,30428,1,0,0:0:0:0:
338,246,30604,1,8,0:0:0:0:
80,192,30779,1,0,0:0:0:0:
417,192,30955,2,0,P|432:156|432:72,1,120
166,206,31306,5,10,0:0:0:0:
146,262,31393,1,0,0:0:0:0:
150,322,31481,1,0,0:0:0:0:
166,206,31656,5,2,0:0:0:0:
117,241,31743,1,0,0:0:0:0:
86,291,31831,1,0,0:0:0:0:
341,35,32007,1,2,0:0:0:0:
479,173,32183,1,0,0:0:0:0:
341,35,32358,5,4,0:0:0:0:
282,49,32445,1,0,0:0:0:0:
223,53,32533,1,0,0:0:0:0:
163,48,32621,1,0,0:0:0:0:
105,32,32708,1,8,0:0:0:0:
116,104,32797,1,0,0:0:0:0:
88,168,32884,1,0,0:0:0:0:
32,212,32972,1,0,0:0:0:0:
96,244,33060,5,2,0:0:0:0:
347,244,33235,1,2,0:0:0:0:
168,65,33411,1,10,0:0:0:0:
347,244,33586,1,2,0:0:0:0:
112,148,33762,1,2,0:0:0:0:
424,236,34113,5,10,0:0:0:0:
423,176,34200,1,0,0:0:0:0:
435,117,34288,1,0,0:0:0:0:
166,183,34463,5,2,0:0:0:0:
166,242,34550,1,0,0:0:0:0:
154,301,34638,1,0,0:0:0:0:
467,301,34814,5,10,0:0:0:0:
413,326,34901,1,0,0:0:0:0:
354,340,34989,1,0,0:0:0:0:
133,119,35165,5,2,0:0:0:0:
186,91,35252,1,0,0:0:0:0:
244,78,35341,2,0,B|284:92|328:84|364:56,1,120,0|8,0:0|0:0,0:0:0:0:
354,340,35692,5,2,0:0:0:0:
151,137,35867,1,2,0:0:0:0:
354,340,36042,1,2,0:0:0:0:
99,85,36218,1,10,0:0:0:0:
302,288,36393,1,2,0:0:0:0:
46,32,36569,5,8,0:0:0:0:
256,352,36920,1,8,0:0:0:0:
466,32,37270,5,2,0:0:0:0:
466,32,37446,1,8,0:0:0:0:
256,192,37797,5,2,0:0:0:0:
256,192,38148,1,2,0:0:0:0:
391,56,38323,1,10,0:0:0:0:
391,248,38499,5,2,0:0:0:0:
379,214,38586,1,2,0:0:0:0:
352,189,38674,1,2,0:0:0:0:
380,72,38849,5,2,0:0:0:0:
354,97,38937,1,2,0:0:0:0:
328,122,39025,1,2,0:0:0:0:
209,240,39200,6,0,P|196:173|200:111,1,120,4|2,0:0|0:0,0:0:0:0:
198,121,39551,1,0,0:0:0:0:
419,342,39727,1,0,0:0:0:0:
419,30,39902,1,0,0:0:0:0:
209,240,40077,1,0,0:0:0:0:
504,192,40253,1,0,0:0:0:0:
256,344,40604,6,0,P|260:284|288:228,1,120
256,344,40955,1,0,0:0:0:0:
408,191,41130,1,0,0:0:0:0:
254,37,41306,1,0,0:0:0:0:
101,189,41481,1,0,0:0:0:0:
202,290,41656,1,0,0:0:0:0:
202,290,42007,6,0,P|188:224|188:160,1,120
164,348,42358,1,0,0:0:0:0:
385,126,42534,1,0,0:0:0:0:
202,290,42709,1,0,0:0:0:0:
428,76,42885,1,0,0:0:0:0:
202,290,43060,1,0,0:0:0:0:
452,192,43411,6,0,P|392:192|320:168,1,120
334,175,43762,1,0,0:0:0:0:
100,32,43937,1,0,0:0:0:0:
100,308,44113,1,0,0:0:0:0:
294,113,44288,5,0,0:0:0:0:
18,113,44463,1,0,0:0:0:0:
213,308,44639,1,0,0:0:0:0:
18,113,44814,6,0,B|68:93|125:93|166:119,1,120
288,228,45165,1,0,0:0:0:0:
457,92,45341,1,0,0:0:0:0:
336,298,45516,1,0,0:0:0:0:
400,41,45692,1,0,0:0:0:0:
419,327,45867,1,0,0:0:0:0:
419,327,46218,6,0,P|417:263|390:188,1,120
344,144,46569,1,0,0:0:0:0:
480,36,46744,1,0,0:0:0:0:
292,32,46920,1,0,0:0:0:0:
461,201,47095,1,0,0:0:0:0:
292,32,47270,1,0,0:0:0:0:
344,144,47621,6,0,P|288:176|224:192,1,120
64,360,47972,1,0,0:0:0:0:
252,108,48148,1,0,0:0:0:0:
461,201,48323,1,0,0:0:0:0:
180,68,48499,1,0,0:0:0:0:
364,312,48674,1,0,0:0:0:0:
259,136,49025,6,0,P|292:192|292:260,1,120
295,245,49376,1,0,0:0:0:0:
295,54,49551,1,0,0:0:0:0:
431,190,49727,1,0,0:0:0:0:
248,140,49902,5,0,0:0:0:0:
78,309,50077,1,0,0:0:0:0:
64,87,50253,1,0,0:0:0:0:
184,288,50428,6,0,P|248:296|312:296,1,120
431,190,50779,2,0,P|367:182|303:182,1,120
188,96,51130,2,0,P|224:156|224:224,1,120
363,340,51481,1,0,0:0:0:0:
363,340,51832,6,0,P|368:264|392:200,1,120
466,137,52183,2,0,P|412:96|348:72,1,120
256,128,52534,2,0,P|276:196|276:264,1,120
107,74,52885,1,0,0:0:0:0:
277,244,53235,6,0,P|352:252|416:252,1,120
226,82,53586,2,0,P|151:74|87:74,1,120
225,192,53937,1,0,0:0:0:0:
344,72,54113,1,0,0:0:0:0:
344,239,54288,1,0,0:0:0:0:
344,72,54639,6,0,P|364:144|364:204,1,120
168,312,54990,2,0,P|148:240|148:180,1,120
396,144,55341,2,0,P|372:214|337:263,1,120
115,239,55692,1,0,0:0:0:0:
396,144,56042,6,0,P|400:212|388:268,1,120
287,364,56393,2,0,P|282:304|293:245,2,120
191,143,56920,1,0,0:0:0:0:
479,226,57095,1,0,0:0:0:0:
191,143,57446,6,0,P|208:76|208:0,1,120
479,226,57797,2,0,P|462:293|462:369,2,120
116,68,58323,1,0,0:0:0:0:
354,306,58499,1,0,0:0:0:0:
472,152,58849,6,0,P|392:152|336:128,1,120
420,80,59200,1,0,0:0:0:0:
460,228,59376,2,0,P|440:284|404:344,1,120
320,296,59727,2,0,P|260:276|184:276,1,120
75,145,60077,1,0,0:0:0:0:
160,52,60253,6,0,P|212:40|288:40,1,120
414,175,60604,2,0,P|362:163|286:163,1,120
159,298,60955,2,0,P|211:286|287:286,1,120
428,164,61306,2,0,B|368:136|292:172|272:108|184:108,1,240
110,23,61832,5,4,0:0:0:0:
59,73,62007,1,0,0:0:0:0:
110,124,62183,1,0,0:0:0:0:
59,174,62358,1,0,0:0:0:0:
229,344,62534,5,0,0:0:0:0:
296,276,62709,1,0,0:0:0:0:
227,207,62885,1,8,0:0:0:0:
294,139,63060,1,0,0:0:0:0:
412,20,63235,5,0,0:0:0:0:
497,105,63411,1,0,0:0:0:0:
412,189,63586,1,0,0:0:0:0:
497,274,63762,5,0,0:0:0:0:
379,252,63937,1,0,0:0:0:0:
263,285,64113,1,0,0:0:0:0:
175,366,64288,1,8,0:0:0:0:
170,246,64463,1,0,0:0:0:0:
175,366,64639,5,0,0:0:0:0:
263,285,64814,1,0,0:0:0:0:
230,169,64990,1,0,0:0:0:0:
125,110,65165,1,0,0:0:0:0:
234,59,65341,6,0,P|308:72|352:60,1,90.0000034332277
412,189,65692,2,0,P|338:176|294:188,1,90.0000034332277,8|0,0:0|0:0,0:0:0:0:
321,69,66042,2,0,P|348:122|445:213,1,180.000006866455
330,308,66569,5,0,0:0:0:0:
84,196,66744,1,0,0:0:0:0:
321,69,66920,1,0,0:0:0:0:
172,296,67095,1,8,0:0:0:0:
433,205,67270,1,0,0:0:0:0:
433,205,67446,6,0,P|412:144|408:96,2,90.0000034332277
330,308,67972,2,0,P|322:263|305:221,1,90.0000034332277
203,119,68323,1,0,0:0:0:0:
328,192,68499,2,0,P|384:204|448:204,2,90.0000034332277,8|0|0,0:0|0:0|0:0,0:0:0:0:
203,119,69025,2,0,P|167:172|159:222,1,90.0000034332277
160,51,69376,5,0,0:0:0:0:
286,177,69551,2,0,P|346:185|390:173,1,90.0000034332277
246,306,69902,2,0,P|186:298|142:310,1,90.0000034332277,8|0,0:0|0:0,0:0:0:0:
316,260,70253,6,0,P|360:176|344:80,1,180.000006866455
286,29,70779,1,0,0:0:0:0:
439,182,70955,1,0,0:0:0:0:
264,148,71306,2,0,P|216:112|160:92,2,90.0000034332277,8|0|0,0:0|0:0|0:0,0:0:0:0:
429,313,71832,5,0,0:0:0:0:
364,144,72007,1,0,0:0:0:0:
208,52,72183,1,8,0:0:0:0:
364,144,72358,5,0,0:0:0:0:
224,260,72534,1,0,0:0:0:0:
48,288,72709,1,8,0:0:0:0:
224,260,72885,1,0,0:0:0:0:
48,288,73060,6,0,P|60:216|76:176,2,90.0000034332277,4|0|4,0:0|0:0|0:0,0:0:0:0:
364,144,73586,1,0,0:0:0:0:
364,144,73762,2,0,P|352:216|336:256,2,90.0000034332277
41,112,74288,1,0,0:0:0:0:
41,112,74463,6,0,P|100:70|140:53,2,90.0000034332277
220,152,74990,1,0,0:0:0:0:
366,234,75165,1,0,0:0:0:0:
174,42,75341,1,0,0:0:0:0:
304,280,75516,1,0,0:0:0:0:
240,16,75692,1,0,0:0:0:0:
228,284,75867,6,0,P|164:288|112:272,2,90.0000034332277
355,156,76393,1,0,0:0:0:0:
355,156,76569,6,0,P|344:108|344:64,1,90.0000034332277
288,240,76920,2,0,P|216:240|168:216,1,90.0000034332277
248,168,77270,2,0,P|172:116|64:120,1,180.000006866455
128,188,77797,1,0,0:0:0:0:
380,72,77972,6,0,P|392:120|392:168,1,90.0000034332277
132,312,78323,2,0,P|120:264|120:216,1,90.0000034332277
380,72,78674,5,4,0:0:0:0:
388,196,78849,1,0,0:0:0:0:
324,304,79025,1,0,0:0:0:0:
440,256,79200,5,0,0:0:0:0:
286,102,79376,1,0,0:0:0:0:
440,256,79551,1,0,0:0:0:0:
7,256,79902,5,4,0:0:0:0:
132,312,80077,1,0,0:0:0:0:
124,188,80252,1,0,0:0:0:0:
188,80,80428,1,0,0:0:0:0:
72,128,80603,5,0,0:0:0:0:
226,282,80779,1,0,0:0:0:0:
72,128,80954,1,0,0:0:0:0:
226,282,81306,5,4,0:0:0:0:
314,193,81481,2,0,P|356:152|404:128,1,90.0000034332277
452,380,81832,1,0,0:0:0:0:
255,71,82007,1,0,0:0:0:0:
226,282,82183,1,0,0:0:0:0:
169,130,82359,1,0,0:0:0:0:
55,16,82534,1,0,0:0:0:0:
169,130,82709,6,0,P|216:101|277:80,1,90.0000034332277
94,241,83060,2,0,P|157:254|238:246,1,120
365,98,83411,1,0,0:0:0:0:
128,334,83586,1,0,0:0:0:0:
128,334,83937,2,0,B|68:280|68:132|132:52,1,240,4|2,0:0|0:0,0:0:0:0:
101,107,84288,5,4,0:0:0:0:
160,148,84376,1,0,0:0:0:0:
189,213,84463,1,0,0:0:0:0:
291,315,84639,5,8,0:0:0:0:
316,248,84726,1,0,0:0:0:0:
303,178,84814,1,0,0:0:0:0:
101,107,84990,5,0,0:0:0:0:
156,62,85077,1,0,0:0:0:0:
227,51,85165,1,0,0:0:0:0:
101,107,85341,5,8,0:0:0:0:
170,120,85428,1,0,0:0:0:0:
224,167,85516,1,0,0:0:0:0:
402,345,85692,5,0,0:0:0:0:
402,345,85867,2,0,P|424:260|368:164,1,180.000006866455,0|8,0:0|0:0,0:0:0:0:
340,264,86218,1,0,0:0:0:0:
466,137,86393,5,0,0:0:0:0:
261,341,86569,1,0,0:0:0:0:
261,53,86744,1,8,0:0:0:0:
402,345,86920,1,0,0:0:0:0:
386,179,87095,1,0,0:0:0:0:
261,341,87270,5,0,0:0:0:0:
171,348,87357,1,0,0:0:0:0:
82,338,87445,1,8,0:0:0:0:
288,135,87621,5,0,0:0:0:0:
377,127,87708,1,0,0:0:0:0:
466,137,87796,1,0,0:0:0:0:
261,341,87972,5,0,0:0:0:0:
227,257,88059,1,0,0:0:0:0:
226,166,88147,1,8,0:0:0:0:
236,80,88235,5,0,0:0:0:0:
172,52,88322,1,0,0:0:0:0:
100,52,88410,1,0,0:0:0:0:
36,88,88499,1,0,0:0:0:0:
36,88,88674,6,0,B|64:144|68:188|36:284|80:284,1,180.000006866455,0|8,0:0|0:0,0:0:0:0:
161,366,89025,1,0,0:0:0:0:
414,112,89200,5,0,0:0:0:0:
235,290,89376,1,0,0:0:0:0:
235,38,89551,1,0,0:0:0:0:
413,216,89727,1,0,0:0:0:0:
161,216,89902,1,0,0:0:0:0:
161,216,90253,5,0,0:0:0:0:
148,154,90340,1,0,0:0:0:0:
142,91,90428,1,0,0:0:0:0:
351,168,90604,5,0,0:0:0:0:
363,229,90691,1,0,0:0:0:0:
369,292,90779,1,0,0:0:0:0:
148,154,90955,5,0,0:0:0:0:
173,96,91042,1,0,0:0:0:0:
204,41,91130,1,0,0:0:0:0:
331,223,91306,1,0,0:0:0:0:
457,96,91481,2,0,B|485:152|489:196|457:292|501:292,1,180.000006866455
331,223,91832,5,0,0:0:0:0:
127,19,92007,1,0,0:0:0:0:
385,277,92183,1,0,0:0:0:0:
182,74,92358,1,0,0:0:0:0:
438,330,92534,1,0,0:0:0:0:
237,129,92709,6,0,B|288:88|368:76|448:76,1,180.000006866455
304,176,93060,2,0,P|348:184|416:184,2,90.0000034332277
236,128,93411,1,0,0:0:0:0:
438,330,93586,1,0,0:0:0:0:
438,330,93937,5,0,0:0:0:0:
36,36,94288,1,0,0:0:0:0:
96,128,94463,1,0,0:0:0:0:
84,236,94639,1,0,0:0:0:0:
152,320,94814,5,0,0:0:0:0:
196,324,94901,1,0,0:0:0:0:
241,321,94989,1,0,0:0:0:0:
284,310,95077,1,0,0:0:0:0:
325,291,95164,5,0,0:0:0:0:
361,263,95252,1,0,0:0:0:0:
387,227,95340,1,0,0:0:0:0:
400,184,95428,1,0,0:0:0:0:
392,132,95516,6,0,P|304:52|192:52,1,180.000006866455
361,263,95867,2,0,P|449:343|561:343,1,180.000006866455
301,148,96218,2,0,P|232:168|108:168,1,180.000006866455
325,291,96569,2,0,P|414:291|501:268,1,180.000006866455
124,170,96920,6,0,P|148:214|148:374,2,180.000006866455
324,292,97446,1,0,0:0:0:0:
70,38,97621,5,0,0:0:0:0:
431,38,97797,1,0,0:0:0:0:
104,188,97972,1,0,0:0:0:0:
431,346,98148,1,0,0:0:0:0:
104,188,98323,2,0,P|160:120|260:64,1,180.000006866455
236,252,98674,6,0,P|328:224|440:224,1,180.000006866455
104,188,99025,2,0,P|133:130|67:34,1,180.000006866455
411,220,99376,2,0,P|382:278|448:374,1,180.000006866455
104,188,99727,2,0,P|160:120|260:64,3,180.000006866455
104,188,100428,5,0,0:0:0:0:
472,340,100604,1,0,0:0:0:0:
200,52,100779,1,0,0:0:0:0:
472,340,100955,1,0,0:0:0:0:
88,76,101130,1,0,0:0:0:0:
88,76,101481,6,0,L|264:192,1,180.000006866455
409,346,101832,2,0,L|233:230,1,180.000006866455
35,246,102183,2,0,P|120:200|240:200,1,180.000006866455
409,346,102534,6,0,P|431:246|424:132,1,180.000006866455
358,243,102885,2,0,P|294:254|167:254,1,180.000006866455
358,243,103235,5,0,0:0:0:0:
150,35,103411,1,0,0:0:0:0:
480,365,103586,1,0,0:0:0:0:
224,109,103762,1,0,0:0:0:0:
46,32,103937,5,0,0:0:0:0:
256,352,104288,1,0,0:0:0:0:
466,32,104638,5,0,0:0:0:0:
466,32,104814,1,0,0:0:0:0:
256,192,105165,5,0,0:0:0:0:
256,192,105516,1,0,0:0:0:0:
391,56,105691,1,0,0:0:0:0:
391,248,105867,5,0,0:0:0:0:
379,214,105954,1,0,0:0:0:0:
352,189,106042,1,0,0:0:0:0:
380,72,106217,5,0,0:0:0:0:
354,97,106305,1,0,0:0:0:0:
328,122,106393,1,0,0:0:0:0:
157,292,106569,6,0,P|140:220|140:160,1,120
157,292,106920,1,0,0:0:0:0:
410,38,107095,1,0,0:0:0:0:
240,207,107270,1,0,0:0:0:0:
325,292,107446,1,0,0:0:0:0:
444,292,107621,2,0,P|459:234|462:174,1,120
240,207,107972,6,0,P|224:149|221:89,1,120
240,207,108323,1,0,0:0:0:0:
120,326,108499,1,0,0:0:0:0:
120,158,108674,1,0,0:0:0:0:
272,310,108849,1,0,0:0:0:0:
50,88,109025,6,0,P|112:52|172:52,1,120,4|0,0:0|0:0,0:0:0:0:
462,174,109376,2,0,P|400:210|340:210,1,120,4|0,0:0|0:0,0:0:0:0:
462,174,109727,5,0,0:0:0:0:
164,84,109902,1,0,0:0:0:0:
475,84,110077,1,0,0:0:0:0:
180,192,110253,1,0,0:0:0:0:
462,174,110428,2,0,P|464:256|452:308,1,120
180,192,110779,6,0,P|170:132|174:73,1,120
180,192,111130,1,0,0:0:0:0:
316,55,111306,1,0,0:0:0:0:
451,190,111481,1,0,0:0:0:0:
315,325,111656,5,4,0:0:0:0:
93,103,111832,1,4,0:0:0:0:
404,103,112007,1,4,0:0:0:0:
182,324,112183,6,0,P|168:240|168:176,1,120,4|4,0:0|0:0,0:0:0:0:
182,324,112534,1,0,0:0:0:0:
404,103,112709,1,0,0:0:0:0:
250,256,112885,1,0,0:0:0:0:
470,35,113060,2,0,P|493:87|493:163,2,120
250,256,113586,6,0,P|240:192|240:120,1,120
320,188,113937,1,0,0:0:0:0:
250,256,114113,2,0,P|182:288|114:288,1,120
358,71,114463,6,0,P|392:132|392:204,2,120,4|0|0,0:0|0:0|0:0,0:0:0:0:
154,313,114990,2,0,P|120:252|120:180,1,120,4|0,0:0|0:0,0:0:0:0:
235,322,115341,1,0,0:0:0:0:
116,203,115516,1,0,0:0:0:0:
286,32,115692,1,0,0:0:0:0:
286,271,115867,2,0,P|372:268|440:236,2,120
116,203,116393,6,0,P|104:132|104:68,1,120
273,254,116744,1,0,0:0:0:0:
273,254,116920,2,0,P|300:168|300:116,1,120
132,308,117270,5,4,0:0:0:0:
476,196,117446,1,4,0:0:0:0:
120,140,117621,1,4,0:0:0:0:
464,32,117797,1,4,0:0:0:0:
