osu file format v14

[General]
AudioFilename: audio.mp3
AudioLeadIn: 0
PreviewTime: 25063
Countdown: 0
SampleSet: Normal
StackLeniency: 0.7
Mode: 1
LetterboxInBreaks: 0
WidescreenStoryboard: 0

[Editor]
DistanceSpacing: 1
BeatDivisor: 4
GridSize: 32
TimelineZoom: 1

[Metadata]
Title:Zenryoku*Summer! TV Size
TitleUnicode:全力☆Summer! TV Size
Artist:angela
ArtistUnicode:angela
Creator:Nifty
Version:Kantan
Source:アホガール
Tags:aho ahogaru clueless girl anime op opening
BeatmapID:1420955
BeatmapSetID:646789

[Difficulty]
HPDrainRate:8
CircleSize:2
OverallDifficulty:3
ApproachRate:10
SliderMultiplier:1.4
SliderTickRate:1

[Events]
//Background and Video events
0,0,"aho_girl-sayaka_sumino-anime-girl-(2196).jpg",0,80
//Break Periods
//Storyboard Layer 0 (Background)
//Storyboard Layer 1 (Fail)
//Storyboard Layer 2 (Pass)
//Storyboard Layer 3 (Foreground)
//Storyboard Sound Samples

[TimingPoints]
778,379.746835443038,4,1,0,70,1,0
20524,405.405405405405,4,1,0,20,1,0
20524,-100,4,1,0,20,0,0
22145,397.350993377483,4,1,0,50,1,0
22145,-100,4,1,0,50,0,0
23734,379.746835443038,4,1,0,70,1,0
25252,-100,4,1,0,70,0,0
26771,-100,4,1,0,80,0,1
49556,-100,4,1,0,70,0,0
54113,413.793103448276,4,1,0,70,1,0
54113,-87.719298245614,4,1,0,70,0,0
54526,437.956204379562,4,1,0,70,1,8
54526,-89.2857142857143,4,1,0,70,0,0
55401,461.538461538462,4,1,0,70,1,8
55862,476.190476190476,4,1,0,70,1,0
55862,-84.7457627118644,4,1,0,70,0,0
56338,500,4,1,0,70,1,8
56338,-80.6451612903226,4,1,0,70,0,8
56838,566.037735849057,4,1,0,70,1,8
56838,-68.9655172413793,4,1,0,70,0,8

[HitObjects]
256,96,778,5,0,0:0:0:0:
256,96,1537,1,8,0:0:0:0:
256,96,2296,1,0,0:0:0:0:
256,96,3056,1,12,0:0:0:0:
256,96,3436,1,12,0:0:0:0:
256,96,3815,1,0,0:0:0:0:
256,96,5334,1,0,0:0:0:0:
256,96,6094,1,8,0:0:0:0:
256,96,6474,1,0,0:0:0:0:
256,96,6853,1,0,0:0:0:0:
256,96,8372,1,0,0:0:0:0:
256,96,9132,1,8,0:0:0:0:
256,96,9512,1,8,0:0:0:0:
256,96,9891,1,0,0:0:0:0:
256,96,11410,1,0,0:0:0:0:
256,96,12170,1,8,0:0:0:0:
256,96,12550,1,0,0:0:0:0:
256,96,12929,1,0,0:0:0:0:
256,96,14448,1,0,0:0:0:0:
256,96,15208,1,8,0:0:0:0:
256,96,15967,1,0,0:0:0:0:
256,96,16347,1,8,0:0:0:0:
256,96,17486,1,0,0:0:0:0:
256,96,17866,1,8,0:0:0:0:
256,96,19005,1,8,0:0:0:0:
256,96,19385,1,8,0:0:0:0:
256,192,20524,12,0,22145,0:0:0:0:
256,160,22542,5,8,0:0:0:0:
256,160,22939,1,8,0:0:0:0:
256,160,23337,1,0,0:0:0:0:
288,160,25252,1,0,0:0:0:0:
256,160,26012,1,8,0:0:0:0:
256,160,26392,1,8,0:0:0:0:
256,160,26771,1,4,0:0:0:0:
256,160,27531,1,8,0:0:0:0:
256,160,28290,1,0,0:0:0:0:
256,160,29050,1,8,0:0:0:0:
256,160,29430,1,8,0:0:0:0:
256,160,29809,1,0,0:0:0:0:
256,160,30569,1,8,0:0:0:0:
256,160,31328,1,0,0:0:0:0:
256,160,32088,1,8,0:0:0:0:
256,160,32468,1,8,0:0:0:0:
256,160,32847,1,8,0:0:0:0:
256,160,33607,1,0,0:0:0:0:
256,160,34366,1,8,0:0:0:0:
256,160,35885,1,0,0:0:0:0:
256,160,36645,1,0,0:0:0:0:
256,160,37404,1,8,0:0:0:0:
256,160,38164,1,8,0:0:0:0:
256,160,38544,1,8,0:0:0:0:
256,160,38923,1,4,0:0:0:0:
256,160,39683,1,8,0:0:0:0:
256,160,40442,1,0,0:0:0:0:
256,160,41202,1,8,0:0:0:0:
256,160,41582,1,8,0:0:0:0:
256,160,41961,1,0,0:0:0:0:
256,160,42721,1,8,0:0:0:0:
256,160,43480,1,0,0:0:0:0:
256,160,44240,1,0,0:0:0:0:
256,160,44999,1,8,0:0:0:0:
256,160,46518,1,0,0:0:0:0:
256,160,47278,1,8,0:0:0:0:
128,256,48037,1,0,0:0:0:0:
256,160,48797,1,0,0:0:0:0:
256,160,49366,1,8,0:0:0:0:
256,160,51075,1,0,0:0:0:0:
256,160,51835,1,0,0:0:0:0:
256,160,52594,1,8,0:0:0:0:
256,160,53354,1,0,0:0:0:0:
256,160,53734,1,0,0:0:0:0:
128,96,54113,1,0,0:0:0:0:
256,160,54963,1,8,0:0:0:0:
256,160,55862,1,0,0:0:0:0:
256,160,56338,1,0,0:0:0:0:
256,160,56838,1,12,0:0:0:0:
