osu file format v14

[General]
AudioFilename: audio.mp3
AudioLeadIn: 0
PreviewTime: 25063
Countdown: 0
SampleSet: Normal
StackLeniency: 0.7
Mode: 1
LetterboxInBreaks: 0
WidescreenStoryboard: 0

[Editor]
DistanceSpacing: 1
BeatDivisor: 4
GridSize: 32
TimelineZoom: 1.1

[Metadata]
Title:Zenryoku*Summer! TV Size
TitleUnicode:全力☆Summer! TV Size
Artist:angela
ArtistUnicode:angela
Creator:Nifty
Version:Inner Oni
Source:アホガール
Tags:aho ahogaru clueless girl anime op opening
BeatmapID:1370315
BeatmapSetID:646789

[Difficulty]
HPDrainRate:5
CircleSize:2
OverallDifficulty:6
ApproachRate:10
SliderMultiplier:1.4
SliderTickRate:1

[Events]
//Background and Video events
0,0,"aho_girl-sayaka_sumino-anime-girl-(2196).jpg",0,80
//Break Periods
//Storyboard Layer 0 (Background)
//Storyboard Layer 1 (Fail)
//Storyboard Layer 2 (Pass)
//Storyboard Layer 3 (Foreground)
//Storyboard Sound Samples

[TimingPoints]
778,379.746835443038,4,1,0,70,1,0
20524,405.405405405405,4,1,0,20,1,0
20524,-100,4,1,0,20,0,0
22145,397.350993377483,4,1,0,50,1,0
22145,-142.857142857143,4,1,0,50,0,0
23734,379.746835443038,4,1,0,60,1,0
23734,-125,4,1,0,60,0,0
25252,-100,4,1,0,70,0,0
26771,-100,4,1,0,80,0,1
49556,-100,4,1,0,70,0,0
54113,413.793103448276,4,1,0,70,1,0
54526,437.956204379562,4,1,0,70,1,8
54963,-105.263157894737,4,1,0,70,0,0
55401,461.538461538462,4,1,0,70,1,8
55862,476.190476190476,4,1,0,70,1,0
55862,-102.040816326531,4,1,0,70,0,0
56338,500,4,1,0,70,1,8
56338,-105.263157894737,4,1,0,70,0,8
56838,566.037735849057,4,1,0,70,1,8

[HitObjects]
256,128,778,5,8,0:0:0:0:
256,128,1062,1,0,0:0:0:0:
256,128,1157,1,8,0:0:0:0:
256,128,1347,1,0,0:0:0:0:
256,128,1537,1,8,0:0:0:0:
256,128,1917,1,8,0:0:0:0:
256,128,2107,1,0,0:0:0:0:
256,128,2296,1,8,0:0:0:0:
256,128,2391,1,0,0:0:0:0:
256,128,2581,1,8,0:0:0:0:
256,128,2676,1,8,0:0:0:0:
256,128,2866,1,0,0:0:0:0:
256,128,3056,1,12,0:0:0:0:
256,128,3246,1,12,0:0:0:0:
256,128,3436,1,12,0:0:0:0:
256,128,3815,1,8,0:0:0:0:
256,128,4005,1,0,0:0:0:0:
256,128,4100,1,0,0:0:0:0:
256,128,4195,1,8,0:0:0:0:
256,128,4385,1,0,0:0:0:0:
256,128,4480,1,0,0:0:0:0:
256,128,4575,1,8,0:0:0:0:
256,128,4670,1,8,0:0:0:0:
256,128,4765,1,0,0:0:0:0:
256,128,4860,1,0,0:0:0:0:
256,128,4955,1,8,0:0:0:0:
256,128,5050,1,0,0:0:0:0:
256,128,5145,1,8,0:0:0:0:
256,128,5240,1,8,0:0:0:0:
256,128,5334,1,0,0:0:0:0:
256,128,5429,1,0,0:0:0:0:
256,128,5524,1,8,0:0:0:0:
256,128,5619,1,0,0:0:0:0:
256,128,5714,1,8,0:0:0:0:
256,128,5809,1,8,0:0:0:0:
256,128,5904,1,0,0:0:0:0:
256,128,5999,1,0,0:0:0:0:
256,128,6094,1,8,0:0:0:0:
256,128,6284,1,8,0:0:0:0:
256,128,6379,1,0,0:0:0:0:
256,128,6474,1,8,0:0:0:0:
256,128,6853,1,8,0:0:0:0:
256,128,7043,1,0,0:0:0:0:
256,128,7138,1,0,0:0:0:0:
256,128,7233,1,8,0:0:0:0:
256,128,7423,1,0,0:0:0:0:
256,128,7613,1,8,0:0:0:0:
256,128,7803,1,8,0:0:0:0:
256,128,7898,1,0,0:0:0:0:
256,128,7993,1,8,0:0:0:0:
256,128,8088,1,8,0:0:0:0:
256,128,8183,1,0,0:0:0:0:
256,128,8278,1,0,0:0:0:0:
256,128,8372,1,8,0:0:0:0:
256,128,8467,1,8,0:0:0:0:
256,128,8562,1,8,0:0:0:0:
256,128,8657,1,0,0:0:0:0:
256,128,8752,1,8,0:0:0:0:
256,128,8847,1,8,0:0:0:0:
256,128,8942,1,0,0:0:0:0:
256,128,9037,1,0,0:0:0:0:
256,128,9132,1,8,0:0:0:0:
256,128,9227,1,8,0:0:0:0:
256,128,9322,1,0,0:0:0:0:
256,128,9417,1,0,0:0:0:0:
256,128,9512,1,8,0:0:0:0:
256,128,9891,1,8,0:0:0:0:
256,128,9986,1,8,0:0:0:0:
256,128,10081,1,0,0:0:0:0:
256,128,10176,1,0,0:0:0:0:
256,128,10271,1,8,0:0:0:0:
256,128,10366,1,0,0:0:0:0:
256,128,10461,1,8,0:0:0:0:
256,128,10556,1,8,0:0:0:0:
256,128,10651,1,0,0:0:0:0:
256,128,10841,1,8,0:0:0:0:
256,128,10936,1,0,0:0:0:0:
256,128,11031,1,8,0:0:0:0:
256,128,11126,1,0,0:0:0:0:
256,128,11221,1,0,0:0:0:0:
256,128,11315,1,8,0:0:0:0:
256,128,11410,1,8,0:0:0:0:
256,128,11600,1,8,0:0:0:0:
256,128,11695,1,0,0:0:0:0:
256,128,11790,1,8,0:0:0:0:
256,128,11885,1,8,0:0:0:0:
256,128,11980,1,0,0:0:0:0:
256,128,12075,1,0,0:0:0:0:
256,128,12170,1,8,0:0:0:0:
256,128,12360,1,0,0:0:0:0:
256,128,12550,1,8,0:0:0:0:
256,128,12929,1,8,0:0:0:0:
256,128,13024,1,0,0:0:0:0:
256,128,13214,1,0,0:0:0:0:
256,128,13309,1,8,0:0:0:0:
256,128,13404,1,8,0:0:0:0:
256,128,13499,1,0,0:0:0:0:
256,128,13594,1,0,0:0:0:0:
256,128,13689,1,8,0:0:0:0:
256,128,13879,1,8,0:0:0:0:
256,128,13974,1,0,0:0:0:0:
256,128,14069,1,8,0:0:0:0:
256,128,14164,1,0,0:0:0:0:
256,128,14259,1,0,0:0:0:0:
256,128,14353,1,8,0:0:0:0:
256,128,14448,1,0,0:0:0:0:
256,128,14543,1,0,0:0:0:0:
256,128,14638,1,8,0:0:0:0:
256,128,14828,1,8,0:0:0:0:
256,128,15018,1,0,0:0:0:0:
256,128,15208,1,0,0:0:0:0:
256,128,15303,1,8,0:0:0:0:
256,128,15398,1,0,0:0:0:0:
256,128,15588,1,8,0:0:0:0:
256,128,15967,1,8,0:0:0:0:
256,128,16157,1,8,0:0:0:0:
256,128,16252,1,0,0:0:0:0:
256,128,16347,1,8,0:0:0:0:
256,128,16537,1,0,0:0:0:0:
256,128,16632,1,8,0:0:0:0:
256,128,16727,1,8,0:0:0:0:
256,128,16917,1,0,0:0:0:0:
256,128,17012,1,0,0:0:0:0:
256,128,17107,1,8,0:0:0:0:
256,128,17296,1,0,0:0:0:0:
256,128,17486,1,8,0:0:0:0:
256,128,17676,1,8,0:0:0:0:
256,128,17771,1,0,0:0:0:0:
256,128,17866,1,8,0:0:0:0:
256,128,17961,1,8,0:0:0:0:
256,128,18246,1,0,0:0:0:0:
256,128,18341,1,8,0:0:0:0:
256,128,18436,1,0,0:0:0:0:
256,128,18531,1,8,0:0:0:0:
256,128,18626,1,0,0:0:0:0:
256,128,18815,1,0,0:0:0:0:
256,128,19005,1,8,0:0:0:0:
256,128,19100,1,0,0:0:0:0:
256,128,19195,1,8,0:0:0:0:
256,128,19290,1,8,0:0:0:0:
256,128,19385,1,8,0:0:0:0:
256,128,19575,1,0,0:0:0:0:
256,128,19670,1,0,0:0:0:0:
256,128,19765,1,8,0:0:0:0:
256,128,19860,1,0,0:0:0:0:
256,128,19955,1,8,0:0:0:0:
256,128,20050,1,0,0:0:0:0:
256,128,20145,1,8,0:0:0:0:
256,128,20334,1,0,0:0:0:0:
256,192,20524,12,0,22145,0:0:0:0:
256,96,22542,5,0,0:0:0:0:
256,96,22674,1,8,0:0:0:0:
256,96,22807,1,0,0:0:0:0:
256,96,22939,1,0,0:0:0:0:
256,96,23336,1,0,0:0:0:0:
256,96,23734,1,0,0:0:0:0:
256,96,24113,1,0,0:0:0:0:
256,96,24303,1,8,0:0:0:0:
256,96,24493,1,0,0:0:0:0:
256,96,24683,1,8,0:0:0:0:
256,96,24873,1,8,0:0:0:0:
256,96,25252,1,8,0:0:0:0:
256,96,25632,1,8,0:0:0:0:
256,96,25917,1,0,0:0:0:0:
256,96,26012,1,8,0:0:0:0:
256,96,26202,1,8,0:0:0:0:
256,96,26392,1,0,0:0:0:0:
256,96,26582,1,0,0:0:0:0:
256,96,26771,1,12,0:0:0:0:
256,96,26961,1,0,0:0:0:0:
256,96,27056,1,0,0:0:0:0:
256,96,27151,1,0,0:0:0:0:
256,96,27341,1,8,0:0:0:0:
256,96,27531,1,0,0:0:0:0:
256,96,27721,1,8,0:0:0:0:
256,96,27816,1,8,0:0:0:0:
256,96,27911,1,0,0:0:0:0:
256,96,28101,1,0,0:0:0:0:
256,96,28290,1,8,0:0:0:0:
256,96,28480,1,0,0:0:0:0:
256,96,28575,1,0,0:0:0:0:
256,96,28670,1,8,0:0:0:0:
256,96,28765,1,8,0:0:0:0:
256,96,28860,1,0,0:0:0:0:
256,96,29050,1,8,0:0:0:0:
256,96,29240,1,0,0:0:0:0:
256,96,29335,1,8,0:0:0:0:
256,96,29430,1,0,0:0:0:0:
256,96,29620,1,8,0:0:0:0:
256,96,29809,1,0,0:0:0:0:
256,96,29999,1,0,0:0:0:0:
256,96,30094,1,0,0:0:0:0:
256,96,30189,1,8,0:0:0:0:
256,96,30379,1,8,0:0:0:0:
256,96,30569,1,0,0:0:0:0:
256,96,30759,1,8,0:0:0:0:
256,96,30854,1,8,0:0:0:0:
256,96,30949,1,0,0:0:0:0:
256,96,31139,1,8,0:0:0:0:
256,96,31328,1,8,0:0:0:0:
256,96,31518,1,0,0:0:0:0:
256,96,31613,1,0,0:0:0:0:
256,96,31708,1,8,0:0:0:0:
256,96,31803,1,0,0:0:0:0:
256,96,31898,1,8,0:0:0:0:
256,96,32088,1,8,0:0:0:0:
256,96,32183,1,0,0:0:0:0:
256,96,32278,1,0,0:0:0:0:
256,96,32373,1,8,0:0:0:0:
256,96,32468,1,8,0:0:0:0:
256,96,32563,1,0,0:0:0:0:
256,96,32658,1,8,0:0:0:0:
256,96,32847,1,8,0:0:0:0:
256,96,33037,1,0,0:0:0:0:
256,96,33132,1,0,0:0:0:0:
256,96,33227,1,8,0:0:0:0:
256,96,33417,1,8,0:0:0:0:
256,96,33607,1,0,0:0:0:0:
256,96,33797,1,8,0:0:0:0:
256,96,33892,1,0,0:0:0:0:
256,96,33987,1,0,0:0:0:0:
256,96,34177,1,8,0:0:0:0:
256,96,34366,1,8,0:0:0:0:
256,96,34556,1,0,0:0:0:0:
256,96,34651,1,8,0:0:0:0:
256,96,34746,1,8,0:0:0:0:
256,96,34936,1,0,0:0:0:0:
256,96,35126,1,8,0:0:0:0:
256,96,35316,1,0,0:0:0:0:
256,96,35411,1,8,0:0:0:0:
256,96,35506,1,0,0:0:0:0:
256,96,35696,1,8,0:0:0:0:
256,96,35885,1,8,0:0:0:0:
256,96,35980,1,8,0:0:0:0:
256,96,36075,1,0,0:0:0:0:
256,96,36170,1,0,0:0:0:0:
256,96,36265,1,8,0:0:0:0:
256,96,36455,1,0,0:0:0:0:
256,96,36645,1,8,0:0:0:0:
256,96,36835,1,8,0:0:0:0:
256,96,37025,1,0,0:0:0:0:
256,96,37215,1,8,0:0:0:0:
256,96,37404,1,8,0:0:0:0:
256,96,37594,1,0,0:0:0:0:
256,96,37689,1,0,0:0:0:0:
256,96,37784,1,8,0:0:0:0:
256,96,37974,1,0,0:0:0:0:
256,96,38069,1,0,0:0:0:0:
256,96,38164,1,8,0:0:0:0:
256,96,38259,1,0,0:0:0:0:
256,96,38354,1,8,0:0:0:0:
256,96,38449,1,0,0:0:0:0:
256,96,38544,1,8,0:0:0:0:
256,96,38639,1,8,0:0:0:0:
256,96,38734,1,0,0:0:0:0:
256,96,38828,1,0,0:0:0:0:
256,96,38923,1,12,0:0:0:0:
256,96,39113,1,0,0:0:0:0:
256,96,39208,1,0,0:0:0:0:
256,96,39303,1,8,0:0:0:0:
256,96,39493,1,8,0:0:0:0:
256,96,39683,1,0,0:0:0:0:
256,96,39873,1,8,0:0:0:0:
256,96,39968,1,0,0:0:0:0:
256,96,40063,1,8,0:0:0:0:
246,96,40252,1,0,0:0:0:0:
256,96,40442,1,8,0:0:0:0:
256,96,40632,1,0,0:0:0:0:
256,96,40727,1,0,0:0:0:0:
256,96,40822,1,8,0:0:0:0:
256,64,40917,1,8,0:0:0:0:
256,96,41012,1,0,0:0:0:0:
256,96,41202,1,8,0:0:0:0:
256,96,41392,1,0,0:0:0:0:
256,96,41487,1,8,0:0:0:0:
256,96,41582,1,0,0:0:0:0:
256,96,41771,1,8,0:0:0:0:
256,96,41961,1,0,0:0:0:0:
224,96,42151,1,0,0:0:0:0:
256,96,42246,1,0,0:0:0:0:
256,96,42341,1,8,0:0:0:0:
245,96,42531,1,0,0:0:0:0:
256,96,42721,1,8,0:0:0:0:
256,96,42911,1,0,0:0:0:0:
256,96,43006,1,8,0:0:0:0:
256,96,43101,1,0,0:0:0:0:
256,96,43290,1,0,0:0:0:0:
256,96,43480,1,8,0:0:0:0:
241,97,43575,1,8,0:0:0:0:
256,96,43670,1,0,0:0:0:0:
256,96,43765,1,0,0:0:0:0:
256,96,43860,1,8,0:0:0:0:
256,96,44050,1,0,0:0:0:0:
256,96,44240,1,8,0:0:0:0:
256,96,44335,1,8,0:0:0:0:
269,84,44430,1,8,0:0:0:0:
256,96,44525,1,0,0:0:0:0:
256,96,44620,1,8,0:0:0:0:
249,92,44715,1,0,0:0:0:0:
256,96,44809,1,0,0:0:0:0:
256,96,44904,1,0,0:0:0:0:
256,96,44999,1,8,0:0:0:0:
256,96,45189,1,0,0:0:0:0:
256,96,45284,1,0,0:0:0:0:
256,96,45379,1,8,0:0:0:0:
256,96,45569,1,0,0:0:0:0:
256,96,45759,1,8,0:0:0:0:
256,96,45854,1,8,0:0:0:0:
256,96,45949,1,0,0:0:0:0:
256,96,46044,1,0,0:0:0:0:
256,96,46139,1,8,0:0:0:0:
256,96,46328,1,0,0:0:0:0:
256,96,46518,1,8,0:0:0:0:
256,96,46708,1,0,0:0:0:0:
256,96,46803,1,0,0:0:0:0:
256,96,46898,1,8,0:0:0:0:
254,86,47088,1,0,0:0:0:0:
254,86,47278,1,8,0:0:0:0:
252,86,47468,1,0,0:0:0:0:
253,83,47563,1,8,0:0:0:0:
245,86,47658,1,8,0:0:0:0:
245,86,47752,1,0,0:0:0:0:
256,96,47847,1,0,0:0:0:0:
256,96,48037,1,8,0:0:0:0:
256,96,48132,1,8,0:0:0:0:
256,96,48227,1,0,0:0:0:0:
256,96,48322,1,8,0:0:0:0:
256,96,48417,1,8,0:0:0:0:
256,96,48512,1,0,0:0:0:0:
256,96,48607,1,0,0:0:0:0:
256,96,48702,1,8,0:0:0:0:
256,96,48797,1,8,0:0:0:0:
256,96,48892,1,0,0:0:0:0:
256,96,48987,1,0,0:0:0:0:
256,96,49082,1,0,0:0:0:0:
256,96,49177,1,8,0:0:0:0:
256,96,49271,1,0,0:0:0:0:
256,96,49366,1,8,0:0:0:0:
256,96,51075,1,8,0:0:0:0:
256,96,51170,1,0,0:0:0:0:
256,96,51265,1,8,0:0:0:0:
256,96,51455,1,8,0:0:0:0:
256,96,51550,1,8,0:0:0:0:
256,96,51645,1,0,0:0:0:0:
256,96,51740,1,0,0:0:0:0:
256,96,51835,1,8,0:0:0:0:
256,96,52025,1,0,0:0:0:0:
256,96,52120,1,0,0:0:0:0:
256,96,52215,1,8,0:0:0:0:
256,96,52309,1,0,0:0:0:0:
256,96,52404,1,8,0:0:0:0:
256,96,52499,1,8,0:0:0:0:
256,96,52594,1,0,0:0:0:0:
256,96,52784,1,0,0:0:0:0:
256,96,52974,1,8,0:0:0:0:
256,96,53069,1,8,0:0:0:0:
256,96,53164,1,0,0:0:0:0:
256,96,53259,1,0,0:0:0:0:
256,96,53354,1,8,0:0:0:0:
256,96,53449,1,0,0:0:0:0:
256,96,53544,1,8,0:0:0:0:
256,96,53734,1,8,0:0:0:0:
256,96,54113,1,0,0:0:0:0:
256,96,54526,1,8,0:0:0:0:
256,96,54963,1,8,0:0:0:0:
256,96,55401,1,0,0:0:0:0:
256,96,55862,1,8,0:0:0:0:
256,96,56338,1,0,0:0:0:0:
256,96,56838,1,12,0:0:0:0:
