osu file format v14

[General]
AudioFilename: audio.mp3
AudioLeadIn: 0
PreviewTime: 26633
Countdown: 0
SampleSet: Soft
StackLeniency: 0.7
Mode: 0
LetterboxInBreaks: 0
WidescreenStoryboard: 1

[Editor]
DistanceSpacing: 1
BeatDivisor: 4
GridSize: 8
TimelineZoom: 0.9000001

[Metadata]
Title:Zenryoku*Summer! TV Size
TitleUnicode:全力☆Summer! TV Size
Artist:angela
ArtistUnicode:angela
Creator:AngelSnow
Version:Normal
Source:アホガール
Tags:aho-girl ahogaru clueless girl aho op tvsize anime opening baka banana buhei
BeatmapID:1421504
BeatmapSetID:642379

[Difficulty]
HPDrainRate:4
CircleSize:3
OverallDifficulty:4
ApproachRate:5
SliderMultiplier:1.3
SliderTickRate:1

[Events]
//Background and Video events
0,0,"aho_girl-anime-characters-(2191).jpg",0,0
//Break Periods
//Storyboard Layer 0 (Background)
//Storyboard Layer 1 (Fail)
//Storyboard Layer 2 (Pass)
//Storyboard Layer 3 (Foreground)
//Storyboard Sound Samples

[TimingPoints]
824,379.746835443038,4,2,0,65,1,0
824,-100,4,2,0,65,0,0
3861,-111.111111111111,4,2,0,65,0,0
16013,-100,4,2,0,65,0,0
20572,405.405405405405,4,2,0,65,1,0
23785,379.746835443038,4,2,0,65,1,0
26822,-100,4,2,0,80,0,1
49607,-100,4,2,0,80,0,0
51126,-100,4,2,0,50,0,0
54179,434.782608695652,4,2,0,80,1,0
55918,500,4,2,0,75,1,0
56871,444.444444444444,4,2,0,75,1,0

[Colours]
Combo1 : 255,255,128
Combo2 : 128,128,128
Combo3 : 255,128,0
Combo4 : 202,0,0

[HitObjects]
430,62,824,6,0,P|430:184|404:230,1,130,4|2,1:2|1:2,0:0:0:0:
367,304,1584,2,0,P|244:304|198:278,1,130,0|8,1:0|3:0,0:0:0:0:
123,244,2343,1,4,0:0:0:0:
236,180,2723,1,2,3:2:0:0:
123,115,3103,2,0,L|51:69,2,65,8|8|4,3:0|3:0|1:2,0:0:0:0:
249,85,3862,6,0,P|363:83|388:95,1,116.999996429443,4|0,3:2|1:0,0:0:0:0:
446,166,4622,2,0,P|446:263|408:320,1,116.999996429443,0|0,3:0|1:0,0:0:0:0:
326,269,5381,2,0,L|299:348,2,58.4999982147217,0|0|0,3:0|0:0|1:0,0:0:0:0:
340,152,6141,2,0,L|322:72,1,58.4999982147217,4|4,3:0|3:0,0:0:0:0:
316,49,6520,1,0,1:0:0:0:
225,123,6900,6,0,P|146:89|103:116,1,116.999996429443,0|0,3:0|1:0,0:0:0:0:
99,213,7660,2,0,P|178:247|221:220,1,116.999996429443,0|0,3:0|1:0,0:0:0:0:
314,208,8419,2,0,L|395:228,2,58.4999982147217,0|2|0,3:0|0:0|1:0,0:0:0:0:
199,181,9179,2,0,L|122:159,2,58.4999982147217,4|4|0,3:0|3:0|1:0,0:0:0:0:
314,208,9938,5,4,3:2:0:0:
429,187,10318,1,0,1:0:0:0:
354,96,10698,2,0,P|277:81|226:111,1,116.999996429443,0|0,3:0|1:0,0:0:0:0:
137,47,11456,2,0,L|68:47,2,58.4999982147217,0|2|0,3:0|0:0|1:0,0:0:0:0:
137,164,12216,2,0,L|212:164,2,58.4999982147217,4|4|0,3:0|3:0|1:0,0:0:0:0:
131,278,12976,6,0,P|202:298|274:286,1,116.999996429443,0|0,3:0|1:0,0:0:0:0:
358,265,13736,2,0,P|380:202|371:138,1,116.999996429443,0|0,3:0|1:0,0:0:0:0:
264,190,14495,2,0,L|188:169,2,58.4999982147217,4|2|0,3:0|0:0|1:0,0:0:0:0:
265,307,15255,2,0,L|189:328,2,58.4999982147217,0|4|2,1:0|3:0|1:2,0:0:0:0:
376,240,16014,6,0,P|392:174|372:114,1,130,4|0,3:2|1:0,0:0:0:0:
256,179,16774,2,0,L|256:244,2,65,2|0|2,0:0|0:0|0:0,0:0:0:0:
140,120,17532,2,0,P|124:186|144:246,1,130,4|0,3:0|1:0,0:0:0:0:
256,179,18293,2,0,L|256:114,2,65,2|0|2,0:0|0:0|3:2,0:0:0:0:
198,62,19052,6,0,P|256:36|314:61,1,130,4|4,3:0|1:2,0:0:0:0:
397,160,19812,2,0,P|422:218|397:276,1,130,0|0,3:0|1:0,0:0:0:0:
256,192,20572,12,0,23785,0:0:0:0:
335,119,25303,6,0,B|404:86|465:144|465:144,1,130,4|4,3:0|1:3,0:0:0:0:
376,239,26063,2,0,P|359:362|359:362,2,65,2|8|4,3:2|3:0|1:2,0:0:0:0:
248,214,26822,5,4,3:2:0:0:
170,109,27202,1,0,1:0:0:0:
170,109,27392,2,0,P|252:83|313:104,1,130,2|2,0:0|0:0,0:0:0:0:
417,132,28152,1,2,0:0:0:0:
417,132,28341,2,0,L|513:158,2,65,2|0|0,3:2|0:0|1:0,0:0:0:0:
388,261,29101,2,0,L|484:287,2,65,4|2|0,3:0|3:2|1:0,0:0:0:0:
264,220,29860,6,0,P|186:194|142:143,1,130,0|0,3:0|1:0,0:0:0:0:
123,118,30430,1,2,0:0:0:0:
234,50,30810,2,0,P|325:64|369:114,1,130,2|2,0:0|0:0,0:0:0:0:
391,120,31379,2,0,L|377:202,1,65,0|2,3:0|0:0,0:0:0:0:
380,236,31759,2,0,L|393:318,2,65,0|2|4,1:0|0:0|3:0,0:0:0:0:
249,246,32519,6,0,L|168:259,1,65,0|2,1:0|1:2,0:0:0:0:
140,234,32898,2,0,P|145:138|180:104,1,130,0|0,3:0|1:0,0:0:0:0:
215,106,33468,2,0,P|274:149|282:219,1,130,2|2,0:0|0:0,0:0:0:0:
348,324,34228,1,2,0:0:0:0:
348,324,34417,2,0,P|262:368|207:356,2,130,0|0|4,3:0|1:0|3:2,0:0:0:0:
253,234,35557,6,0,L|233:164,1,65,0|2,1:0|0:0,0:0:0:0:
203,129,35936,2,0,P|132:120|76:160,2,130,0|0|0,3:0|1:0|3:0,0:0:0:0:
255,124,36886,2,0,L|329:117,1,65,2|0,3:0|1:0,0:0:0:0:
372,118,37266,2,0,P|431:202|418:308,1,195,2|0,3:2|1:0,0:0:0:0:
306,342,38215,1,4,3:0:0:0:
175,342,38595,1,0,1:0:0:0:
81,252,38974,6,0,P|144:215|211:215,1,130,4|0,3:2|1:0,0:0:0:0:
248,230,39544,2,0,P|309:255|396:276,2,130,2|2|2,0:0|0:0|0:0,0:0:0:0:
199,212,40493,1,0,3:0:0:0:
280,110,40873,1,0,1:0:0:0:
151,87,41253,2,0,P|100:83|51:91,2,97.5,4|0|2,3:0|3:0|1:3,0:0:0:0:
188,123,42012,5,0,0:0:0:0:
144,248,42392,1,0,0:0:0:0:
144,248,42582,2,0,P|76:274|-5:294,2,130,2|2|2,0:0|0:0|0:0,0:0:0:0:
191,225,43531,1,0,3:0:0:0:
325,185,43911,1,0,1:0:0:0:
366,322,44291,1,0,3:0:0:0:
230,365,44671,1,0,1:0:0:0:
102,334,45050,6,0,P|58:287|52:223,1,130,4|0,3:2|1:0,0:0:0:0:
17,96,45810,2,0,P|80:90|137:120,1,130,4|0,3:0|1:0,0:0:0:0:
180,243,46569,2,0,P|237:205|263:141,2,130,4|0|0,3:2|1:0|1:0,0:0:0:0:
52,223,47709,1,0,1:0:0:0:
17,96,48088,6,0,P|80:90|137:120,1,130,4|0,1:2|1:0,0:0:0:0:
180,243,48848,2,0,P|237:205|263:141,2,130,0|0|0,1:0|1:0|1:0,0:0:0:0:
283,292,51126,5,4,0:0:0:0:
159,252,51505,1,0,1:0:0:0:
159,121,51885,1,2,0:0:0:0:
283,81,52265,1,0,1:0:0:0:
369,178,52645,2,0,L|448:204,2,65,0|0|0,0:0|0:0|1:0,0:0:0:0:
369,308,53405,2,0,L|452:282,2,65,0|0|0,1:0|1:0|1:0,0:0:0:0:
255,338,54179,6,0,B|173:353|130:290,1,130,4|0,1:2|1:0,0:0:0:0:
229,213,55048,1,0,1:0:0:0:
359,213,55483,1,0,1:0:0:0:
449,141,55918,2,0,B|403:86|332:100,1,130,0|0,1:0|1:0,0:0:0:0:
200,101,56871,5,4,1:2:0:0:
256,192,56982,12,2,58648,0:0:0:0:
