osu file format v14

[General]
AudioFilename: audio.mp3
AudioLeadIn: 0
PreviewTime: 26633
Countdown: 0
SampleSet: Soft
StackLeniency: 0.7
Mode: 0
LetterboxInBreaks: 0
WidescreenStoryboard: 1

[Editor]
DistanceSpacing: 1.2
BeatDivisor: 4
GridSize: 4
TimelineZoom: 2

[Metadata]
Title:Zenryoku*Summer! TV Size
TitleUnicode:全力☆Summer! TV Size
Artist:angela
ArtistUnicode:angela
Creator:AngelSnow
Version:Hard
Source:アホガール
Tags:aho-girl ahogaru clueless girl aho op tvsize anime opening baka banana buhei
BeatmapID:1430626
BeatmapSetID:642379

[Difficulty]
HPDrainRate:5
CircleSize:3.5
OverallDifficulty:6
ApproachRate:7.5
SliderMultiplier:1.6
SliderTickRate:1

[Events]
//Background and Video events
0,0,"aho_girl-anime-characters-(2191).jpg",0,0
//Break Periods
//Storyboard Layer 0 (Background)
//Storyboard Layer 1 (Fail)
//Storyboard Layer 2 (Pass)
//Storyboard Layer 3 (Foreground)
//Storyboard Sound Samples

[TimingPoints]
824,379.746835443038,4,2,0,65,1,0
20572,405.405405405405,4,2,0,65,1,0
20572,-142.857142857143,4,2,0,65,0,0
23785,379.746835443038,4,2,0,65,1,0
26822,-100,4,2,0,80,0,1
49797,-100,4,2,0,80,0,0
51126,-100,4,2,0,50,0,0
53405,-100,4,2,0,65,0,0
54179,434.782608695652,4,2,0,80,1,0
54179,-125,4,2,0,80,0,0
55918,500,4,2,0,75,1,0
55918,-125,4,2,0,75,0,0
56871,444.444444444444,4,2,0,75,1,0

[Colours]
Combo1 : 255,255,128
Combo2 : 128,128,128
Combo3 : 255,128,0
Combo4 : 202,0,0

[HitObjects]
32,300,824,6,0,P|80:272|96:208,1,120,4|0,1:2|0:0,0:0:0:0:
96,212,1204,2,0,L|179:213,1,80,2|0,1:2|0:0,0:0:0:0:
256,280,1584,2,0,L|416:280,1,160,0|8,1:0|3:0,0:0:0:0:
496,212,2154,1,0,0:0:0:0:
500,108,2343,6,0,P|472:60|408:44,1,120,4|0,0:0|3:0,0:0:0:0:
412,43,2723,2,0,L|328:44,1,80,2|2,3:2|0:0,0:0:0:0:
256,116,3103,1,8,3:0:0:0:
256,116,3293,1,8,3:0:0:0:
256,116,3483,1,4,1:2:0:0:
86,69,3862,6,0,L|174:69,1,80,4|2,3:2|0:0,0:0:0:0:
256,116,4242,2,0,L|344:116,1,80,0|2,1:0|0:0,0:0:0:0:
432,184,4622,2,0,L|408:220,3,40,0|0|2|0,3:0|0:0|0:0|0:0,0:0:0:0:
420,256,5002,2,0,L|397:289,3,40,0|0|2|0,1:0|0:0|0:0|0:0,0:0:0:0:
380,320,5381,5,0,3:0:0:0:
380,320,5476,2,0,P|336:332|304:324,1,80,2|0,0:0|0:0,0:0:0:0:
272,300,5761,2,0,P|233:291|195:303,1,80,0|2,1:0|0:0,0:0:0:0:
112,352,6141,1,4,3:0:0:0:
112,256,6331,1,4,3:0:0:0:
112,160,6521,1,0,1:0:0:0:
256,40,6900,6,0,P|300:51|323:74,1,80,0|2,3:0|0:0,0:0:0:0:
339,111,7185,1,0,0:0:0:0:
339,111,7280,2,0,P|368:137|407:145,1,80,0|2,1:0|0:0,0:0:0:0:
492,96,7660,2,0,L|492:16,2,80,0|2|0,3:0|0:0|1:0,0:0:0:0:
492,192,8230,5,0,3:0:0:0:
492,192,8324,1,0,0:0:0:0:
492,192,8419,2,0,L|472:232,3,40,0|0|2|0,3:0|0:0|0:0|0:0,0:0:0:0:
432,228,8799,2,0,L|324:228,1,80,0|2,1:0|0:0,0:0:0:0:
268,184,9179,1,4,3:0:0:0:
268,280,9369,1,4,3:0:0:0:
268,376,9559,1,0,1:0:0:0:
132,292,9938,6,0,L|108:256,3,40,4|0|2|0,3:2|0:0|0:0|0:0,0:0:0:0:
120,220,10318,2,0,L|97:186,3,40,0|0|2|0,1:0|0:0|0:0|0:0,0:0:0:0:
80,156,10698,2,0,P|36:144|4:152,1,80,0|2,3:0|0:0,0:0:0:0:
168,136,11078,2,0,P|205:147|248:136,1,80,0|0,1:0|0:0,0:0:0:0:
324,84,11457,5,0,3:0:0:0:
392,152,11647,1,2,0:0:0:0:
392,152,11742,1,0,0:0:0:0:
392,152,11837,2,0,L|476:152,1,80,0|2,1:0|0:0,0:0:0:0:
376,240,12217,5,4,3:0:0:0:
306,168,12407,1,4,3:0:0:0:
282,263,12597,1,0,1:0:0:0:
88,344,12976,6,0,P|116:312|124:276,1,80,0|2,3:0|0:0,0:0:0:0:
124,236,13261,1,0,0:0:0:0:
124,236,13356,2,0,P|114:197|87:168,1,80,0|2,1:0|0:0,0:0:0:0:
20,68,13736,2,0,L|120:68,1,80,0|2,3:0|0:0,0:0:0:0:
140,68,14021,1,0,0:0:0:0:
140,68,14116,2,0,L|160:32,3,40,0|0|2|0,1:0|0:0|0:0|0:0,0:0:0:0:
200,32,14495,6,0,L|300:32,1,80,4|2,3:0|0:0,0:0:0:0:
348,128,14875,2,0,L|268:128,1,80,0|4,1:0|3:0,0:0:0:0:
140,208,15255,1,0,1:0:0:0:
140,208,15350,1,0,3:0:0:0:
140,208,15445,2,0,L|240:208,1,80,4|2,3:0|1:2,0:0:0:0:
480,312,16014,5,4,3:2:0:0:
384,320,16204,1,2,0:0:0:0:
384,320,16299,1,0,0:0:0:0:
384,320,16394,1,0,1:0:0:0:
256,224,16774,5,2,0:0:0:0:
256,320,16964,2,0,L|256:372,2,40,0|0|2,0:0|0:0|0:0,0:0:0:0:
32,224,17533,5,4,3:0:0:0:
128,224,17723,1,2,0:0:0:0:
224,224,17912,2,0,L|259:159,1,40,0|2,1:0|0:0,0:0:0:0:
256,68,18293,6,0,L|256:28,4,40,2|0|0|0|2,0:0|0:0|0:0|0:0|3:2,0:0:0:0:
456,140,19052,5,4,3:0:0:0:
456,140,19147,2,0,L|360:140,1,80,0|0,0:0|0:0,0:0:0:0:
336,140,19432,1,4,1:2:0:0:
256,248,19812,6,0,L|256:288,4,40,0|0|2|0|0,3:0|0:0|0:0|0:0|1:0,0:0:0:0:
101,249,20572,6,0,P|71:168|91:85,2,167.999994873047,0|2|0,0:0|0:0|0:0,0:0:0:0:
238,155,22193,2,0,P|287:182|343:187,1,111.999996582031,0|2,0:0|0:0,0:0:0:0:
343,321,23004,2,0,P|287:325|238:352,1,111.999996582031,2|0,0:0|0:0,0:0:0:0:
256,192,23785,12,2,24924,0:0:0:0:
148,192,25303,5,4,3:0:0:0:
148,192,25683,5,4,1:3:0:0:
337,129,26063,1,2,3:2:0:0:
438,176,26253,1,8,3:0:0:0:
482,80,26443,1,4,1:2:0:0:
482,80,26633,1,0,3:0:0:0:
381,33,26822,6,0,P|342:62|344:140,1,120,4|0,3:2|0:0,0:0:0:0:
337,129,27202,2,0,L|256:130,1,80,0|2,1:0|0:0,0:0:0:0:
171,84,27582,1,0,3:0:0:0:
171,180,27772,2,0,L|171:228,2,40,2|0|0,0:0|0:0|1:0,0:0:0:0:
88,129,28152,1,2,0:0:0:0:
171,84,28341,6,0,L|251:84,1,80,2|0,3:2|0:0,0:0:0:0:
337,129,28721,2,0,L|417:129,1,80,0|2,1:0|0:0,0:0:0:0:
511,116,29101,1,4,3:0:0:0:
507,211,29291,1,2,3:2:0:0:
507,211,29386,1,0,3:0:0:0:
507,211,29481,1,0,1:0:0:0:
501,306,29671,1,2,1:3:0:0:
413,345,29860,6,0,L|285:345,1,120,0|0,3:0|0:0,0:0:0:0:
293,345,30240,2,0,P|249:305|249:268,1,80,0|2,1:0|0:0,0:0:0:0:
228,195,30620,1,0,3:0:0:0:
172,116,30810,2,0,L|172:68,2,40,2|0|0,0:0|0:0|1:0,0:0:0:0:
115,196,31190,1,2,0:0:0:0:
172,271,31379,6,0,P|210:290|263:281,1,80,0|2,1:0|0:0,0:0:0:0:
228,195,31759,2,0,L|321:195,1,80,0|2,1:0|0:0,0:0:0:0:
404,195,32139,2,0,P|439:177|462:145,2,80,4|2|0,3:0|0:0|1:0,0:0:0:0:
376,103,32709,1,2,1:2:0:0:
260,76,32898,6,0,P|216:92|220:160,1,120,0|0,3:0|0:0,0:0:0:0:
217,156,33278,2,0,L|297:156,1,80,0|2,1:0|0:0,0:0:0:0:
380,204,33658,1,0,0:0:0:0:
380,108,33848,2,0,L|380:64,2,40,2|0|0,0:0|0:0|1:0,0:0:0:0:
464,156,34228,1,2,0:0:0:0:
464,156,34417,6,0,P|472:224|408:296,1,160,0|0,3:0|1:0,0:0:0:0:
312,267,34987,1,2,0:0:0:0:
312,267,35177,2,0,P|287:214|297:155,1,120,4|0,3:2|3:0,0:0:0:0:
297,155,35557,2,0,L|208:156,1,80,0|2,1:0|0:0,0:0:0:0:
139,257,35936,6,0,L|219:257,1,80,0|2,3:0|0:0,0:0:0:0:
162,360,36316,2,0,L|81:360,1,80,0|2,1:0|0:0,0:0:0:0:
40,208,36696,1,0,3:0:0:0:
40,208,36886,2,0,L|204:208,1,160,2|2,3:0|3:2,0:0:0:0:
296,212,37455,5,4,0:0:0:0:
332,124,37645,1,2,0:0:0:0:
296,212,37835,2,0,P|378:207|396:192,1,80,0|0,1:0|0:0,0:0:0:0:
332,124,38215,2,0,L|332:80,2,40,4|0|2,3:0|0:0|0:0,0:0:0:0:
296,212,38595,2,0,L|214:213,1,80,0|0,1:0|1:0,0:0:0:0:
176,136,38974,6,0,P|184:88|128:52,1,120,4|0,3:2|0:0,0:0:0:0:
130,51,39354,2,0,L|48:51,1,80,0|2,1:0|0:0,0:0:0:0:
0,136,39734,1,0,3:0:0:0:
48,220,39924,2,0,L|48:288,2,40,2|0|0,0:0|0:0|1:0,0:0:0:0:
96,136,40303,1,2,0:0:0:0:
140,220,40493,6,0,L|140:301,1,80,0|2,3:0|0:0,0:0:0:0:
232,344,40873,2,0,L|232:264,1,80,0|2,1:0|0:0,0:0:0:0:
232,164,41253,1,4,3:0:0:0:
336,172,41443,1,2,3:2:0:0:
336,172,41538,1,0,3:0:0:0:
336,172,41633,1,0,1:0:0:0:
432,172,41822,1,2,1:3:0:0:
468,296,42012,6,0,P|412:308|384:248,1,120,0|0,3:0|0:0,0:0:0:0:
382,261,42392,2,0,L|382:341,1,80,0|2,1:0|0:0,0:0:0:0:
291,316,42772,2,0,P|251:348|222:355,1,80,0|2,1:0|0:0,0:0:0:0:
215,261,43152,2,0,P|177:272|150:302,1,80,0|2,1:0|0:0,0:0:0:0:
97,381,43531,6,0,P|65:341|58:312,1,80,0|2,1:0|0:0,0:0:0:0:
150,301,43911,2,0,P|176:271|214:260,1,80,0|2,1:0|0:0,0:0:0:0:
218,164,44291,2,0,L|116:166,1,80
84,246,44671,2,0,P|52:206|45:177,1,80,0|2,1:0|0:0,0:0:0:0:
56,48,45050,6,0,P|106:106|183:104,1,160,4|0,3:2|1:0,0:0:0:0:
256,40,45620,1,2,3:2:0:0:
327,104,45810,2,0,P|404:102|455:160,1,160,4|0,3:0|1:0,0:0:0:0:
443,256,46379,1,0,0:0:0:0:
369,317,46569,6,0,P|292:303|256:234,1,160,4|0,3:2|1:0,0:0:0:0:
256,138,47139,1,2,0:0:0:0:
256,235,47329,2,0,P|215:302|140:316,1,160,0|0,1:0|1:0,0:0:0:0:
162,224,47898,1,0,1:0:0:0:
121,136,48088,1,0,0:0:0:0:
256,192,48183,12,4,49607,1:2:0:0:
128,76,51126,6,0,L|152:112,3,40,4|0|0|0,0:0|0:0|0:0|0:0,0:0:0:0:
140,148,51506,2,0,L|163:182,3,40,0|0|0|0,1:0|0:0|0:0|0:0,0:0:0:0:
180,212,51886,2,0,P|224:224|256:216,1,80,2|0,0:0|0:0,0:0:0:0:
288,192,52171,1,0,0:0:0:0:
288,192,52265,2,0,P|326:183|364:194,1,80,0|0,1:0|0:0,0:0:0:0:
432,264,52645,6,0,L|512:264,1,80,0|0,0:0|0:0,0:0:0:0:
456,360,53025,2,0,L|376:360,1,80,0|0,1:0|0:0,0:0:0:0:
324,280,53405,1,0,1:0:0:0:
228,280,53595,1,0,1:0:0:0:
132,280,53785,1,0,1:0:0:0:
132,64,54179,6,0,P|205:88|247:148,1,128,4|0,1:2|1:0,0:0:0:0:
428,148,55048,2,0,P|371:199|298:206,1,128,0|0,1:0|1:0,0:0:0:0:
256,361,55918,5,0,1:0:0:0:
156,192,56418,1,0,1:0:0:0:
356,192,56871,1,4,1:2:0:0:
256,192,56982,12,2,58648,0:0:0:0:
