osu file format v14

[General]
AudioFilename: audio.mp3
AudioLeadIn: 0
PreviewTime: 26633
Countdown: 0
SampleSet: Soft
StackLeniency: 0.7
Mode: 0
LetterboxInBreaks: 0
WidescreenStoryboard: 0

[Editor]
DistanceSpacing: 1
BeatDivisor: 4
GridSize: 8
TimelineZoom: 0.9000001

[Metadata]
Title:Zenryoku*Summer! TV Size
TitleUnicode:全力☆Summer! TV Size
Artist:angela
ArtistUnicode:angela
Creator:AngelSnow
Version:Easy
Source:アホガール
Tags:aho-girl ahogaru clueless girl aho op tvsize anime opening baka banana buhei
BeatmapID:1361858
BeatmapSetID:642379

[Difficulty]
HPDrainRate:2
CircleSize:3
OverallDifficulty:2
ApproachRate:2
SliderMultiplier:1
SliderTickRate:1

[Events]
//Background and Video events
0,0,"aho_girl-anime-characters-(2191).jpg",0,0
//Break Periods
//Storyboard Layer 0 (Background)
//Storyboard Layer 1 (Fail)
//Storyboard Layer 2 (Pass)
//Storyboard Layer 3 (Foreground)
//Storyboard Sound Samples

[TimingPoints]
824,379.746835443038,4,2,0,65,1,0
3862,-100,4,2,0,65,0,0
16014,-111.111111111111,4,2,0,65,0,0
20572,405.405405405405,4,2,0,65,1,0
23785,379.746835443038,4,2,0,65,1,0
26822,-100,4,2,0,80,0,1
49797,-100,4,2,0,80,0,0
51126,-100,4,2,0,50,0,0
53405,-100,4,2,0,65,0,0
54179,434.782608695652,4,2,0,80,1,0
55918,500,4,2,0,75,1,0
56871,444.444444444444,4,2,0,75,1,0

[Colours]
Combo1 : 255,255,128
Combo2 : 128,128,128
Combo3 : 255,128,0
Combo4 : 202,0,0

[HitObjects]
112,64,824,6,0,P|56:160|72:280,1,200,4|0,1:2|1:0,0:0:0:0:
112,328,1963,1,8,3:0:0:0:
208,328,2343,2,0,B|320:328|320:328,1,100,4|2,0:0|3:2,0:0:0:0:
408,328,3103,2,0,P|440:288|440:232,1,100,8|4,3:0|1:2,0:0:0:0:
412,145,3862,6,0,L|412:41,2,100,4|0|0,3:2|1:0|3:0,0:0:0:0:
332,206,5002,1,0,1:0:0:0:
248,150,5381,2,0,P|160:174|104:270,1,200,0|4,3:0|3:0,0:0:0:0:
102,362,6520,1,0,1:0:0:0:
202,359,6900,6,0,P|254:343|291:305,2,100,0|0|0,3:0|1:0|3:0,0:0:0:0:
200,256,8040,1,0,1:0:0:0:
200,152,8418,2,0,L|200:48,1,100,0|0,3:0|1:0,0:0:0:0:
96,48,9179,2,0,L|96:160,1,100,4|0,3:0|1:0,0:0:0:0:
96,248,9938,6,0,P|145:293|176:302,2,100,4|0|0,3:2|1:0|3:0,0:0:0:0:
184,200,11078,1,0,1:0:0:0:
184,100,11457,2,0,P|200:36|224:12,1,100,0|0,3:0|1:0,0:0:0:0:
320,12,12217,2,0,P|352:44|368:116,1,100,4|0,3:0|1:0,0:0:0:0:
370,194,12975,6,0,P|355:241|321:277,2,100,4|0|0,3:0|1:0|0:0,0:0:0:0:
269,190,14116,1,0,1:0:0:0:
269,90,14494,2,0,L|269:26,2,50,0|4|0,1:0|3:0|1:2,0:0:0:0:
181,36,15255,2,0,L|117:36,2,50,0|4|2,1:0|3:0|1:2,0:0:0:0:
187,125,16014,6,0,P|175:198|160:215,1,89.9999972534181,4|0,3:2|1:0,0:0:0:0:
100,146,16774,1,2,0:0:0:0:
48,219,17154,1,2,0:0:0:0:
73,305,17533,2,0,P|106:334|151:338,1,89.9999972534181,4|0,3:0|1:0,0:0:0:0:
219,281,18293,2,0,P|186:252|142:249,1,89.9999972534181,2|2,0:0|3:2,0:0:0:0:
168,160,19052,6,0,P|169:115|189:73,1,89.9999972534181,4|4,3:0|1:2,0:0:0:0:
256,133,19812,2,0,P|300:134|338:158,1,89.9999972534181,0|0,3:0|1:0,0:0:0:0:
256,192,20572,12,0,23785,0:0:0:0:
210,145,25303,5,4,3:0:0:0:
308,127,25683,2,0,L|288:18,2,100,4|2|4,1:3|3:2|1:2,0:0:0:0:
278,222,26822,6,0,P|201:202|210:145,2,150,4|2|0,3:2|0:0|1:0,0:0:0:0:
378,214,28341,2,0,P|386:263|382:312,1,100,2|0,3:2|1:0,0:0:0:0:
287,346,29101,1,4,3:0:0:0:
192,314,29481,1,0,1:0:0:0:
190,215,29860,6,0,P|122:243|95:311,2,150,0|2|0,3:0|0:0|1:0,0:0:0:0:
290,215,31379,2,0,P|290:111|290:111,1,100,0|0,3:0|1:0,0:0:0:0:
390,111,32139,1,4,3:0:0:0:
394,210,32519,1,0,1:0:0:0:
400,309,32898,6,0,P|339:338|262:315,2,150,0|2|0,3:0|0:0|1:0,0:0:0:0:
328,232,34417,2,0,L|288:136,1,100,0|0,3:0|1:0,0:0:0:0:
192,136,35177,2,0,L|153:228,1,100,4|0,3:2|1:0,0:0:0:0:
134,326,35936,6,0,P|72:288|59:254,1,100,0|0,3:0|1:0,0:0:0:0:
59,165,36696,2,0,L|59:61,1,100,0|0,3:0|1:0,0:0:0:0:
158,57,37455,2,0,P|230:73|254:121,1,100,4|0,3:1|1:0,0:0:0:0:
248,192,38215,2,0,L|248:304,1,100,4|0,3:0|1:0,0:0:0:0:
152,328,38974,6,0,B|104:232|200:232|152:136,1,200,4|0,3:2|3:0,0:0:0:0:
199,48,40113,1,0,1:0:0:0:
289,89,40493,2,0,P|377:65|401:73,1,100,0|0,3:0|1:0,0:0:0:0:
474,104,41253,2,0,P|474:184|442:216,1,100,4|0,3:0|1:0,0:0:0:0:
399,273,42012,6,0,P|336:318|267:311,2,150,0|2|0,3:0|0:0|1:0,0:0:0:0:
368,177,43531,2,0,P|312:129|264:121,1,100,0|0,3:0|1:0,0:0:0:0:
196,164,44291,2,0,P|230:199|292:220,1,100,0|0,3:0|1:0,0:0:0:0:
337,297,45050,6,0,B|281:305|257:353|257:353|145:313,1,200,4|4,3:2|3:0,0:0:0:0:
106,238,46189,1,0,1:0:0:0:
64,146,46569,6,0,P|104:74|184:50,2,150,4|2|0,3:2|0:0|1:0,0:0:0:0:
150,196,48088,2,0,B|254:148|302:276|302:276|350:148|470:196|470:196,1,400,4|0,1:2|3:0,0:0:0:0:
72,232,51126,6,0,L|72:336,2,100,4|0|2,0:0|1:0|0:0,0:0:0:0:
176,232,52266,1,0,1:0:0:0:
271,231,52645,2,0,P|319:247|368:232,2,100,0|0|0,0:0|1:0|1:0,0:0:0:0:
320,144,53785,1,0,1:0:0:0:
240,104,54179,6,0,P|152:56|152:56,1,100,4|0,1:2|1:0,0:0:0:0:
66,108,55048,2,0,L|66:216,1,100,0|0,1:0|1:0,0:0:0:0:
144,250,55918,2,0,L|237:196,1,100,0|0,1:0|1:0,0:0:0:0:
151,150,56871,5,4,1:2:0:0:
256,192,56982,12,2,58648,0:0:0:0:
