osu file format v14

[General]
AudioFilename: audio.mp3
AudioLeadIn: 0
PreviewTime: 26633
Countdown: 0
SampleSet: Soft
StackLeniency: 0.7
Mode: 0
LetterboxInBreaks: 0
WidescreenStoryboard: 1

[Editor]
DistanceSpacing: 0.7
BeatDivisor: 4
GridSize: 8
TimelineZoom: 1.4

[Metadata]
Title:Zenryoku*Summer! TV Size
TitleUnicode:全力☆Summer! TV Size
Artist:angela
ArtistUnicode:angela
Creator:AngelSnow
Version:buhei's *Banana*
Source:アホガール
Tags:aho-girl ahogaru clueless girl aho op tvsize anime opening baka banana buhei
BeatmapID:1517171
BeatmapSetID:642379

[Difficulty]
HPDrainRate:6
CircleSize:4
OverallDifficulty:8.5
ApproachRate:9
SliderMultiplier:1.8
SliderTickRate:1

[Events]
//Background and Video events
0,0,"aho_girl-anime-characters-(2191).jpg",0,0
//Break Periods
//Storyboard Layer 0 (Background)
//Storyboard Layer 1 (Fail)
//Storyboard Layer 2 (Pass)
//Storyboard Layer 3 (Foreground)
//Storyboard Sound Samples

[TimingPoints]
824,379.746835443038,4,2,0,65,1,0
20572,405.405405405405,4,2,0,65,1,0
21180,-133.333333333333,4,2,0,65,0,0
22599,-133.333333333333,4,2,0,65,0,0
23785,379.746835443038,4,2,0,65,1,0
26822,-90.9090909090909,4,2,0,80,0,1
49607,-90.9090909090909,4,2,0,80,0,0
51126,-100,4,2,0,50,0,0
53405,-100,4,2,0,65,0,0
54179,434.782608695652,4,2,0,80,1,0
54179,-66.6666666666667,4,2,0,80,0,0
55918,500,4,2,0,80,1,0
55918,-66.6666666666667,4,2,0,80,0,0
56871,444.444444444444,4,2,0,80,1,0

[Colours]
Combo1 : 255,255,128
Combo2 : 128,128,128
Combo3 : 255,128,0
Combo4 : 202,0,0

[HitObjects]
276,133,824,6,0,L|416:157,1,135,4|0,1:2|0:0,0:0:0:0:
477,122,1204,2,0,P|491:98|500:30,1,90,2|0,1:2|0:0,0:0:0:0:
186,217,1584,1,0,1:0:0:0:
177,234,1964,1,8,3:0:0:0:
367,202,2154,1,0,0:0:0:0:
34,353,2343,6,0,P|37:308|102:253,1,135,4|0,0:0|3:0,0:0:0:0:
186,217,2723,2,0,P|202:177|199:121,1,90,2|2,3:2|0:0,0:0:0:0:
256,352,3103,5,8,3:0:0:0:
122,112,3293,1,8,3:0:0:0:
388,112,3483,1,4,1:2:0:0:
96,336,3862,5,4,3:2:0:0:
304,267,4052,1,2,0:0:0:0:
163,190,4242,1,0,1:0:0:0:
242,332,4432,1,2,0:0:0:0:
242,332,4527,1,0,0:0:0:0:
242,332,4622,5,0,3:0:0:0:
291,357,4716,1,0,0:0:0:0:
345,347,4811,1,2,0:0:0:0:
383,307,4906,1,0,0:0:0:0:
389,252,5002,2,0,L|441:236,1,45,0|0,1:0|0:0,0:0:0:0:
435,114,5192,2,0,L|486:97,1,45,2|0,0:0|0:0,0:0:0:0:
322,197,5381,5,0,3:0:0:0:
291,224,5476,2,0,P|256:184|263:132,1,90,2|0,0:0|0:0,0:0:0:0:
281,46,5761,1,0,1:0:0:0:
240,52,5855,1,0,0:0:0:0:
200,59,5950,1,2,0:0:0:0:
160,65,6045,1,0,0:0:0:0:
120,72,6141,6,0,L|113:122,1,45,4|0,3:0|0:0,0:0:0:0:
41,224,6331,2,0,L|49:268,1,45,4|0,3:0|0:0,0:0:0:0:
148,358,6521,2,0,P|192:373|233:357,1,90,0|0,1:0|0:0,0:0:0:0:
34,192,6900,5,0,3:0:0:0:
189,257,7090,1,2,0:0:0:0:
189,257,7185,1,0,0:0:0:0:
189,257,7280,1,0,1:0:0:0:
192,46,7470,1,2,0:0:0:0:
199,72,7565,1,0,0:0:0:0:
206,98,7660,5,0,3:0:0:0:
397,169,7850,1,2,0:0:0:0:
189,257,8040,1,0,1:0:0:0:
324,322,8229,1,0,3:0:0:0:
317,296,8324,1,0,0:0:0:0:
310,270,8419,6,0,L|257:260,1,45,0|0,3:0|0:0,0:0:0:0:
429,210,8609,2,0,L|482:200,1,45,2|0,0:0|0:0,0:0:0:0:
317,185,8799,2,0,L|264:175,1,45,0|0,1:0|0:0,0:0:0:0:
422,125,8989,2,0,L|475:115,1,45,2|0,0:0|0:0,0:0:0:0:
197,238,9179,5,4,3:0:0:0:
173,199,9274,1,0,0:0:0:0:
175,154,9369,1,4,3:0:0:0:
196,114,9464,1,0,0:0:0:0:
234,90,9559,2,0,P|189:103|147:102,1,90,0|0,1:0|0:0,0:0:0:0:
2,354,9938,6,0,L|50:348,1,45,4|0,3:2|0:0,0:0:0:0:
150,312,10128,2,0,L|194:317,1,45,2|0,0:0|0:0,0:0:0:0:
298,354,10318,2,0,L|346:348,1,45,0|0,1:0|0:0,0:0:0:0:
446,312,10508,2,0,L|490:317,1,45,2|0,0:0|0:0,0:0:0:0:
336,233,10698,5,0,3:0:0:0:
347,196,10793,1,0,0:0:0:0:
358,159,10888,1,2,0:0:0:0:
369,122,10983,1,0,0:0:0:0:
392,42,11078,1,0,1:0:0:0:
392,42,11173,2,0,B|353:50|344:30|303:39,1,90,2|0,0:0|0:0,0:0:0:0:
232,135,11457,5,0,3:0:0:0:
73,46,11647,1,2,0:0:0:0:
208,156,11837,2,0,L|195:204,1,45,0|0,1:0|0:0,0:0:0:0:
49,249,12027,2,0,L|36:297,1,45,2|0,0:0|0:0,0:0:0:0:
166,301,12217,5,4,3:0:0:0:
120,113,12407,1,4,3:0:0:0:
135,338,12597,2,0,P|169:312|232:310,1,90,0|0,1:0|0:0,0:0:0:0:
353,344,12976,5,0,3:0:0:0:
349,311,13070,1,0,0:0:0:0:
336,279,13165,1,2,0:0:0:0:
316,252,13260,1,0,0:0:0:0:
290,232,13356,1,0,1:0:0:0:
330,232,13451,1,0,0:0:0:0:
368,218,13546,1,2,0:0:0:0:
403,195,13641,1,0,0:0:0:0:
428,163,13736,5,0,3:0:0:0:
311,72,13926,1,2,0:0:0:0:
311,72,14021,1,0,0:0:0:0:
311,72,14116,2,0,L|256:79,1,45,0|0,1:0|0:0,0:0:0:0:
176,144,14305,2,0,L|121:151,1,45,2|0,0:0|0:0,0:0:0:0:
42,274,14495,5,4,3:0:0:0:
73,253,14589,1,0,0:0:0:0:
110,246,14685,1,2,0:0:0:0:
286,307,14875,1,0,1:0:0:0:
142,372,15065,1,4,3:0:0:0:
436,282,15255,5,0,1:0:0:0:
436,282,15350,1,0,3:0:0:0:
436,282,15445,1,4,3:0:0:0:
170,177,15635,1,2,1:2:0:0:
317,32,15824,1,8,3:0:0:0:
19,218,16013,6,0,P|-3:184|5:135,1,90,4|2,3:2|0:0,0:0:0:0:
94,219,16298,1,0,0:0:0:0:
153,263,16394,2,0,L|245:250,1,90,0|0,1:0|0:0,0:0:0:0:
460,102,16774,5,2,0:0:0:0:
330,170,16964,1,0,0:0:0:0:
330,170,17059,1,0,0:0:0:0:
330,170,17154,1,2,0:0:0:0:
21,181,17533,5,4,3:0:0:0:
208,258,17723,1,2,0:0:0:0:
54,358,17913,1,0,1:0:0:0:
54,358,18008,2,0,P|43:305|61:267,1,90,2|0,0:0|0:0,0:0:0:0:
217,172,18293,5,2,0:0:0:0:
185,159,18387,1,0,0:0:0:0:
154,147,18482,1,0,0:0:0:0:
122,135,18577,1,0,0:0:0:0:
91,122,18672,1,2,3:2:0:0:
255,278,18862,1,2,0:0:0:0:
361,131,19052,6,0,P|363:108|372:88,1,45,4|0,3:0|0:0,0:0:0:0:
419,231,19242,2,0,P|416:253|407:273,1,45,2|0,3:2|0:0,0:0:0:0:
295,341,19432,2,0,P|249:331|195:338,1,90,4|0,1:2|0:0,0:0:0:0:
63,241,19812,5,0,3:0:0:0:
103,255,19906,1,0,0:0:0:0:
145,251,20001,1,2,0:0:0:0:
183,231,20096,1,0,0:0:0:0:
206,195,20192,1,0,1:0:0:0:
257,32,20381,1,2,0:0:0:0:
333,91,20572,6,0,P|390:108|470:28,1,180
428,133,21180,2,0,L|416:211,1,67.5000025749208,2|0,0:0|0:0,0:0:0:0:
327,357,21585,2,0,L|317:291,1,67.5000025749208,2|0,0:0|0:0,0:0:0:0:
234,160,21990,1,2,0:0:0:0:
234,160,22193,2,0,L|219:255,1,90
116,339,22599,2,0,L|160:332,2,45.0000017166138,2|0|0,0:0|0:0|0:0,0:0:0:0:
24,288,23004,2,0,B|7:215|39:229|22:153,1,135.000005149842,2|0,0:0|0:0,0:0:0:0:
367,315,23785,5,2,0:0:0:0:
381,326,24164,1,0,3:0:0:0:
134,234,24544,1,2,3:2:0:0:
148,245,24923,1,0,3:0:0:0:
295,130,25303,6,0,L|282:40,1,90,4|0,3:0|0:0,0:0:0:0:
497,157,25683,2,0,L|484:252,1,90,4|2,1:3|0:3,0:0:0:0:
481,274,25968,1,0,0:0:0:0:
481,274,26063,1,2,3:2:0:0:
367,78,26253,1,8,3:0:0:0:
297,348,26443,1,4,1:2:0:0:
40,260,26633,1,0,3:0:0:0:
40,260,26728,1,0,0:0:0:0:
40,260,26822,6,0,P|71:313|159:301,1,148.50000453186,4|0,3:2|0:0,0:0:0:0:
174,291,27202,1,0,1:0:0:0:
362,165,27392,1,2,0:0:0:0:
191,267,27582,1,0,3:0:0:0:
412,312,27772,1,2,0:0:0:0:
224,187,27962,1,0,1:0:0:0:
441,42,28152,1,2,0:0:0:0:
441,42,28247,1,0,0:0:0:0:
441,42,28341,5,2,3:2:0:0:
333,265,28531,1,0,0:0:0:0:
120,145,28721,1,0,1:0:0:0:
289,97,28911,1,2,0:0:0:0:
50,44,29101,5,4,3:0:0:0:
394,169,29291,1,2,3:2:0:0:
394,169,29386,1,0,3:0:0:0:
394,169,29481,1,0,1:0:0:0:
180,344,29671,1,2,1:3:0:0:
424,251,29860,6,0,P|361:248|309:177,1,148.50000453186,0|0,3:0|0:0,0:0:0:0:
310,149,30240,1,0,1:0:0:0:
475,336,30430,2,0,P|420:330|377:343,1,99.0000030212403,2|0,0:0|3:0,0:0:0:0:
82,246,30810,2,0,P|137:240|180:253,1,99.0000030212403,2|0,0:0|1:0,0:0:0:0:
251,327,31190,1,2,0:0:0:0:
140,113,31379,5,0,3:0:0:0:
405,68,31569,1,2,0:0:0:0:
260,307,31759,1,0,1:0:0:0:
452,193,31949,1,2,0:0:0:0:
229,113,32139,5,4,3:0:0:0:
330,355,32329,1,2,0:0:0:0:
343,323,32424,1,0,0:0:0:0:
342,287,32519,1,0,1:0:0:0:
329,254,32614,1,0,0:0:0:0:
329,219,32709,1,2,1:2:0:0:
340,186,32803,1,0,0:0:0:0:
362,159,32898,6,0,P|305:158|301:32,1,198.000006042481,0|0,3:0|1:0,0:0:0:0:
512,241,33468,2,0,P|524:331|437:358,1,198.000006042481,2|2,0:0|0:0,0:0:0:0:
245,284,34038,1,0,1:0:0:0:
37,344,34228,1,2,0:0:0:0:
245,190,34417,5,0,3:0:0:0:
403,273,34607,1,2,0:0:0:0:
403,273,34702,1,0,0:0:0:0:
403,273,34797,1,0,1:0:0:0:
276,36,34987,1,2,0:0:0:0:
241,366,35177,5,4,3:2:0:0:
69,130,35367,1,0,1:0:0:0:
69,130,35462,1,0,3:0:0:0:
69,130,35557,1,0,1:0:0:0:
448,169,35747,1,2,0:0:0:0:
166,283,35936,5,0,3:0:0:0:
322,305,36126,1,2,0:0:0:0:
130,191,36316,1,0,1:0:0:0:
368,167,36506,1,2,0:0:0:0:
197,63,36696,1,0,3:0:0:0:
434,282,36886,2,0,L|425:231,1,49.5000015106202,2|0,3:0|0:0,0:0:0:0:
395,59,37076,1,0,1:0:0:0:
387,348,37266,6,2,P|440:363|506:251,1,198.000006042481,2|2,3:2|0:0,0:0:0:0:
263,310,37835,2,0,P|209:311|167:330,1,99.0000030212403,0|0,1:0|0:0,0:0:0:0:
67,215,38215,1,4,3:0:0:0:
160,63,38404,1,2,0:0:0:0:
188,59,38499,1,0,3:0:0:0:
216,56,38594,1,0,1:0:0:0:
244,52,38689,1,0,3:0:0:0:
272,49,38784,1,0,1:0:0:0:
300,46,38879,1,0,3:0:0:0:
328,42,38974,6,0,P|389:70|416:149,1,148.50000453186,4|0,3:2|0:0,0:0:0:0:
410,177,39354,1,0,1:0:0:0:
207,146,39544,1,2,0:0:0:0:
193,364,39734,1,0,3:0:0:0:
408,264,39924,1,2,0:0:0:0:
231,275,40114,1,0,1:0:0:0:
469,334,40303,1,2,0:0:0:0:
144,275,40493,5,0,3:0:0:0:
438,186,40683,1,2,0:0:0:0:
307,128,40873,1,0,1:0:0:0:
469,334,41063,1,2,0:0:0:0:
396,99,41253,5,4,3:0:0:0:
62,247,41443,1,2,3:2:0:0:
62,247,41538,1,0,3:0:0:0:
62,247,41633,1,0,1:0:0:0:
324,349,41822,1,2,1:3:0:0:
56,164,42012,6,0,P|135:204|146:257,1,148.50000453186,0|0,3:0|0:0,0:0:0:0:
138,287,42392,1,0,1:0:0:0:
241,146,42582,2,0,B|231:96|231:96|238:48,1,99.0000030212403,2|0,0:0|3:0,0:0:0:0:
448,122,42962,2,0,B|458:172|458:172|451:220,1,99.0000030212403,2|0,0:0|1:0,0:0:0:0:
326,316,43341,1,2,0:0:0:0:
470,96,43531,6,0,L|371:106,1,99.0000030212403,0|0,3:0|0:0,0:0:0:0:
250,329,43911,2,0,L|348:339,1,99.0000030212403,0|2,1:0|0:0,0:0:0:0:
488,67,44291,2,0,L|498:165,1,99.0000030212403,0|0,3:0|0:0,0:0:0:0:
366,368,44671,2,0,L|376:269,1,99.0000030212403,0|2,1:0|0:0,0:0:0:0:
368,185,44955,1,0,0:0:0:0:
368,185,45050,6,0,B|325:187|299:223|299:223|238:218|194:263,1,198.000006042481,4|0,3:2|1:0,0:0:0:0:
474,325,45620,1,2,3:2:0:0:
171,350,45810,2,0,P|116:320|144:192,1,198.000006042481,4|0,3:0|1:0,0:0:0:0:
404,281,46379,1,2,3:2:0:0:
202,150,46569,6,0,P|129:153|65:111,1,148.50000453186,4|0,3:2|0:0,0:0:0:0:
46,88,46949,1,0,1:0:0:0:
273,60,47139,1,2,0:0:0:0:
128,289,47329,1,0,1:0:0:0:
396,179,47519,1,2,0:0:0:0:
396,179,47614,1,0,3:0:0:0:
396,179,47709,1,0,1:0:0:0:
44,231,47898,1,0,1:0:0:0:
351,361,48088,5,4,1:2:0:0:
351,328,48182,1,0,3:0:0:0:
351,295,48277,1,2,3:2:0:0:
351,262,48372,1,0,3:0:0:0:
351,229,48467,1,0,1:0:0:0:
351,196,48562,1,0,3:0:0:0:
351,163,48657,1,2,3:2:0:0:
351,130,48753,1,0,3:0:0:0:
351,97,48848,6,0,L|304:83,1,49.5000015106202,0|0,1:0|3:0,0:0:0:0:
161,97,49038,2,0,L|147:144,1,49.5000015106202,2|0,3:2|3:0,0:0:0:0:
161,287,49228,2,0,L|208:301,1,49.5000015106202,0|0,1:0|3:0,0:0:0:0:
351,287,49417,2,0,L|365:240,1,49.5000015106202,2|0,1:2|3:0,0:0:0:0:
365,239,49797,5,2,0:0:0:0:
161,287,49987,1,0,0:0:0:0:
365,239,50177,1,2,0:0:0:0:
161,287,50367,1,0,0:0:0:0:
141,134,51126,6,0,L|151:90,1,45,4|0,0:0|0:0,0:0:0:0:
235,122,51316,2,0,L|245:78,1,45
329,110,51506,2,0,L|339:66,1,45,0|0,1:0|0:0,0:0:0:0:
423,98,51696,2,0,L|433:54,1,45
487,159,51886,6,0,P|444:184|394:179,1,90,2|0,0:0|0:0,0:0:0:0:
332,200,52171,1,0,0:0:0:0:
300,198,52266,2,0,L|246:194,1,45,0|0,1:0|0:0,0:0:0:0:
363,287,52455,2,0,L|417:283,1,45
287,359,52645,5,0,0:0:0:0:
116,311,52835,1,0,0:0:0:0:
144,136,53025,2,0,L|198:132,1,45,0|0,1:0|0:0,0:0:0:0:
251,20,53215,2,0,L|255:74,1,45
284,162,53405,1,0,1:0:0:0:
284,162,53500,1,0,0:0:0:0:
284,162,53595,1,0,1:0:0:0:
284,162,53690,1,0,0:0:0:0:
284,162,53785,1,0,1:0:0:0:
426,328,54179,6,0,B|376:309|335:343|335:343|279:362|238:322,1,202.500007724762,4|0,1:2|0:0,0:0:0:0:
130,337,54613,6,0,P|72:276|153:248,1,202.500007724762,0|0,1:0|0:0,0:0:0:0:
237,321,55048,6,0,B|267:272|267:272|247:127,1,202.500007724762,0|0,1:0|0:0,0:0:0:0:
214,39,55483,6,0,B|160:44|114:10|114:10|105:55|135:101,1,202.500007724762,0|0,1:0|0:0,0:0:0:0:
247,128,55918,6,0,B|282:133|314:151|314:151|373:151|373:151|405:134|441:129,1,202.500007724762,0|0,1:0|0:0,0:0:0:0:
320,238,56418,6,0,B|284:233|252:216|252:216|193:216|193:216|161:234|126:239,1,202.500007724762,0|0,1:0|0:0,0:0:0:0:
256,320,56871,5,4,1:2:0:0:
256,192,56982,12,2,58648,0:0:0:0:
