osu file format v14

[General]
AudioFilename: audio.mp3
AudioLeadIn: 0
PreviewTime: 25063
Countdown: 0
SampleSet: Normal
StackLeniency: 0.7
Mode: 1
LetterboxInBreaks: 0
WidescreenStoryboard: 0

[Editor]
DistanceSpacing: 1
BeatDivisor: 4
GridSize: 32
TimelineZoom: 1

[Metadata]
Title:Zenryoku*Summer! TV Size
TitleUnicode:全力☆Summer! TV Size
Artist:angela
ArtistUnicode:angela
Creator:Nifty
Version:Muzukashii
Source:アホガール
Tags:aho ahogaru clueless girl anime op opening
BeatmapID:1370316
BeatmapSetID:646789

[Difficulty]
HPDrainRate:6
CircleSize:2
OverallDifficulty:4.5
ApproachRate:10
SliderMultiplier:1.4
SliderTickRate:1

[Events]
//Background and Video events
0,0,"aho_girl-sayaka_sumino-anime-girl-(2196).jpg",0,80
//Break Periods
//Storyboard Layer 0 (Background)
//Storyboard Layer 1 (Fail)
//Storyboard Layer 2 (Pass)
//Storyboard Layer 3 (Foreground)
//Storyboard Sound Samples

[TimingPoints]
778,379.746835443038,4,1,0,70,1,0
20524,405.405405405405,4,1,0,20,1,0
20524,-100,4,1,0,20,0,0
22145,397.350993377483,4,1,0,50,1,0
22145,-100,4,1,0,50,0,0
23734,379.746835443038,4,1,0,70,1,0
25252,-100,4,1,0,70,0,0
26771,-100,4,1,0,80,0,1
49556,-100,4,1,0,70,0,0
54113,413.793103448276,4,1,0,70,1,0
54113,-90.9090909090909,4,1,0,70,0,0
54526,437.956204379562,4,1,0,70,1,8
54526,-90.9090909090909,4,1,0,70,0,0
55401,461.538461538462,4,1,0,70,1,8
55401,-90.9090909090909,4,1,0,70,0,0
55862,476.190476190476,4,1,0,70,1,0
55862,-90.9090909090909,4,1,0,70,0,0
56338,500,4,1,0,70,1,8
56338,-89.2857142857143,4,1,0,70,0,0
56838,566.037735849057,4,1,0,70,1,8
56838,-76.9230769230769,4,1,0,70,0,0

[HitObjects]
256,128,778,5,0,0:0:0:0:
256,128,1157,1,0,0:0:0:0:
256,128,1347,1,8,0:0:0:0:
256,128,1537,1,8,0:0:0:0:
256,128,1917,1,8,0:0:0:0:
256,128,2107,1,0,0:0:0:0:
256,128,2296,1,8,0:0:0:0:
256,128,2676,1,0,0:0:0:0:
256,128,3056,1,12,0:0:0:0:
256,128,3246,1,12,0:0:0:0:
256,128,3436,1,12,0:0:0:0:
256,128,3815,1,8,0:0:0:0:
256,128,4195,1,0,0:0:0:0:
256,128,4385,1,0,0:0:0:0:
256,128,4575,1,8,0:0:0:0:
256,128,4955,1,8,0:0:0:0:
256,128,5334,1,0,0:0:0:0:
256,128,5524,1,8,0:0:0:0:
256,128,5619,1,8,0:0:0:0:
256,128,5714,1,8,0:0:0:0:
256,128,6094,1,8,0:0:0:0:
256,128,6284,1,0,0:0:0:0:
256,128,6474,1,8,0:0:0:0:
256,128,6853,1,8,0:0:0:0:
256,128,7233,1,0,0:0:0:0:
256,128,7423,1,0,0:0:0:0:
256,128,7613,1,8,0:0:0:0:
256,128,7993,1,8,0:0:0:0:
256,128,8372,1,0,0:0:0:0:
256,128,8752,1,8,0:0:0:0:
256,128,8942,1,0,0:0:0:0:
256,128,9037,1,0,0:0:0:0:
256,128,9132,1,0,0:0:0:0:
256,128,9322,1,0,0:0:0:0:
256,128,9512,1,8,0:0:0:0:
256,128,9891,1,8,0:0:0:0:
256,128,10271,1,0,0:0:0:0:
256,128,10461,1,0,0:0:0:0:
256,128,10651,1,8,0:0:0:0:
256,128,11031,1,8,0:0:0:0:
256,128,11410,1,0,0:0:0:0:
256,128,11600,1,8,0:0:0:0:
256,128,11695,1,8,0:0:0:0:
256,128,11790,1,8,0:0:0:0:
256,128,11980,1,0,0:0:0:0:
256,128,12170,1,8,0:0:0:0:
256,128,12360,1,0,0:0:0:0:
256,128,12550,1,8,0:0:0:0:
256,128,12929,1,8,0:0:0:0:
256,128,13309,1,0,0:0:0:0:
256,128,13499,1,0,0:0:0:0:
256,128,13689,1,8,0:0:0:0:
256,128,14069,1,8,0:0:0:0:
256,128,14448,1,0,0:0:0:0:
256,128,14543,1,0,0:0:0:0:
256,128,14638,1,0,0:0:0:0:
256,128,14828,1,8,0:0:0:0:
256,128,15018,1,0,0:0:0:0:
256,128,15208,1,0,0:0:0:0:
256,128,15303,1,0,0:0:0:0:
256,128,15398,1,0,0:0:0:0:
256,128,15588,1,8,0:0:0:0:
256,128,15967,1,0,0:0:0:0:
256,128,16157,1,0,0:0:0:0:
256,128,16347,1,8,0:0:0:0:
256,128,16727,1,0,0:0:0:0:
256,128,17486,1,0,0:0:0:0:
256,128,17676,1,8,0:0:0:0:
256,128,17866,1,8,0:0:0:0:
256,128,18246,1,8,0:0:0:0:
256,128,19005,1,8,0:0:0:0:
256,128,19195,1,0,0:0:0:0:
256,128,19385,1,8,0:0:0:0:
256,128,19765,1,0,0:0:0:0:
256,128,20145,1,8,0:0:0:0:
256,192,20524,12,8,22145,0:0:0:0:
256,128,22542,5,0,0:0:0:0:
256,128,22674,1,0,0:0:0:0:
256,128,22807,1,0,0:0:0:0:
256,128,22939,1,0,0:0:0:0:
256,128,23337,1,0,0:0:0:0:
256,128,23734,1,0,0:0:0:0:
256,128,24113,1,0,0:0:0:0:
256,128,24303,1,8,0:0:0:0:
480,192,24493,1,0,0:0:0:0:
256,128,24873,1,8,0:0:0:0:
256,128,25252,1,0,0:0:0:0:
256,128,25632,1,0,0:0:0:0:
256,128,26012,1,8,0:0:0:0:
256,128,26202,1,0,0:0:0:0:
256,128,26392,1,8,0:0:0:0:
256,128,26582,1,8,0:0:0:0:
256,128,26771,1,4,0:0:0:0:
256,128,27151,1,0,0:0:0:0:
256,128,27341,1,8,0:0:0:0:
256,128,27721,1,0,0:0:0:0:
256,128,28101,1,0,0:0:0:0:
256,128,28290,1,8,0:0:0:0:
256,128,28480,1,0,0:0:0:0:
256,128,28670,1,8,0:0:0:0:
256,128,28860,1,8,0:0:0:0:
256,128,29050,1,0,0:0:0:0:
256,128,29240,1,8,0:0:0:0:
256,128,29335,1,8,0:0:0:0:
256,128,29430,1,8,0:0:0:0:
256,128,29620,1,0,0:0:0:0:
256,128,29809,1,0,0:0:0:0:
256,128,30189,1,0,0:0:0:0:
256,128,30379,1,8,0:0:0:0:
256,128,30759,1,0,0:0:0:0:
256,128,31139,1,0,0:0:0:0:
256,128,31328,1,8,0:0:0:0:
256,128,31518,1,0,0:0:0:0:
256,128,31708,1,8,0:0:0:0:
256,128,31898,1,8,0:0:0:0:
256,128,32088,1,0,0:0:0:0:
256,128,32278,1,0,0:0:0:0:
256,128,32468,1,8,0:0:0:0:
256,128,32658,1,0,0:0:0:0:
256,128,32847,1,8,0:0:0:0:
256,128,33227,1,0,0:0:0:0:
256,128,33417,1,8,0:0:0:0:
256,128,33797,1,0,0:0:0:0:
256,128,34177,1,8,0:0:0:0:
256,128,34366,1,8,0:0:0:0:
256,128,34746,1,8,0:0:0:0:
256,128,34936,1,0,0:0:0:0:
256,128,35126,1,8,0:0:0:0:
256,128,35506,1,0,0:0:0:0:
256,128,35885,1,8,0:0:0:0:
256,128,36075,1,0,0:0:0:0:
256,128,36265,1,8,0:0:0:0:
256,128,36455,1,0,0:0:0:0:
256,128,36645,1,8,0:0:0:0:
256,128,36835,1,8,0:0:0:0:
256,128,37025,1,0,0:0:0:0:
256,128,37215,1,0,0:0:0:0:
256,128,37404,1,8,0:0:0:0:
256,128,37784,1,0,0:0:0:0:
256,128,38164,1,8,0:0:0:0:
256,128,38923,1,4,0:0:0:0:
288,128,39303,1,0,0:0:0:0:
256,128,39493,1,8,0:0:0:0:
256,128,39874,1,0,0:0:0:0:
288,128,40063,1,8,0:0:0:0:
256,128,40252,1,0,0:0:0:0:
256,128,40442,1,8,0:0:0:0:
256,128,40632,1,0,0:0:0:0:
256,128,40822,1,8,0:0:0:0:
256,128,41012,1,8,0:0:0:0:
256,128,41202,1,0,0:0:0:0:
256,128,41392,1,8,0:0:0:0:
256,128,41487,1,8,0:0:0:0:
256,128,41582,1,8,0:0:0:0:
256,128,41961,1,0,0:0:0:0:
256,128,42341,1,0,0:0:0:0:
256,128,42531,1,8,0:0:0:0:
256,128,42911,1,0,0:0:0:0:
256,128,43290,1,0,0:0:0:0:
256,128,43480,1,8,0:0:0:0:
256,128,43860,1,0,0:0:0:0:
256,128,44240,1,8,0:0:0:0:
256,128,44430,1,8,0:0:0:0:
256,128,44620,1,0,0:0:0:0:
256,128,44715,1,0,0:0:0:0:
256,128,44809,1,0,0:0:0:0:
256,128,44999,1,8,0:0:0:0:
256,128,45379,1,0,0:0:0:0:
256,128,45569,1,8,0:0:0:0:
256,128,45759,1,8,0:0:0:0:
256,128,46139,1,0,0:0:0:0:
256,128,46518,1,8,0:0:0:0:
256,128,46898,1,0,0:0:0:0:
256,128,47088,1,8,0:0:0:0:
256,128,47278,1,0,0:0:0:0:
256,128,47468,1,8,0:0:0:0:
256,128,47658,1,8,0:0:0:0:
256,128,47847,1,0,0:0:0:0:
256,128,48037,1,0,0:0:0:0:
256,128,48417,1,0,0:0:0:0:
256,128,48797,1,8,0:0:0:0:
256,128,48987,1,0,0:0:0:0:
256,128,49177,1,8,0:0:0:0:
256,128,49271,1,8,0:0:0:0:
256,128,49366,1,8,0:0:0:0:
256,128,51075,1,8,0:0:0:0:
256,128,51265,1,0,0:0:0:0:
256,128,51455,1,8,0:0:0:0:
256,128,51645,1,8,0:0:0:0:
256,128,51835,1,0,0:0:0:0:
256,128,52025,1,0,0:0:0:0:
256,128,52215,1,8,0:0:0:0:
256,128,52594,1,0,0:0:0:0:
256,128,52974,1,8,0:0:0:0:
256,128,53354,1,0,0:0:0:0:
256,128,53449,1,0,0:0:0:0:
256,128,53544,1,0,0:0:0:0:
256,128,53734,1,0,0:0:0:0:
256,128,54113,1,0,0:0:0:0:
256,128,54526,1,8,0:0:0:0:
256,128,54963,1,8,0:0:0:0:
256,128,55401,1,0,0:0:0:0:
256,128,55862,1,8,0:0:0:0:
256,128,56338,1,0,0:0:0:0:
256,128,56838,1,12,0:0:0:0:
