osu file format v14

[General]
AudioFilename: audio.mp3
AudioLeadIn: 0
PreviewTime: 25063
Countdown: 0
SampleSet: Normal
StackLeniency: 0.7
Mode: 1
LetterboxInBreaks: 0
WidescreenStoryboard: 0

[Editor]
DistanceSpacing: 1
BeatDivisor: 4
GridSize: 32
TimelineZoom: 1

[Metadata]
Title:Zenryoku*Summer! TV Size
TitleUnicode:全力☆Summer! TV Size
Artist:angela
ArtistUnicode:angela
Creator:Nifty
Version:Futsuu
Source:アホガール
Tags:aho ahogaru clueless girl anime op opening
BeatmapID:1370314
BeatmapSetID:646789

[Difficulty]
HPDrainRate:7
CircleSize:2
OverallDifficulty:4
ApproachRate:10
SliderMultiplier:1.4
SliderTickRate:1

[Events]
//Background and Video events
0,0,"aho_girl-sayaka_sumino-anime-girl-(2196).jpg",0,80
//Break Periods
//Storyboard Layer 0 (Background)
//Storyboard Layer 1 (Fail)
//Storyboard Layer 2 (Pass)
//Storyboard Layer 3 (Foreground)
//Storyboard Sound Samples

[TimingPoints]
778,379.746835443038,4,1,0,70,1,0
20524,405.405405405405,4,1,0,20,1,0
20524,-100,4,1,0,20,0,0
22145,397.350993377483,4,1,0,50,1,0
22145,-100,4,1,0,50,0,0
23734,379.746835443038,4,1,0,70,1,0
25252,-100,4,1,0,70,0,0
26771,-100,4,1,0,80,0,1
49556,-100,4,1,0,70,0,0
54113,413.793103448276,4,1,0,70,1,0
54113,-87.719298245614,4,1,0,70,0,0
54526,437.956204379562,4,1,0,70,1,8
54526,-89.2857142857143,4,1,0,70,0,0
55401,461.538461538462,4,1,0,70,1,8
55401,-86.9565217391304,4,1,0,70,0,0
55862,476.190476190476,4,1,0,70,1,0
55862,-84.7457627118644,4,1,0,70,0,0
56338,500,4,1,0,70,1,8
56338,-80.6451612903226,4,1,0,70,0,8
56838,566.037735849057,4,1,0,70,1,8
56838,-68.9655172413793,4,1,0,70,0,8

[HitObjects]
256,128,778,5,0,0:0:0:0:
256,128,1157,1,8,0:0:0:0:
256,128,1537,1,8,0:0:0:0:
256,128,2296,1,8,0:0:0:0:
256,128,2676,1,0,0:0:0:0:
256,128,3056,1,12,0:0:0:0:
256,128,3436,1,12,0:0:0:0:
256,128,3815,1,0,0:0:0:0:
256,128,4575,1,8,0:0:0:0:
256,96,5334,1,0,0:0:0:0:
256,96,5714,1,0,0:0:0:0:
256,128,6094,1,8,0:0:0:0:
256,128,6284,1,0,0:0:0:0:
256,128,6474,1,8,0:0:0:0:
256,128,6853,1,0,0:0:0:0:
256,128,7613,1,8,0:0:0:0:
256,128,8372,1,0,0:0:0:0:
256,128,8752,1,0,0:0:0:0:
256,128,9132,1,8,0:0:0:0:
256,128,9322,1,8,0:0:0:0:
256,128,9512,1,8,0:0:0:0:
256,128,9891,1,0,0:0:0:0:
256,128,10271,1,0,0:0:0:0:
256,128,10651,1,8,0:0:0:0:
256,128,11410,1,0,0:0:0:0:
256,128,11790,1,0,0:0:0:0:
256,128,12170,1,8,0:0:0:0:
256,128,12360,1,0,0:0:0:0:
256,128,12550,1,0,0:0:0:0:
256,128,12929,1,0,0:0:0:0:
256,128,13309,1,0,0:0:0:0:
256,128,13689,1,8,0:0:0:0:
256,128,14448,1,0,0:0:0:0:
256,128,14828,1,0,0:0:0:0:
256,128,15208,1,8,0:0:0:0:
256,128,15398,1,0,0:0:0:0:
256,128,15588,1,8,0:0:0:0:
256,128,15967,1,0,0:0:0:0:
256,128,16157,1,8,0:0:0:0:
256,128,16347,1,8,0:0:0:0:
256,128,16727,1,0,0:0:0:0:
256,128,17486,1,0,0:0:0:0:
256,128,17676,1,0,0:0:0:0:
256,128,17866,1,8,0:0:0:0:
256,128,18246,1,8,0:0:0:0:
256,128,19005,1,8,0:0:0:0:
256,128,19195,1,0,0:0:0:0:
256,128,19385,1,8,0:0:0:0:
256,128,19765,1,0,0:0:0:0:
256,192,20524,12,8,22145,0:0:0:0:
256,128,22542,5,8,0:0:0:0:
256,128,22939,1,8,0:0:0:0:
256,128,23337,1,0,0:0:0:0:
256,128,24113,1,0,0:0:0:0:
256,128,24493,1,0,0:0:0:0:
256,128,24873,1,0,0:0:0:0:
256,128,25252,1,8,0:0:0:0:
256,128,25632,1,8,0:0:0:0:
256,128,26012,1,8,0:0:0:0:
256,128,26202,1,0,0:0:0:0:
256,128,26392,1,8,0:0:0:0:
256,96,26771,1,4,0:0:0:0:
256,128,27151,1,0,0:0:0:0:
256,128,27531,1,8,0:0:0:0:
256,128,28290,1,0,0:0:0:0:
256,96,28670,1,0,0:0:0:0:
256,96,28860,1,8,0:0:0:0:
256,128,29050,1,0,0:0:0:0:
256,128,29430,1,8,0:0:0:0:
256,96,29809,1,0,0:0:0:0:
256,96,30189,1,8,0:0:0:0:
256,96,30379,1,8,0:0:0:0:
256,96,30569,1,0,0:0:0:0:
256,96,31328,1,8,0:0:0:0:
256,96,31708,1,0,0:0:0:0:
256,96,31898,1,8,0:0:0:0:
256,96,32088,1,8,0:0:0:0:
256,96,32468,1,0,0:0:0:0:
256,96,32847,1,8,0:0:0:0:
256,96,33227,1,8,0:0:0:0:
224,32,33607,1,0,0:0:0:0:
256,96,34366,1,0,0:0:0:0:
256,96,35126,1,8,0:0:0:0:
256,96,35506,1,8,0:0:0:0:
256,96,35885,1,0,0:0:0:0:
256,96,36265,1,0,0:0:0:0:
256,96,36645,1,0,0:0:0:0:
256,96,36835,1,8,0:0:0:0:
256,96,37025,1,0,0:0:0:0:
256,96,37404,1,8,0:0:0:0:
256,96,37784,1,8,0:0:0:0:
256,96,37974,1,0,0:0:0:0:
256,96,38164,1,8,0:0:0:0:
256,96,38923,1,4,0:0:0:0:
256,96,39303,1,0,0:0:0:0:
256,96,39683,1,8,0:0:0:0:
256,96,40442,1,0,0:0:0:0:
256,96,40822,1,0,0:0:0:0:
256,96,41012,1,8,0:0:0:0:
256,96,41202,1,0,0:0:0:0:
256,96,41582,1,8,0:0:0:0:
256,96,41961,1,0,0:0:0:0:
256,96,42341,1,0,0:0:0:0:
256,96,42531,1,8,0:0:0:0:
256,96,42721,1,8,0:0:0:0:
256,96,43480,1,8,0:0:0:0:
256,96,43860,1,0,0:0:0:0:
256,96,44240,1,8,0:0:0:0:
256,96,44999,1,8,0:0:0:0:
256,96,45379,1,0,0:0:0:0:
256,96,45569,1,0,0:0:0:0:
256,96,45759,1,0,0:0:0:0:
256,96,46139,1,0,0:0:0:0:
256,96,46518,1,8,0:0:0:0:
256,96,46898,1,8,0:0:0:0:
256,96,47088,1,0,0:0:0:0:
256,96,47278,1,0,0:0:0:0:
256,96,47658,1,8,0:0:0:0:
256,96,48037,1,0,0:0:0:0:
256,96,48797,1,0,0:0:0:0:
256,96,49366,1,8,0:0:0:0:
256,96,51075,1,8,0:0:0:0:
256,96,51455,1,0,0:0:0:0:
256,96,51835,1,8,0:0:0:0:
256,96,52025,1,0,0:0:0:0:
256,96,52215,1,8,0:0:0:0:
256,96,52594,1,0,0:0:0:0:
256,96,52974,1,8,0:0:0:0:
256,96,53354,1,0,0:0:0:0:
256,96,53544,1,8,0:0:0:0:
256,96,53734,1,0,0:0:0:0:
256,96,54113,1,0,0:0:0:0:
256,96,54526,1,8,0:0:0:0:
256,96,54963,1,8,0:0:0:0:
256,96,55401,1,0,0:0:0:0:
256,96,55862,1,8,0:0:0:0:
256,96,56338,1,0,0:0:0:0:
256,96,56838,1,12,0:0:0:0:
