osu file format v14

[General]
AudioFilename: audio.mp3
AudioLeadIn: 0
PreviewTime: 26171
Countdown: 1
SampleSet: Normal
StackLeniency: 0.7
Mode: 0
LetterboxInBreaks: 0
WidescreenStoryboard: 0

[Editor]
DistanceSpacing: 1.4
BeatDivisor: 4
GridSize: 16
TimelineZoom: 1.1

[Metadata]
Title:Zenryoku Summer!
TitleUnicode:全力☆Summer!
Artist:angela
ArtistUnicode:angela
Creator:Lud5_Beats
Version:Banana
Source:
Tags:
BeatmapID:1388473
BeatmapSetID:655150

[Difficulty]
HPDrainRate:6.5
CircleSize:4
OverallDifficulty:7.6
ApproachRate:9
SliderMultiplier:1.9
SliderTickRate:1

[Events]
//Background and Video events
0,0,"aho_girl-anime-characters-(2191).jpg",0,0
//Break Periods
//Storyboard Layer 0 (Background)
//Storyboard Layer 1 (Fail)
//Storyboard Layer 2 (Pass)
//Storyboard Layer 3 (Foreground)
//Storyboard Sound Samples

[TimingPoints]
187,379.746835443038,4,1,0,100,1,0
19933,394.736842105263,4,1,0,100,1,0
26171,379.746835443038,4,1,0,100,1,0
26171,-66.6666666666667,4,1,0,100,0,0
48955,-100,4,1,0,100,0,0
53512,-80,4,1,0,100,0,0
53892,-83.3333333333333,4,1,0,100,0,0
54367,-86.9565217391304,4,1,0,100,0,0
54841,-90.9090909090909,4,1,0,100,0,0
55316,-95.2380952380952,4,1,0,100,0,0
55791,-100,4,1,0,100,0,0

[Colours]
Combo1 : 0,46,91
Combo2 : 240,120,0
Combo3 : 0,64,128
Combo4 : 255,255,128

[HitObjects]
128,232,187,6,0,P|85:166|114:94,1,142.5
158,33,566,2,0,L|257:62,1,95
418,147,946,2,0,P|459:202|445:270,1,142.5
388,346,1325,2,0,L|296:319,1,95
157,287,1705,6,0,L|146:217,1,47.5
209,109,1990,2,0,L|220:39,1,47.5
352,16,2275,1,0,0:0:0:0:
352,16,2465,6,0,L|296:40,1,47.5
152,112,2655,2,0,L|208:136,1,47.5
308,189,2845,2,0,L|352:208,1,47.5
154,112,3224,5,0,0:0:0:0:
117,220,3414,1,0,0:0:0:0:
194,129,3604,2,0,P|251:88|286:77,1,95
329,63,3889,1,0,0:0:0:0:
385,53,3984,5,0,0:0:0:0:
400,70,4078,1,0,0:0:0:0:
412,90,4173,1,0,0:0:0:0:
420,111,4268,1,0,0:0:0:0:
423,134,4363,1,0,0:0:0:0:
423,157,4458,1,0,0:0:0:0:
418,179,4553,1,0,0:0:0:0:
409,200,4648,1,0,0:0:0:0:
396,219,4743,1,0,0:0:0:0:
403,275,4838,5,0,0:0:0:0:
384,288,4933,1,0,0:0:0:0:
363,297,5028,1,0,0:0:0:0:
341,302,5123,1,0,0:0:0:0:
318,302,5218,1,0,0:0:0:0:
295,299,5313,1,0,0:0:0:0:
274,291,5408,1,0,0:0:0:0:
257,278,5503,2,0,L|181:233,1,47.5
177,320,5693,2,0,L|136:344,1,47.5
114,270,5883,2,0,L|38:225,1,47.5
122,79,6262,6,0,P|188:49|252:62,1,95
237,55,6547,1,0,0:0:0:0:
261,69,6642,1,0,0:0:0:0:
362,120,6832,1,0,0:0:0:0:
397,228,7022,2,0,P|331:258|267:245,1,95
319,143,7402,2,0,P|272:148|231:173,1,95
196,217,7687,5,0,0:0:0:0:
178,236,7781,1,0,0:0:0:0:
156,250,7876,1,0,0:0:0:0:
131,257,7971,1,0,0:0:0:0:
105,256,8066,1,0,0:0:0:0:
81,248,8161,2,0,P|56:207|51:160,1,95
76,108,8446,1,0,0:0:0:0:
121,74,8541,2,0,L|197:29,1,47.5
201,116,8731,2,0,L|242:140,1,47.5
264,66,8921,2,0,L|340:21,1,47.5
201,116,9300,5,0,0:0:0:0:
187,143,9394,1,0,0:0:0:0:
186,174,9489,1,0,0:0:0:0:
197,202,9584,1,0,0:0:0:0:
224,211,9680,1,0,0:0:0:0:
238,183,9775,1,0,0:0:0:0:
262,164,9870,1,0,0:0:0:0:
291,155,9964,1,0,0:0:0:0:
326,86,10060,2,0,P|364:76|387:79,1,47.5
392,160,10250,2,0,P|415:158|437:150,1,47.5
461,66,10440,2,0,P|499:56|522:59,2,47.5
371,76,10724,5,0,0:0:0:0:
344,192,10819,2,0,L|240:224,1,95
271,106,11199,2,0,L|167:74,1,95
183,250,11579,1,0,0:0:0:0:
180,78,11769,1,0,0:0:0:0:
328,163,11959,1,0,0:0:0:0:
179,82,12338,6,0,L|151:172,1,95
168,217,12623,1,0,0:0:0:0:
191,238,12717,1,0,0:0:0:0:
221,248,12812,1,0,0:0:0:0:
252,246,12907,1,0,0:0:0:0:
280,232,13002,1,0,0:0:0:0:
312,196,13098,6,0,L|339:105,1,95
324,59,13383,1,0,0:0:0:0:
301,38,13477,1,0,0:0:0:0:
271,27,13572,1,0,0:0:0:0:
240,29,13667,1,0,0:0:0:0:
212,44,13762,1,0,0:0:0:0:
203,90,13857,6,0,L|147:124,2,47.5
312,24,14237,1,0,0:0:0:0:
268,143,14427,1,0,0:0:0:0:
370,73,14617,1,0,0:0:0:0:
386,61,14711,1,0,0:0:0:0:
402,49,14806,1,0,0:0:0:0:
440,24,14997,2,0,L|440:148,1,95
443,251,15376,5,0,0:0:0:0:
325,190,15566,1,0,0:0:0:0:
325,190,15661,1,0,0:0:0:0:
325,190,15756,2,0,P|343:246|333:316,1,95
210,260,16136,5,0,0:0:0:0:
325,190,16326,1,0,0:0:0:0:
325,190,16421,1,0,0:0:0:0:
325,190,16516,2,0,L|405:126,1,95
288,57,16895,5,0,0:0:0:0:
216,168,17085,2,0,P|250:204|290:218,1,47.5
312,224,17275,1,0,0:0:0:0:
312,224,17370,2,0,B|312:216|312:216|320:200|320:200|304:196|304:196|320:188|320:188|304:180|304:180|320:172|320:172|304:164|304:164|312:148|312:148|312:140,1,95
224,211,17655,6,0,L|298:161,1,47.5
376,112,17940,2,0,L|450:62,1,47.5
262,185,18414,6,0,P|247:202|222:211,1,47.5
144,104,18699,1,0,0:0:0:0:
144,104,18794,2,0,P|159:87|183:77,1,47.5
275,254,19174,5,0,0:0:0:0:
275,254,19269,1,0,0:0:0:0:
385,179,19459,2,0,L|424:152,1,47.5
256,192,19743,12,0,22893,0:0:0:0:
112,117,23090,5,0,0:0:0:0:
206,81,23288,1,0,0:0:0:0:
306,81,23485,1,0,0:0:0:0:
400,117,23683,1,0,0:0:0:0:
407,218,23880,1,0,0:0:0:0:
314,254,24078,1,0,0:0:0:0:
213,254,24275,1,0,0:0:0:0:
119,218,24473,1,0,0:0:0:0:
112,116,24669,38,0,L|192:63,1,95
218,175,25064,2,0,L|298:122,1,95
344,96,25360,1,0,0:0:0:0:
319,207,25558,1,0,0:0:0:0:
413,142,25756,1,0,0:0:0:0:
507,77,25952,1,0,0:0:0:0:
336,40,26171,22,0,P|267:25|200:69,1,142.500005435944
367,118,26550,2,0,P|296:121|243:181,1,142.500005435944
419,186,26930,2,0,P|351:207|315:279,1,142.500005435944
467,347,27310,1,0,0:0:0:0:
316,265,27500,1,0,0:0:0:0:
398,116,27689,5,0,0:0:0:0:
296,256,27879,1,0,0:0:0:0:
376,104,28069,1,0,0:0:0:0:
272,240,28259,1,0,0:0:0:0:
104,224,28449,5,0,0:0:0:0:
206,84,28639,1,0,0:0:0:0:
225,56,28733,1,0,0:0:0:0:
245,28,28828,1,0,0:0:0:0:
398,116,29019,21,0,0:0:0:0:
398,116,29208,2,0,P|413:185|369:252,1,142.500005435944
224,328,29588,1,0,0:0:0:0:
89,222,29778,2,0,P|100:145|168:162,1,142.500005435944
285,251,30158,2,0,P|274:328|206:311,1,142.500005435944
89,222,30538,2,0,L|171:71,1,142.500005435944
325,67,30917,1,0,0:0:0:0:
325,67,31107,2,0,L|256:192,1,142.500005435944
412,115,31487,5,0,0:0:0:0:
241,96,31677,1,0,0:0:0:0:
400,152,31867,1,0,0:0:0:0:
280,272,32057,5,0,0:0:0:0:
115,229,32246,2,0,L|83:79,1,142.500005435944
249,39,32626,1,0,0:0:0:0:
340,183,32816,2,0,L|310:322,1,142.500005435944
156,245,33196,2,0,L|124:95,1,142.500005435944
38,255,33576,5,0,0:0:0:0:
202,298,33765,2,0,L|352:266,1,142.500005435944
482,170,34145,2,0,L|332:138,1,142.500005435944
172,158,34525,2,0,L|204:308,1,142.500005435944
368,256,34905,1,0,0:0:0:0:
473,121,35095,1,0,0:0:0:0:
308,78,35284,37,0,0:0:0:0:
145,23,35474,1,0,0:0:0:0:
296,114,35664,1,0,0:0:0:0:
116,54,35854,1,0,0:0:0:0:
244,168,36044,1,0,0:0:0:0:
423,107,36234,1,0,0:0:0:0:
272,199,36424,1,0,0:0:0:0:
435,144,36614,1,0,0:0:0:0:
395,309,36803,22,0,P|270:324|239:311,1,142.500005435944
139,194,37183,2,0,P|177:134|237:97,1,142.500005435944
404,58,37563,1,0,0:0:0:0:
417,84,37657,1,0,0:0:0:0:
427,112,37752,1,0,0:0:0:0:
431,142,37847,1,0,0:0:0:0:
430,172,37942,1,0,0:0:0:0:
424,201,38037,1,0,0:0:0:0:
413,229,38132,1,0,0:0:0:0:
397,254,38227,1,0,0:0:0:0:
377,274,38322,6,0,L|212:293,1,142.500005435944
67,254,38702,1,0,0:0:0:0:
213,165,38892,2,0,L|354:148,1,142.500005435944
480,32,39272,1,0,0:0:0:0:
364,87,39462,1,0,0:0:0:0:
248,136,39652,1,0,0:0:0:0:
106,231,39841,6,0,L|272:296,1,142.500005435944
387,197,40221,1,0,0:0:0:0:
228,133,40411,1,0,0:0:0:0:
363,28,40601,22,0,P|406:111|351:221,2,213.750008153916
192,32,41360,6,0,L|160:200,1,142.500005435944
69,314,41740,2,0,L|45:201,1,71.2500027179719
46,192,41930,2,0,L|14:24,1,142.500005435944
176,122,42310,2,0,L|149:261,1,142.500005435944
308,325,42689,37,0,0:0:0:0:
399,180,42879,2,0,P|310:108|246:100,1,142.500005435944
147,205,43259,2,0,P|236:277|300:285,1,142.500005435944
399,180,43639,2,0,P|372:114|320:66,1,142.500005435944
182,169,44019,2,0,P|208:234|260:282,1,142.500005435944
399,180,44398,6,0,L|291:63,1,142.500005435944
288,56,44683,1,0,0:0:0:0:
268,36,44778,1,0,0:0:0:0:
176,176,44968,1,0,0:0:0:0:
176,176,45158,2,0,L|272:280,1,142.500005435944
432,224,45538,1,0,0:0:0:0:
365,67,45727,1,0,0:0:0:0:
194,82,45917,6,0,L|290:186,1,142.500005435944
233,344,46297,1,0,0:0:0:0:
228,346,46487,2,0,L|131:241,1,142.500005435944
113,218,46772,1,0,0:0:0:0:
99,202,46866,1,0,0:0:0:0:
86,186,46961,1,0,0:0:0:0:
72,168,47057,2,0,L|72:83,2,71.2500027179719
72,168,47436,5,0,0:0:0:0:
81,196,47530,1,0,0:0:0:0:
97,221,47625,1,0,0:0:0:0:
120,240,47720,1,0,0:0:0:0:
147,253,47815,1,0,0:0:0:0:
175,251,47911,1,0,0:0:0:0:
223,239,48005,1,0,0:0:0:0:
261,208,48100,1,0,0:0:0:0:
276,160,48196,1,0,0:0:0:0:
294,116,48290,1,0,0:0:0:0:
329,84,48385,1,0,0:0:0:0:
373,70,48480,1,0,0:0:0:0:
423,79,48576,1,0,0:0:0:0:
468,111,48670,1,0,0:0:0:0:
478,167,48765,1,0,0:0:0:0:
400,224,49145,6,0,L|278:283,1,95
411,326,49525,2,0,L|289:385,1,95
323,362,50474,5,0,0:0:0:0:
290,354,50568,1,0,0:0:0:0:
261,338,50663,1,0,0:0:0:0:
238,314,50758,1,0,0:0:0:0:
223,285,50854,2,0,L|153:322,3,47.5
123,311,51234,5,0,0:0:0:0:
103,286,51328,1,0,0:0:0:0:
90,255,51423,1,0,0:0:0:0:
86,222,51518,1,0,0:0:0:0:
91,190,51614,2,0,L|13:175,3,47.5
29,126,51993,6,0,P|92:74|126:67,1,95
217,72,52373,1,0,0:0:0:0:
243,82,52467,1,0,0:0:0:0:
266,98,52562,1,0,0:0:0:0:
285,119,52657,1,0,0:0:0:0:
296,146,52753,2,0,L|384:160,1,47.5
353,180,52943,2,0,L|441:194,1,47.5
398,216,53133,2,0,L|486:230,1,47.5
445,222,53512,6,0,P|415:140|301:95,1,178.125
270,138,53892,2,0,P|239:227|154:289,1,170.999994781494
45,207,54367,2,0,P|76:118|164:55,1,163.875003125668
272,71,54841,2,0,P|329:128|353:207,1,156.750004783631
417,323,55316,2,0,P|450:191|426:108,1,199.499993911743
455,67,55791,2,0,P|349:18|276:32,1,190
248,88,56265,1,0,0:0:0:0:
256,192,56360,12,0,58069,0:0:0:0:
