osu file format v14

[General]
AudioFilename: audio.mp3
AudioLeadIn: 0
PreviewTime: 45256
Countdown: 0
SampleSet: Soft
StackLeniency: 0.7
Mode: 0
LetterboxInBreaks: 0
WidescreenStoryboard: 1

[Editor]
DistanceSpacing: 0.2
BeatDivisor: 4
GridSize: 8
TimelineZoom: 1.4

[Metadata]
Title:Otome no Route wa Hitotsu ja Nai! (TV Size)
TitleUnicode:乙女のルートはひとつじゃない!
Artist:angela
ArtistUnicode:angela
Creator:coco
Version:Light Insane
Source:乙女ゲームの破滅フラグしかない悪役令嬢に転生してしまった…
Tags:cococolaco loli catgirl My Next Life as a Villainess: All Routes Lead to Doom! Hamefura Otome Game no Hametsu Flag shika Nai Akuyaku Reijou ni Tensei shiteshimatta... bakarina anime op opening japanese
BeatmapID:2422424
BeatmapSetID:1157063

[Difficulty]
HPDrainRate:5
CircleSize:4
OverallDifficulty:7
ApproachRate:8
SliderMultiplier:1.6
SliderTickRate:1

[Events]
//Background and Video events
0,0,"e315c55a-797c-4820-863b-719d58989ec8.png",0,0
//Break Periods
//Storyboard Layer 0 (Background)
//Storyboard Layer 1 (Fail)
//Storyboard Layer 2 (Pass)
//Storyboard Layer 3 (Foreground)
//Storyboard Layer 4 (Overlay)
//Storyboard Sound Samples

[TimingPoints]
4619,312.5,4,2,1,80,1,0
11807,-100,4,3,0,80,0,0
12118,-111.111111111111,4,2,1,60,0,0
19618,-111.111111111111,4,2,1,80,0,0
22118,-111.111111111111,4,2,1,68,0,0
32118,326.086956521739,3,2,1,60,1,0
32118,-111.111111111111,3,2,1,60,0,0
39944,312.5,4,2,1,60,1,0
44944,-100,4,2,1,60,0,0
45256,312.5,4,2,1,80,1,0
45256,-100,4,2,1,80,0,0
49007,-100,4,3,0,80,0,0
50257,-100,4,2,1,80,0,0
54318,-100,4,3,0,80,0,0
54943,-100,4,3,0,80,0,0
55256,-100,4,2,1,80,0,0
64006,-100,4,3,0,80,0,0
64631,-100,4,2,1,80,0,0
65256,-100,4,2,1,65,0,0
74006,-100,4,3,0,70,0,0
74631,-100,4,2,1,75,0,0
75256,-100,4,2,1,80,0,0

[Colours]
Combo1 : 33,100,211
Combo2 : 162,136,36
Combo3 : 152,149,146
Combo4 : 232,234,142
Combo5 : 103,69,203
Combo6 : 241,94,22
Combo7 : 212,212,212
Combo8 : 236,149,205

[HitObjects]
90,125,4619,6,0,P|132:119|192:107,1,80,6|0,1:2|3:0,0:0:0:0:
236,173,4931,2,0,P|278:179|338:191,1,80,0|0,1:0|3:0,0:0:0:0:
396,134,5244,1,2,1:2:0:0:
467,217,5400,1,0,3:0:0:0:
396,134,5556,2,0,P|401:91|407:51,1,80,0|0,1:0|3:0,0:0:0:0:
314,185,5869,6,0,P|321:249|327:350,1,160,6|0,1:2|1:0,0:0:0:0:
421,295,6337,1,0,3:0:0:0:
421,295,6494,2,0,P|420:342|413:376,1,80,2|0,1:2|3:0,0:0:0:0:
229,312,6806,2,0,P|228:272|221:232,1,80,0|0,1:0|3:0,0:0:0:0:
150,178,7119,5,6,1:2:0:0:
76,249,7275,1,0,3:0:0:0:
150,178,7431,2,0,P|101:170|71:164,1,80,0|0,1:0|3:0,0:0:0:0:
220,108,7744,1,2,1:2:0:0:
53,82,7900,1,0,3:0:0:0:
53,82,8056,2,0,P|96:77|140:69,1,80,0|0,1:0|3:0,0:0:0:0:
71,164,8369,6,0,B|60:204|60:204|73:243,1,80,6|0,1:2|3:0,0:0:0:0:
166,350,8681,2,0,B|178:313|178:313|167:273,1,80,0|0,1:0|3:0,0:0:0:0:
2,338,8994,2,0,P|42:328|87:322,1,80,2|2,1:2|3:2,0:0:0:0:
166,183,9306,2,0,P|206:193|251:199,1,80,2|0,1:2|3:0,0:0:0:0:
330,156,9619,5,4,0:0:0:0:
404,368,9931,2,0,B|428:277|381:301|407:206,1,160,4|4,0:0|0:0,0:0:0:0:
405,210,10400,1,4,0:0:0:0:
494,41,10712,2,0,B|459:78|425:84|425:84|389:82|346:65,1,160,4|0,0:0|3:0,0:0:0:0:
269,34,11181,2,0,L|178:42,1,80,2|2,1:2|1:2,0:0:0:0:
129,107,11494,1,2,1:2:0:0:
129,107,11806,6,0,L|77:89,3,40,4|0|0|0,0:0|0:0|0:0|0:0,0:0:0:0:
149,119,12119,6,0,P|156:191|160:267,1,143.999995605469,0|0,3:0|3:0,0:0:0:0:
72,301,12587,2,0,B|59:265|59:265|72:230,1,71.9999978027344,2|0,0:0|3:0,0:0:0:0:
214,195,12900,2,0,P|252:202|298:206,1,71.9999978027344,2|0,0:0|3:0,0:0:0:0:
348,274,13212,2,0,P|384:267|426:262,1,71.9999978027344,2|0,0:0|3:0,0:0:0:0:
378,104,13525,2,0,P|374:141|365:188,1,71.9999978027344,2|0,0:0|3:0,0:0:0:0:
419,262,13837,1,2,0:0:0:0:
480,193,13994,2,0,P|470:150|453:46,1,143.999995605469,0|0,3:0|3:0,0:0:0:0:
381,9,14619,5,2,3:2:0:0:
381,9,14775,1,2,0:0:0:0:
319,83,14931,1,2,3:2:0:0:
319,83,15087,1,2,0:0:0:0:
226,61,15244,2,0,L|150:46,1,71.9999978027344,2|2,3:2|0:0,0:0:0:0:
270,159,15556,2,0,L|194:174,1,71.9999978027344,2|2,3:2|0:0,0:0:0:0:
173,283,16806,5,2,3:2:0:0:
173,283,16962,1,2,0:0:0:0:
93,362,17119,2,0,P|81:324|89:215,1,143.999995605469,2|0,3:2|3:0,0:0:0:0:
123,124,17587,2,0,P|88:132|45:135,1,71.9999978027344,2|0,0:0|3:0,0:0:0:0:
173,194,17900,2,0,P|208:196|243:205,1,71.9999978027344,2|0,0:0|3:0,0:0:0:0:
367,267,18212,6,0,P|331:275|296:278,1,71.9999978027344,2|0,0:0|3:0,0:0:0:0:
213,361,18525,2,0,P|204:318|202:276,1,71.9999978027344,2|0,0:0|3:0,0:0:0:0:
243,205,18837,2,0,P|253:118|259:54,1,143.999995605469,2|0,0:0|0:0,0:0:0:0:
258,61,19306,1,0,3:0:0:0:
506,132,19619,6,0,B|458:125|458:125|419:140|419:140|358:130,1,143.999995605469,6|2,0:0|3:2,0:0:0:0:
366,131,20244,1,4,0:0:0:0:
385,224,20400,2,0,L|400:298,1,71.9999978027344,2|0,0:0|3:0,0:0:0:0:
285,156,20712,2,0,B|270:233|270:233|241:247|226:288,1,143.999995605469,4|0,0:0|3:0,0:0:0:0:
142,314,21181,2,0,L|75:340,1,71.9999978027344,0|0,1:0|1:0,0:0:0:0:
77,203,21494,1,0,1:0:0:0:
77,203,21806,6,0,L|158:229,1,71.9999978027344,0|0,3:0|0:0,0:0:0:0:
219,164,22119,2,0,L|194:16,1,143.999995605469,4|2,0:0|1:2,0:0:0:0:
347,106,22587,2,0,B|356:143|356:143|342:180,1,71.9999978027344,2|0,3:2|1:0,0:0:0:0:
295,30,22900,2,0,L|371:18,1,71.9999978027344,2|0,3:2|1:2,0:0:0:0:
254,189,23212,1,0,3:2:0:0:
173,126,23369,2,0,L|25:108,2,143.999995605469,0|0|2,1:0|1:0|1:2,0:0:0:0:
173,126,24150,1,0,3:0:0:0:
254,189,24306,2,0,P|259:224|261:260,1,71.9999978027344,0|0,1:0|3:0,0:0:0:0:
175,328,24619,5,2,1:2:0:0:
175,328,24775,1,2,3:2:0:0:
103,274,24931,1,2,1:2:0:0:
103,274,25087,1,2,3:2:0:0:
37,326,25244,1,2,1:2:0:0:
99,252,25400,2,0,L|180:240,1,71.9999978027344,2|2,3:2|1:2,0:0:0:0:
279,285,25712,1,2,3:2:0:0:
358,236,25869,6,0,P|361:199|368:159,1,71.9999978027344,0|0,1:0|3:0,0:0:0:0:
282,52,26181,2,0,P|287:87|290:123,1,71.9999978027344,0|0,1:0|3:0,0:0:0:0:
442,111,26494,2,0,B|404:89|369:74|369:74|338:91|294:99,1,143.999995605469,0|2,1:0|1:2,0:0:0:0:
248,210,26962,1,2,3:2:0:0:
248,210,27119,6,0,P|198:211|122:149,1,143.999995605469,2|2,1:2|1:2,0:0:0:0:
52,102,27587,2,0,P|58:57|62:21,1,71.9999978027344,2|0,3:2|1:0,0:0:0:0:
213,108,27900,2,0,P|216:143|222:179,1,71.9999978027344,2|0,3:2|1:0,0:0:0:0:
61,286,28212,1,2,3:2:0:0:
10,216,28369,6,0,B|45:199|45:199|90:202,1,71.9999978027344,0|2,1:0|3:2,0:0:0:0:
279,273,28681,2,0,B|244:256|244:256|199:259,1,71.9999978027344,0|2,1:0|3:2,0:0:0:0:
32,376,28994,2,0,B|73:371|105:364|105:364|123:335|151:309,1,143.999995605469,0|0,1:0|1:0,0:0:0:0:
329,159,29619,6,0,B|317:196|317:196|330:226,1,71.9999978027344,2|2,1:2|3:2,0:0:0:0:
418,290,29931,1,0,1:0:0:0:
431,203,30087,1,2,3:2:0:0:
431,203,30244,2,0,B|426:119|402:141|403:59,1,143.999995605469,4|2,1:2|1:2,0:0:0:0:
242,129,30712,2,0,B|242:207|218:185|213:269,1,143.999995605469,2|0,3:2|3:0,0:0:0:0:
168,355,31181,2,0,P|202:361|240:373,1,71.9999978027344,2|2,1:2|1:2,0:0:0:0:
125,266,31494,2,0,P|91:272|53:284,2,71.9999978027344,2|2|2,1:2|3:2|0:2,0:0:0:0:
240,130,32118,6,0,B|124:147|90:51|90:51|121:21|171:41|157:90,1,287.999991210938,6|0,0:0|0:0,0:0:0:0:
339,207,33096,2,0,B|454:224|488:128|488:128|457:98|407:118|421:167,1,287.999991210938,2|0,0:0|0:0,0:0:0:0:
260,259,34074,6,0,P|251:222|247:181,1,71.9999978027344,2|0,0:0|0:0,0:0:0:0:
179,74,34400,2,0,P|173:109|165:144,1,71.9999978027344,2|2,0:0|0:0,0:0:0:0:
77,207,34726,2,0,P|68:172|64:136,1,71.9999978027344,2|0,0:0|0:0,0:0:0:0:
189,55,35052,6,0,B|243:200|114:173|175:336,1,287.999991210938,2|0,0:0|0:0,0:0:0:0:
172,330,36031,6,0,P|124:365|28:357,2,143.999995605469,2|0|0,0:0|0:0|0:0,0:0:0:0:
244,257,36846,1,0,0:0:0:0:
345,333,37009,2,0,P|336:250|331:181,2,143.999995605469,2|0|0,0:0|0:0|0:0,0:0:0:0:
345,333,37987,1,2,0:0:0:0:
256,192,38069,12,2,39944,0:0:0:0:
256,192,40256,5,2,0:0:0:0:
256,192,40569,1,2,0:0:0:0:
256,192,40881,1,4,0:0:0:0:
256,192,42444,5,2,0:0:0:0:
256,192,42756,1,2,0:0:0:0:
256,192,43069,1,2,0:0:0:0:
256,192,43381,1,4,0:0:0:0:
256,192,43459,12,0,44944,1:0:0:0:
420,269,45256,5,0,3:0:0:0:
420,269,45412,2,0,B|436:173|389:186|406:100,1,160,2|2,0:0|0:0,0:0:0:0:
313,58,45881,2,0,P|303:100|305:142,1,80,2|2,3:2|3:2,0:0:0:0:
330,227,46193,1,0,1:0:0:0:
203,284,46349,2,0,B|110:298|110:298|60:349,1,160,2|2,0:0|0:2,0:0:0:0:
8,178,46818,2,0,P|16:218|25:265,1,80,2|2,1:2|0:2,0:0:0:0:
176,187,47131,1,2,3:2:0:0:
127,117,47287,1,2,3:2:0:0:
127,117,47443,2,0,L|140:34,1,80,0|0,1:0|0:0,0:0:0:0:
260,158,47756,6,0,B|358:174|300:214|403:237,1,160,2|2,3:2|1:2,0:0:0:0:
242,340,48224,2,0,P|281:324|320:322,1,80,2|0,0:2|3:0,0:0:0:0:
407,339,48537,1,2,3:2:0:0:
481,290,48693,2,0,B|496:253|496:253|486:208,1,80,0|2,1:0|0:2,0:0:0:0:
379,117,49006,6,0,L|399:261,1,120,2|0,3:2|0:0,0:0:0:0:
407,250,49318,2,0,L|323:237,1,80,0|0,1:0|0:0,0:0:0:0:
318,227,49552,1,0,0:0:0:0:
308,217,49631,2,2,L|263:226,4,40,0|0|0|0|0,3:0|0:0|3:0|0:0|1:0,0:2:0:0:
182,242,50256,5,2,3:2:0:0:
104,347,50412,2,0,P|64:339|22:333,1,80,2|2,0:2|1:2,0:0:0:0:
96,203,50724,2,0,P|97:142|168:67,1,160,2|0,0:2|3:0,0:0:0:0:
252,96,51193,2,0,L|336:114,1,80,0|0,1:0|0:0,0:0:0:0:
406,70,51506,5,2,3:2:0:0:
397,192,51662,2,0,L|313:210,1,80,2|2,0:2|1:2,0:0:0:0:
260,293,51974,2,0,P|336:306|431:323,1,160,2|0,0:2|3:0,0:0:0:0:
417,320,52443,1,0,1:0:0:0:
481,252,52599,5,2,0:0:0:0:
481,252,52677,1,2,0:0:0:0:
481,252,52756,2,0,B|449:226|449:226|407:227,1,80,0|0,3:0|0:0,0:0:0:0:
316,246,53068,1,0,1:0:0:0:
232,137,53224,2,0,L|222:223,1,80,2|0,0:0|3:0,0:0:0:0:
51,95,53537,2,0,L|61:181,1,80,2|0,3:2|1:0,0:0:0:0:
61,345,53849,6,0,L|82:164,1,160,6|0,0:0|0:0,0:0:0:0:
93,177,54240,1,0,3:0:0:0:
107,165,54318,2,0,L|119:122,3,40,0|0|0|0,3:0|3:0|3:0|3:0,0:0:0:0:
148,105,54631,2,0,L|136:62,3,40,0|0|0|0,3:0|0:0|0:0|1:0,0:0:0:0:
129,50,54943,2,0,B|224:82|224:82|294:63,1,160,0|4,1:0|3:2,0:0:0:0:
281,66,55412,6,0,P|321:70|371:80,1,80,2|0,0:0|1:0,0:0:0:0:
303,171,55724,1,2,0:0:0:0:
375,221,55881,1,2,3:2:0:0:
339,296,56037,2,0,P|297:300|255:306,1,80,2|0,3:2|1:0,0:0:0:0:
457,169,56349,2,0,B|381:146|381:146|369:115|321:90,1,160,2|2,0:0|0:2,0:0:0:0:
234,116,56818,2,0,P|217:155|215:200,1,80,2|2,1:2|0:2,0:0:0:0:
249,296,57131,1,2,3:2:0:0:
165,269,57287,1,2,3:2:0:0:
165,269,57443,2,0,L|80:277,1,80,0|2,1:0|0:0,0:0:0:0:
0,105,57756,6,0,P|80:99|171:89,1,160,4|0,3:2|1:0,0:0:0:0:
242,61,58224,2,0,B|256:100|256:100|235:145,1,80,4|0,0:0|0:0,0:0:0:0:
50,197,58537,2,0,L|132:177,1,80,4|0,0:0|0:0,0:0:0:0:
308,212,58849,2,0,L|470:246,1,160,4|0,0:0|3:0,0:0:0:0:
470,257,59240,1,0,3:0:0:0:
475,267,59318,6,0,P|427:275|395:282,1,80,0|0,1:0|0:0,0:0:0:0:
288,326,59631,1,8,0:3:0:0:
318,238,59787,1,8,0:3:0:0:
201,283,59943,2,0,P|194:327|202:372,1,80,4|0,0:3|0:0,0:0:0:0:
153,199,60256,6,0,P|113:192|14:250,1,160,4|4,0:0|1:2,0:0:0:0:
14,249,60724,1,0,0:0:0:0:
67,169,60881,2,0,B|56:65|35:118|26:7,1,160,4|0,0:0|1:0,0:0:0:0:
26,15,61349,1,2,0:0:0:0:
142,97,61506,2,0,P|178:102|232:111,2,80,2|2|2,0:0|0:0|1:2,0:0:0:0:
32,22,61974,2,0,P|68:16|122:8,1,80,2|4,3:2|0:0,0:0:0:0:
212,92,62287,1,0,3:0:0:0:
284,38,62443,2,0,L|274:-5,2,40,0|0|0,1:0|3:0|3:0,0:0:0:0:
355,109,62756,6,0,P|348:147|341:203,1,80,2|0,3:2|3:0,0:0:0:0:
274,247,63068,2,0,P|279:286|286:325,1,80,0|0,1:0|3:0,0:0:0:0:
376,361,63381,1,0,1:0:0:0:
376,361,63537,1,0,3:0:0:0:
435,290,63693,1,0,1:0:0:0:
435,290,63849,1,0,3:0:0:0:
342,187,64006,6,0,B|249:201|286:227|177:243,1,160,0|0,3:0|3:0,0:0:0:0:
142,318,64474,1,4,3:0:0:0:
142,318,64552,1,0,3:0:0:0:
142,318,64631,2,0,P|99:306|51:296,1,80,0|0,1:0|3:0,0:0:0:0:
28,203,64943,2,0,P|59:171|92:135,1,80,0|0,1:0|0:0,0:0:0:0:
159,84,65256,6,0,P|169:139|194:246,1,160,6|2,0:0|1:2,0:0:0:0:
192,240,65724,1,0,1:0:0:0:
282,279,65881,2,0,L|268:372,1,80,2|2,3:2|3:2,0:0:0:0:
366,225,66193,2,0,L|380:318,1,80,0|0,1:0|1:0,0:0:0:0:
462,333,66506,2,0,P|469:281|446:163,1,160,2|2,3:2|1:2,0:0:0:0:
292,27,67131,2,0,P|299:79|276:197,1,160,2|2,3:2|1:2,0:0:0:0:
200,250,67599,5,2,0:0:0:0:
200,250,67677,1,0,3:0:0:0:
200,250,67756,2,0,B|130:263|130:263|104:293|34:327,2,160,0|0|2,3:0|1:0|3:2,0:0:0:0:
158,173,68537,1,2,3:2:0:0:
80,159,68693,2,0,L|-8:143,1,80,0|2,1:0|0:0,0:0:0:0:
240,119,69006,2,0,L|143:67,2,80,2|0|0,3:2|0:0|1:0,0:0:0:0:
314,168,69474,1,0,3:0:0:0:
399,156,69631,2,0,L|418:199,2,40,0|0|6,3:0|3:0|3:2,0:0:0:0:
314,168,69943,2,0,L|294:278,1,80,6|0,1:2|1:0,0:0:0:0:
354,78,70256,6,0,L|321:242,1,160,6|2,1:2|1:2,0:0:0:0:
322,234,70724,1,2,1:2:0:0:
422,321,70881,2,0,B|432:276|432:276|417:233,1,80,0|2,3:0|0:0,0:0:0:0:
235,195,71193,2,0,B|225:239|225:239|240:282,1,80,0|2,1:0|0:0,0:3:0:0:
183,355,71506,5,2,3:2:0:0:
183,355,71662,1,2,3:2:0:0:
100,309,71818,1,2,1:2:0:0:
100,309,71974,1,2,3:2:0:0:
14,239,72131,2,0,L|101:227,1,80,2|0,3:2|3:0,0:0:0:0:
258,164,72443,2,0,L|171:152,1,80,2|0,1:2|1:0,0:0:0:0:
178,153,72677,1,0,1:0:0:0:
178,153,72756,2,0,P|164:109|160:70,1,80,2|2,1:2|1:2,0:0:0:0:
212,8,73068,1,2,1:2:0:0:
81,132,73381,6,0,L|-7:148,2,80,2|0|2,0:0|3:0|1:2,0:0:0:0:
160,75,73849,1,0,1:0:0:0:
253,162,74006,2,0,P|296:150|401:209,1,160,0|0,1:2|1:2,0:0:0:0:
395,295,74631,2,0,L|378:350,3,40,0|0|0|0,1:0|1:0|1:0|1:0,0:0:0:0:
420,283,74943,2,0,L|437:338,2,40,0|0|0,3:0|3:0|3:0,0:0:0:0:
394,198,75256,5,4,3:2:0:0:
394,198,75412,2,0,B|306:206|329:234|231:237,1,160,2|2,0:0|0:0,0:0:0:0:
156,200,75881,1,0,1:0:0:0:
156,200,76037,2,0,P|145:248|154:292,1,80,2|2,3:2|0:0,0:0:0:0:
48,331,76349,6,0,P|54:286|44:151,1,160,2|2,0:2|3:2,0:0:0:0:
236,125,76818,2,0,P|238:168|246:213,1,80,0|2,1:0|3:2,0:0:0:0:
122,113,77131,1,2,1:2:0:0:
179,44,77287,2,0,P|222:42|267:34,1,80,2|0,3:2|1:0,0:0:0:0:
325,145,77599,1,2,0:0:0:0:
401,95,77756,6,0,B|361:58|361:58|309:53|246:31,1,160,4|6,0:2|0:2,0:0:0:0:
436,210,78224,2,0,L|345:227,1,80,6|0,0:0|0:0,0:0:0:0:
291,298,78537,2,0,L|212:283,1,80,6|0,0:0|0:0,0:0:0:0:
150,220,78849,2,0,L|63:235,1,80,6|0,0:0|0:0,0:0:0:0:
256,192,79084,12,4,81506,0:0:0:0:
116,300,82756,6,0,B|99:258|90:206|90:206|106:178|121:141,1,160,4|0,0:0|1:0,0:0:0:0:
117,150,83224,1,2,3:2:0:0:
165,75,83381,2,0,B|126:59|126:59|75:73,1,80,0|0,1:0|3:0,0:0:0:0:
195,201,83693,2,0,B|234:217|234:217|285:203,1,80,0|2,1:0|3:2,0:0:0:0:
349,149,84006,6,0,P|427:156|513:170,1,160,2|2,3:2|1:2,0:0:0:0:
307,66,84474,2,0,P|357:62|397:65,1,80,2|0,3:2|1:0,0:0:0:0:
270,206,84787,2,0,P|320:202|360:205,1,80,2|0,0:0|3:0,0:0:0:0:
439,136,85099,1,0,3:0:0:0:
453,301,85256,5,6,0:0:0:0:
453,301,85412,1,0,3:0:0:0:
352,365,85568,2,0,L|364:275,1,80,0|0,1:0|3:0,0:0:0:0:
270,206,85881,1,2,1:2:0:0:
206,260,86037,1,2,0:2:0:0:
133,214,86193,1,2,1:2:0:0:
197,76,86349,5,4,0:0:0:0:
133,214,86662,1,4,0:0:0:0:
23,96,86974,1,4,0:0:0:0:
118,125,87131,5,6,0:0:0:0:
