osu file format v14

[General]
AudioFilename: audio.mp3
AudioLeadIn: 0
PreviewTime: 45256
Countdown: 0
SampleSet: Soft
StackLeniency: 0.7
Mode: 0
LetterboxInBreaks: 0
WidescreenStoryboard: 1

[Editor]
DistanceSpacing: 1
BeatDivisor: 4
GridSize: 8
TimelineZoom: 1.4

[Metadata]
Title:Otome no Route wa Hitotsu ja Nai! (TV Size)
TitleUnicode:乙女のルートはひとつじゃない!
Artist:angela
ArtistUnicode:angela
Creator:coco
Version:Hard
Source:乙女ゲームの破滅フラグしかない悪役令嬢に転生してしまった…
Tags:cococolaco loli catgirl My Next Life as a Villainess: All Routes Lead to Doom! Hamefura Otome Game no Hametsu Flag shika Nai Akuyaku Reijou ni Tensei shiteshimatta... bakarina anime op opening japanese
BeatmapID:2414863
BeatmapSetID:1157063

[Difficulty]
HPDrainRate:4
CircleSize:4
OverallDifficulty:5.5
ApproachRate:7.5
SliderMultiplier:1.6
SliderTickRate:1

[Events]
//Background and Video events
0,0,"e315c55a-797c-4820-863b-719d58989ec8.png",0,0
//Break Periods
2,40144,44431
//Storyboard Layer 0 (Background)
//Storyboard Layer 1 (Fail)
//Storyboard Layer 2 (Pass)
//Storyboard Layer 3 (Foreground)
//Storyboard Layer 4 (Overlay)
//Storyboard Sound Samples

[TimingPoints]
4619,312.5,4,2,1,80,1,0
11806,-100,4,3,0,80,0,0
12118,-100,4,2,1,60,0,0
19618,-100,4,2,1,80,0,0
22118,-100,4,2,1,68,0,0
32118,326.086956521739,3,2,1,60,1,0
39944,312.5,4,2,1,60,1,0
45256,312.5,4,2,1,80,1,0
49006,-100,4,3,0,80,0,0
50256,-100,4,2,1,80,0,0
54318,-100,4,3,0,80,0,0
55255,-100,4,2,1,80,0,0
61506,-100,4,2,1,80,0,0
64006,-100,4,3,0,80,0,0
64631,-100,4,2,1,80,0,0
65256,-100,4,2,1,65,0,0
74006,-100,4,3,0,70,0,0
74631,-100,4,2,1,75,0,0
75412,-100,4,2,1,80,0,0

[Colours]
Combo1 : 33,100,211
Combo2 : 162,136,36
Combo3 : 152,149,146
Combo4 : 232,234,142
Combo5 : 103,69,203
Combo6 : 241,94,22
Combo7 : 212,212,212
Combo8 : 236,149,205

[HitObjects]
41,70,4619,6,0,P|122:80|210:95,1,160,6|0,1:2|1:0,0:0:0:0:
270,129,5087,1,0,3:0:0:0:
325,71,5244,2,0,P|361:63|405:54,1,80,2|0,1:2|3:0,0:0:0:0:
457,112,5556,2,0,P|448:151|440:190,1,80,0|0,1:0|3:0,0:0:0:0:
386,312,5869,6,0,P|374:259|344:147,1,160,6|0,1:2|1:0,0:0:0:0:
346,156,6337,1,0,3:0:0:0:
279,200,6494,2,0,P|237:205|188:213,1,80,2|0,1:2|3:0,0:0:0:0:
149,272,6806,2,0,P|109:265|69:261,1,80,0|0,1:0|3:0,0:0:0:0:
20,142,7119,6,0,B|54:102|102:99|102:99|162:145,1,160,6|0,1:2|1:0,0:0:0:0:
199,210,7587,1,0,3:0:0:0:
149,272,7744,2,0,L|159:351,1,80,2|0,1:2|3:0,0:0:0:0:
237,365,8056,2,0,L|247:285,1,80,0|0,1:0|3:0,0:0:0:0:
314,241,8369,6,0,P|360:227|449:312,1,160,6|0,1:2|1:0,0:0:0:0:
417,212,8837,1,0,3:0:0:0:
462,145,8994,2,0,P|416:139|382:132,1,80,2|2,1:2|3:2,0:0:0:0:
323,79,9306,2,0,P|277:85|243:92,1,80,2|0,1:2|3:0,0:0:0:0:
182,143,9619,5,4,0:0:0:0:
90,23,9931,2,0,P|80:102|70:190,1,160,4|4,0:0|0:0,0:0:0:0:
167,127,10400,1,4,0:0:0:0:
11,278,10712,2,0,B|68:283|68:283|103:312|103:312|172:323,1,160,4|0,0:0|3:0,0:0:0:0:
244,308,11181,2,0,B|256:346|256:346|244:386,2,80,2|2|2,1:2|1:2|1:2,0:0:0:0:
208,188,11806,2,0,P|210:141|221:59,1,120,4|0,0:0|0:0,0:0:0:0:
232,55,12119,6,0,P|284:48|392:24,1,160,0|0,3:0|3:0,0:0:0:0:
473,20,12587,2,0,P|484:69|479:104,1,80,2|0,0:0|3:0,0:0:0:0:
404,145,12900,2,0,P|392:96|397:61,1,80,2|0,0:0|3:0,0:0:0:0:
303,35,13212,2,0,B|334:132|282:114|320:202,1,160,2|2,0:0|0:0,0:0:0:0:
489,273,13837,1,2,0:0:0:0:
489,273,13994,2,0,P|438:267|364:345,1,160,0|0,3:0|3:0,0:0:0:0:
193,311,14619,6,0,P|152:326|111:335,2,80,2|2|2,3:2|0:0|3:2,0:0:0:0:
266,253,15087,1,2,0:0:0:0:
203,195,15244,2,0,P|162:179|121:171,1,80,2|2,3:2|0:0,0:0:0:0:
44,198,15556,1,2,3:2:0:0:
72,89,15712,1,2,0:0:0:0:
72,89,15869,6,0,P|113:86|162:76,1,80,0|0,3:0|0:0,0:0:0:0:
219,36,16181,2,0,P|260:39|309:49,1,80,0|0,3:0|0:0,0:0:0:0:
359,97,16494,2,0,P|355:141|348:185,1,80,0|0,3:0|0:0,0:0:0:0:
453,222,16806,2,0,P|447:182|443:142,1,80,2|2,3:2|0:0,0:0:0:0:
260,139,17119,6,0,P|202:144|94:162,1,160,2|0,3:2|3:0,0:0:0:0:
68,257,17587,2,0,P|123:246|153:243,1,80,2|0,0:0|3:0,0:0:0:0:
211,294,17900,2,0,P|206:339|199:381,1,80,2|0,0:0|3:0,0:0:0:0:
313,313,18212,6,0,P|305:264|303:214,1,80,2|0,0:0|3:0,0:0:0:0:
389,168,18525,2,0,P|396:216|399:267,1,80,2|0,0:0|3:0,0:0:0:0:
485,310,18837,1,2,0:0:0:0:
400,379,18994,2,0,L|414:211,1,160,0|0,3:0|3:0,0:0:0:0:
214,76,19619,6,0,B|120:106|120:106|50:78,1,160,6|2,0:0|3:2,0:0:0:0:
63,83,20244,1,4,0:0:0:0:
47,168,20400,2,0,L|32:256,1,80,0|0,0:0|3:0,0:0:0:0:
127,223,20712,2,0,B|148:316|148:316|213:338,1,160,4|0,0:0|3:0,0:0:0:0:
281,283,21181,2,0,L|368:269,1,80,0|0,1:0|1:0,0:0:0:0:
435,312,21494,1,0,1:0:0:0:
476,134,21806,1,0,3:0:0:0:
435,312,22119,6,0,B|386:310|351:296|351:296|312:309|293:342,1,160,4|2,0:0|1:2,0:0:0:0:
293,340,22587,1,2,3:2:0:0:
207,384,22744,2,0,L|201:290,1,80,0|2,1:0|3:2,0:0:0:0:
145,247,23056,2,0,L|151:153,1,80,0|0,1:2|3:2,0:0:0:0:
181,76,23369,2,0,P|125:92|21:115,2,160,0|0|2,1:0|1:0|1:2,0:0:0:0:
254,20,24150,1,0,3:0:0:0:
322,73,24306,2,0,L|332:159,1,80,0|0,1:0|3:0,0:0:0:0:
398,217,24619,6,0,B|448:233|448:233|482:224,2,80,2|2|2,1:2|3:2|1:2,0:0:0:0:
331,152,25087,1,2,3:2:0:0:
276,218,25244,2,0,B|226:235|226:235|204:262,1,80,2|2,1:2|3:2,0:0:0:0:
243,333,25556,1,2,1:2:0:0:
166,362,25712,1,2,3:2:0:0:
166,362,25869,6,0,L|151:187,1,160,0|0,1:0|1:0,0:0:0:0:
152,202,26337,1,0,3:0:0:0:
74,146,26494,2,0,L|60:230,1,80,0|0,1:0|3:0,0:0:0:0:
173,191,26806,2,0,L|164:100,1,80,2|2,1:2|3:2,0:0:0:0:
246,56,27119,6,0,B|350:65|303:101|404:104,1,160,2|2,1:2|1:2,0:0:0:0:
463,185,27587,2,0,P|415:188|386:210,1,80,2|0,3:2|1:0,0:0:0:0:
357,289,27900,2,0,P|323:268|283:268,1,80,2|0,3:2|1:0,0:0:0:0:
210,308,28212,1,2,3:2:0:0:
210,308,28369,6,0,P|170:315|114:326,1,80,0|2,1:0|3:2,0:0:0:0:
76,218,28681,2,0,P|115:225|172:236,1,80,0|2,1:0|3:2,0:0:0:0:
234,198,28994,1,0,1:0:0:0:
200,122,29150,1,0,3:0:0:0:
200,122,29306,2,0,P|160:129|104:140,1,80,0|0,1:0|3:0,0:0:0:0:
88,19,29619,6,0,P|164:32|257:41,1,160,2|0,1:2|1:0,0:0:0:0:
310,103,30087,1,2,3:2:0:0:
310,103,30244,1,4,1:2:0:0:
380,22,30400,2,0,P|385:60|393:107,1,80,6|2,3:2|1:2,0:0:0:0:
248,168,30712,2,0,P|241:234|226:336,1,160,2|0,3:2|3:0,0:0:0:0:
305,380,31181,2,0,P|318:335|320:297,1,80,2|2,1:2|1:2,0:0:0:0:
384,242,31494,1,2,1:2:0:0:
460,272,31650,1,2,3:2:0:0:
464,284,31806,1,2,0:2:0:0:
315,321,32118,6,0,B|240:363|166:309|166:302|166:294|104:231|12:283,1,320,6|0,0:0|0:0,0:0:0:0:
34,141,33096,2,0,P|48:82|269:37,1,320,2|0,0:0|0:0,0:0:0:0:
417,62,34074,6,0,B|433:147|383:129|411:231,2,160,2|2|2,0:0|0:0|0:0,0:0:0:0:
500,255,35052,2,0,P|486:196|265:151,1,320,2|0,0:0|0:0,0:0:0:0:
55,374,36031,6,0,B|147:355|147:355|195:296|195:214,1,240,2|0,0:0|0:0,0:0:0:0:
194,219,36683,1,0,0:0:0:0:
48,122,37009,2,0,B|44:221|93:172|94:285,2,160,2|0|0,0:0|0:0|0:0,0:0:0:0:
163,47,37987,2,0,L|324:29,1,160,2|2,0:0|0:0,0:0:0:0:
380,95,38476,1,2,0:0:0:0:
380,95,38639,2,0,L|477:114,1,80,2|0,0:0|0:0,0:0:0:0:
505,177,38965,1,2,0:0:0:0:
256,192,39047,12,2,39944,0:0:0:0:
389,301,45256,5,0,3:0:0:0:
446,234,45412,2,0,B|397:212|397:212|290:244,1,160,2|2,0:0|0:0,0:0:0:0:
295,242,45881,2,0,L|212:232,1,80,2|2,3:2|3:2,0:0:0:0:
134,273,46193,1,0,1:0:0:0:
48,209,46349,2,0,B|35:267|35:267|47:300|47:300|32:364,1,160,2|2,0:0|0:2,0:0:0:0:
134,273,46818,2,0,L|127:188,1,80,2|2,1:2|0:2,0:0:0:0:
182,121,47131,1,2,3:2:0:0:
92,66,47287,1,2,3:2:0:0:
182,121,47443,2,0,L|264:109,1,80,0|0,1:0|0:0,0:0:0:0:
342,55,47756,6,0,P|388:52|474:145,1,160,2|2,3:2|1:2,0:0:0:0:
423,185,48224,1,2,0:2:0:0:
477,277,48381,1,0,3:0:0:0:
477,277,48537,2,0,P|433:267|393:258,1,80,2|0,3:2|1:0,0:0:0:0:
335,311,48849,1,2,0:2:0:0:
306,175,49006,6,0,P|259:179|148:214,1,160,2|0,3:2|1:0,0:0:0:0:
139,291,49474,1,0,0:0:0:0:
68,236,49631,2,0,P|62:192|71:152,1,80,0|0,3:0|3:0,0:0:0:0:
221,268,49943,2,0,P|227:312|218:352,1,80,0|0,1:0|0:0,0:0:0:0:
78,349,50256,6,0,L|-9:365,2,80,2|2|2,3:2|0:2|1:2,0:0:0:0:
139,291,50724,1,2,0:2:0:0:
221,268,50881,2,0,L|308:284,1,80,0|0,3:0|3:0,0:0:0:0:
384,255,51193,2,0,B|403:217|403:217|384:167,1,80,0|0,1:0|0:0,0:0:0:0:
328,64,51506,6,0,L|427:48,2,80,2|2|2,3:2|0:2|1:2,0:0:0:0:
260,126,51974,2,0,L|93:107,1,160,2|0,0:2|3:0,0:0:0:0:
37,54,52443,2,0,B|13:87|13:87|20:127,1,80,0|2,1:0|0:0,0:0:0:0:
19,125,52677,1,2,0:0:0:0:
19,125,52756,2,0,P|26:196|32:296,1,160,0|0,3:0|1:0,0:0:0:0:
108,349,53224,2,0,P|113:307|121:262,1,80,2|0,0:0|3:0,0:0:0:0:
196,181,53537,2,0,P|201:222|209:268,1,80,2|0,3:2|1:0,0:0:0:0:
370,352,53849,6,0,P|389:308|369:184,1,160,6|0,0:0|0:0,0:0:0:0:
295,126,54318,2,0,P|342:119|381:107,1,80,0|0,3:0|3:0,0:0:0:0:
373,109,54552,1,0,3:0:0:0:
373,109,54631,1,0,3:0:0:0:
420,47,54787,1,0,0:0:0:0:
352,0,54943,2,0,P|283:5|227:75,1,160,0|4,1:0|3:2,0:0:0:0:
173,142,55412,6,0,P|178:184|180:231,1,80,2|0,0:0|1:0,0:0:0:0:
224,309,55724,1,2,0:0:0:0:
175,384,55881,1,2,3:2:0:0:
224,309,56037,2,0,L|130:301,1,80,2|0,3:2|1:0,0:0:0:0:
21,239,56349,2,0,L|186:220,1,160,2|2,0:0|0:2,0:0:0:0:
248,167,56818,2,0,L|346:185,1,80,2|2,1:2|0:2,0:0:0:0:
416,141,57131,1,2,3:2:0:0:
488,269,57287,1,2,3:2:0:0:
488,269,57443,2,0,P|493:217|488:181,1,80,0|2,1:0|0:0,0:0:0:0:
404,65,57756,6,0,B|373:153|428:144|396:243,1,160,4|0,3:2|1:0,0:0:0:0:
341,349,58224,2,0,P|328:307|324:265,1,80,4|0,0:0|0:0,0:0:0:0:
231,244,58537,2,0,P|235:204|247:166,1,80,4|0,0:0|0:0,0:0:0:0:
184,92,58849,2,0,P|242:65|332:99,1,160,4|0,0:0|3:0,0:0:0:0:
328,95,59240,1,0,3:0:0:0:
328,95,59318,2,0,P|332:135|340:176,1,80,0|0,1:0|0:0,0:0:0:0:
324,271,59631,2,0,P|241:258|164:248,1,160,8|4,0:3|0:3,0:0:0:0:
18,112,60256,6,0,B|126:93|76:141|186:128,1,160,4|4,0:0|1:2,0:0:0:0:
242,68,60724,1,0,0:0:0:0:
321,104,60881,2,0,P|335:144|336:183,1,80,4|0,0:0|0:0,0:0:0:0:
271,281,61193,2,0,P|257:241|256:202,1,80,0|2,1:0|0:0,0:0:0:0:
395,248,61506,6,0,L|481:263,2,80,2|2|2,0:0|0:0|1:2,0:0:0:0:
336,181,61974,1,2,3:2:0:0:
255,203,62131,2,0,L|94:223,1,160,4|0,0:0|1:0,0:0:0:0:
96,222,62599,1,0,3:0:0:0:
33,166,62756,6,0,B|21:127|21:127|37:86,2,80,2|0|0,3:2|3:0|1:0,0:0:0:0:
101,227,63224,1,0,3:0:0:0:
170,280,63381,2,0,L|158:365,1,80,0|0,1:0|3:0,0:0:0:0:
250,331,63693,1,0,1:0:0:0:
250,331,63849,1,0,3:0:0:0:
309,264,64006,6,0,L|391:257,1,80,0|8,3:0|3:0,0:0:0:0:
410,379,64318,2,0,L|328:372,1,80,0|4,3:0|3:0,0:0:0:0:
250,331,64631,2,0,P|261:221|266:155,1,160,0|0,1:0|1:0,0:0:0:0:
264,171,65256,5,6,0:0:0:0:
264,171,65568,1,2,1:2:0:0:
199,134,65724,1,0,1:0:0:0:
133,187,65881,2,0,L|46:200,1,80,2|2,3:2|3:2,0:0:0:0:
126,103,66193,1,0,1:0:0:0:
126,103,66349,1,0,1:0:0:0:
204,133,66506,6,0,L|370:153,1,160,2|2,3:2|1:2,0:0:0:0:
471,305,67131,2,0,L|305:325,1,160,2|2,3:2|1:2,0:0:0:0:
111,343,67756,6,0,B|142:257|102:269|137:173,1,160,0|0,3:0|1:0,0:0:0:0:
132,185,68381,1,2,3:2:0:0:
210,132,68537,1,2,3:2:0:0:
123,99,68693,2,0,P|80:110|53:134,1,80,0|2,1:0|0:0,0:0:0:0:
85,279,69006,2,0,P|152:278|226:217,1,160,2|0,3:2|1:0,0:0:0:0:
311,204,69474,1,0,3:0:0:0:
320,290,69631,2,0,L|328:336,2,40,0|0|6,3:0|3:0|3:2,0:0:0:0:
311,204,69943,2,0,L|320:117,1,80,6|0,1:2|1:0,0:0:0:0:
401,53,70256,6,0,L|422:216,1,160,6|2,1:2|1:2,0:0:0:0:
486,311,70724,1,2,1:2:0:0:
486,311,70881,2,0,L|392:294,1,80,0|2,3:0|0:0,0:0:0:0:
326,329,71193,2,0,L|247:343,1,80,0|2,1:0|0:0,0:0:0:0:
171,293,71506,2,0,B|117:284|84:269|84:269|64:241|45:192,1,160,2|2,3:2|1:2,0:0:0:0:
85,125,71974,1,2,3:2:0:0:
10,60,72131,2,0,P|-1:107|1:147,1,80,2|0,3:2|3:0,0:0:0:0:
138,202,72443,2,0,P|176:194|231:184,1,80,2|0,1:2|1:0,0:0:0:0:
216,186,72677,1,0,1:0:0:0:
216,186,72756,6,0,P|266:195|387:210,1,160,2|2,1:2|1:2,0:0:0:0:
374,209,73381,2,0,B|390:250|390:250|377:292,2,80,2|0|2,0:0|3:0|1:2,0:0:0:0:
344,131,73849,1,0,1:0:0:0:
455,99,74006,2,0,L|287:67,1,160,0|0,1:2|1:2,0:0:0:0:
157,139,74631,6,0,L|168:181,3,40,0|0|0|0,1:0|1:0|1:0|1:0,0:0:0:0:
146,126,74943,2,0,L|157:88,4,40,0|0|0|0|4,3:0|3:0|3:0|3:0|3:2,0:0:0:0:
75,73,75412,6,0,B|52:120|52:120|91:227,1,160,2|2,0:0|0:0,0:0:0:0:
54,325,75881,1,2,1:2:0:0:
54,325,76037,2,0,L|132:309,1,80,2|2,0:0|3:2,0:0:0:0:
233,350,76349,2,0,P|214:256|205:190,1,160,2|2,0:2|3:2,0:0:0:0:
281,114,76818,2,0,B|303:149|303:149|291:203,1,80,0|2,1:0|3:2,0:0:0:0:
254,272,77131,1,2,1:2:0:0:
331,314,77287,2,0,B|426:280|373:262|485:225,1,160,2|2,3:2|0:0,0:0:0:0:
390,164,77756,6,0,P|336:161|254:91,1,160,4|6,0:2|0:2,0:0:0:0:
229,18,78224,2,0,P|186:29|151:43,1,80,6|0,0:0|0:0,0:0:0:0:
99,107,78537,2,0,P|61:92|22:82,1,80,6|0,0:0|0:0,0:0:0:0:
10,224,78849,2,0,P|74:226|160:163,1,160,6|0,0:0|0:0,0:0:0:0:
256,192,79240,12,4,81506,0:0:0:0:
106,198,82756,6,0,B|83:246|83:246|98:321,1,120,4|0,0:0|0:0,0:0:0:0:
106,322,83068,2,0,L|186:311,1,80,0|2,1:0|3:2,0:0:0:0:
244,230,83381,2,0,L|71:210,1,160,0|0,1:0|1:0,0:0:0:0:
27,151,83849,1,2,3:2:0:0:
83,82,84006,2,0,L|-8:65,2,80,2|2|2,3:2|3:2|1:2,0:0:0:0:
153,145,84474,2,0,L|237:129,1,80,2|0,3:2|1:0,0:0:0:0:
306,13,84787,2,0,B|317:53|317:53|306:103,1,80,2|0,0:0|3:0,0:0:0:0:
298,180,85099,1,0,3:0:0:0:
383,151,85256,6,0,L|469:140,1,80,6|0,0:0|3:0,0:0:0:0:
372,235,85568,2,0,L|452:261,1,80,0|0,1:0|3:0,0:0:0:0:
292,268,85881,2,0,L|309:352,2,80,2|2|2,1:2|0:2|1:2,0:0:0:0:
213,210,86349,2,0,B|196:295|196:295|174:301|174:301|118:338,2,160,4|4|4,0:0|0:0|0:0,0:0:0:0:
202,119,87131,5,6,0:0:0:0:
