osu file format v14

[General]
AudioFilename: audio.mp3
AudioLeadIn: 0
PreviewTime: 76048
Countdown: 0
SampleSet: Soft
StackLeniency: 0.6
Mode: 0
LetterboxInBreaks: 0
WidescreenStoryboard: 1

[Editor]
Bookmarks: 13378,46521,76516,94016,127169,147794,167326,177169,197169,214044,222169
DistanceSpacing: 1.1
BeatDivisor: 4
GridSize: 32
TimelineZoom: 4.499999

[Metadata]
Title:Otome no Route wa Hitotsu Janai!
TitleUnicode:乙女のルートはひとつじゃない!
Artist:angela
ArtistUnicode:angela
Creator:verychill
Version:Normal
Source:乙女ゲームの破滅フラグしかない悪役令嬢に転生してしまった…
Tags:anime opening op full version j-pop japanese pop hamefura My Next Life as a Villainess: All Routes Lead to Doom! I Reincarnated into an Otome Game With Only Destruction Flags owc 2020 SkyFlame Camo Camocratic BaAR_Vendel Silent Rock Shady -[Shady]-
BeatmapID:2411100
BeatmapSetID:1153303

[Difficulty]
HPDrainRate:3
CircleSize:2.8
OverallDifficulty:4.5
ApproachRate:5.5
SliderMultiplier:1.1
SliderTickRate:0.5

[Events]
//Background and Video events
0,0,"claes.jpg",0,0
//Break Periods
2,66873,70430
2,84372,92735
2,187526,191201
//Storyboard Layer 0 (Background)
//Storyboard Layer 1 (Fail)
//Storyboard Layer 2 (Pass)
//Storyboard Layer 3 (Foreground)
//Storyboard Layer 4 (Overlay)
//Storyboard Sound Samples

[TimingPoints]
1512,312.5,4,2,10,70,1,0
2280,312.5,4,2,10,70,1,0
2280,-125,4,2,10,70,0,0
5391,312.5,4,2,10,50,1,0
6035,312.5,4,2,10,100,1,0
11035,-111.111111111111,4,2,10,80,0,0
11347,-111.111111111111,4,2,10,100,0,0
13222,-125,4,2,10,70,0,0
13535,-125,4,2,2,70,0,0
16035,-125,4,2,2,70,0,0
21035,-111.111111111111,4,2,10,80,0,0
23222,-111.111111111111,4,2,10,50,0,0
23535,-111.111111111111,4,2,10,80,0,0
31035,-111.111111111111,4,2,10,80,0,0
32441,-111.111111111111,4,2,10,80,0,0
33535,326.086956521739,3,2,10,70,1,0
33535,-125,3,2,10,70,0,0
41279,-100,3,2,10,5,0,0
41365,312.5,4,2,10,70,1,0
41365,-125,4,2,10,70,0,0
43552,-125,4,2,99,5,0,0
43865,-125,4,2,10,70,0,0
46673,312.5,4,2,10,100,1,1
61048,-111.111111111111,4,2,10,80,0,0
71673,-125,4,2,10,70,0,0
75423,-125,4,2,10,80,0,0
76673,-100,4,2,10,100,0,1
81048,-111.111111111111,4,2,10,80,0,0
84173,-100,4,2,10,100,0,0
93860,-125,4,2,2,70,0,0
101360,-125,4,2,10,70,0,0
101673,-111.111111111111,4,2,10,80,0,0
103079,-111.111111111111,4,2,10,80,0,0
103860,-111.111111111111,4,2,10,60,0,0
104173,-111.111111111111,4,2,2,70,0,0
109173,-111.111111111111,4,2,10,70,0,0
111673,-111.111111111111,4,2,10,80,0,0
113079,-111.111111111111,4,2,10,80,0,0
114173,326.086956521739,3,2,10,70,1,0
114173,-125,3,2,10,70,0,0
121999,312.5,4,2,10,70,1,0
121999,-125,4,2,10,70,0,0
124186,-125,4,2,99,5,0,0
124499,-125,4,2,10,70,0,0
125451,312.5,3,2,10,90,1,0
127326,312.5,4,2,10,100,1,1
141701,-111.111111111111,4,2,10,80,0,0
167326,-111.111111111111,4,2,10,80,0,0
172326,-111.111111111111,4,2,10,80,0,0
177326,-100,4,2,10,90,0,1
179669,-100,4,2,10,100,0,1
182326,-100,4,2,10,80,0,0
184826,-100,4,2,10,100,0,1
187326,-125,4,2,10,70,0,0
196076,-125,4,2,10,80,0,0
197326,-100,4,2,10,100,0,1
210919,-100,4,2,10,80,0,0
211076,-111.111111111111,4,2,10,80,0,0
213576,-111.111111111111,4,2,2,50,0,0
214826,-111.111111111111,4,2,10,80,0,0
222326,-95.2380952380952,4,2,10,100,0,1
232326,-95.2380952380952,4,2,10,5,0,0

[Colours]
Combo1 : 174,223,232
Combo2 : 197,158,205
Combo3 : 220,163,219
Combo4 : 233,135,135
Combo5 : 238,181,181
Combo6 : 167,167,167
Combo7 : 206,206,206
Combo8 : 129,197,211

[HitObjects]
0,350,2280,70,0,P|47:339|90:347,1,88,2|0,0:2|0:2,0:0:0:0:
178,374,2905,2,0,P|222:381|266:370,1,88,2|2,0:2|0:2,0:0:0:0:
339,310,3530,1,2,0:2:0:0:
353,117,4155,5,2,0:2:0:0:
388,27,4467,1,2,0:2:0:0:
483,5,4780,2,0,L|513:1,2,29.3333333333333,2|2|2,0:1|0:1|0:1,0:0:0:0:
512,227,6035,6,0,B|466:249|466:249|371:247,1,110,12|8,0:2|0:2,0:0:0:0:
351,246,6503,1,0,3:2:0:0:
351,246,6660,2,0,P|296:244|241:250,1,110,10|10,0:2|0:2,0:0:0:0:
143,179,7285,6,0,P|137:152|137:124,1,55,10|0,0:2|3:2,0:0:0:0:
95,81,7597,2,0,P|68:86|40:86,1,55,10|0,0:2|3:2,0:0:0:0:
3,134,7910,2,0,P|4:188|-1:243,1,110,10|10,0:2|0:2,0:0:0:0:
70,341,8535,102,0,P|96:335|124:335,1,55,10|0,0:2|3:2,0:0:0:0:
182,350,8847,2,0,P|208:355|236:355,1,55,10|0,0:2|3:2,0:0:0:0:
293,333,9160,2,0,P|294:278|288:223,1,110,10|10,0:2|0:2,0:0:0:0:
327,108,9785,6,0,P|390:87|469:115,1,110,10|10,0:2|0:2,0:0:0:0:
480,138,10253,1,2,3:2:0:0:
480,138,10410,2,0,P|481:192|475:247,1,110,10|10,0:2|0:2,0:0:0:0:
424,344,11035,101,12,0:3:0:0:
316,326,11347,1,6,0:2:0:0:
314,221,11660,1,8,0:2:0:0:
314,221,11816,1,4,0:3:0:0:
238,142,12128,1,4,3:2:0:0:
129,142,12441,2,0,L|123:78,2,49.4999984893799,4|4|4,0:3|0:3|0:3,0:0:0:0:
89,180,12910,1,8,0:2:0:0:
47,267,13222,2,0,P|49:286|57:316,1,44,4|0,0:2|0:0,0:0:0:0:
70,356,13535,22,0,P|125:366|170:361,1,88,6|2,0:2|0:2,0:0:0:0:
204,356,14003,1,2,0:2:0:0:
273,287,14316,1,2,0:0:0:0:
269,190,14628,2,0,P|264:139|280:71,1,88,2|2,0:0|0:2,0:0:0:0:
340,34,15253,2,0,P|361:30|383:30,1,44,2|0,0:2|0:2,0:0:0:0:
460,89,15722,1,0,0:2:0:0:
440,183,16035,6,0,P|418:186|396:186,1,44,10|0,0:2|0:2,0:0:0:0:
348,187,16347,2,0,P|326:187|304:190,1,44,10|0,0:2|0:2,0:0:0:0:
257,202,16660,2,0,P|257:223|260:245,2,44,10|0|10,0:2|0:2|0:2,0:0:0:0:
215,176,17128,2,0,P|214:154|211:132,1,44,10|0,0:2|0:0,0:0:0:0:
184,39,17597,1,2,0:2:0:0:
90,13,17910,1,2,0:2:0:0:
7,66,18222,2,0,P|7:87|10:109,1,44,4|0,0:2|0:2,0:0:0:0:
21,157,18535,102,0,P|85:173|127:158,1,88,2|2,0:2|0:2,0:0:0:0:
152,157,19003,1,2,0:2:0:0:
213,82,19316,1,2,0:0:0:0:
308,97,19628,2,0,P|324:128|321:197,1,88,2|2,0:2|0:2,0:0:0:0:
282,264,20253,2,0,P|216:250|157:310,1,132,2|4,0:0|0:2,0:0:0:0:
111,379,21035,5,8,0:2:0:0:
19,320,21347,1,4,3:2:0:0:
52,216,21660,2,0,L|115:221,2,49.4999984893799,10|2|10,0:2|3:2|0:2,0:0:0:0:
20,171,22128,1,6,3:2:0:0:
80,80,22441,102,0,L|74:16,2,49.4999984893799,8|8|8,0:2|0:0|0:2,0:0:0:0:
121,116,22910,1,4,0:3:0:0:
205,47,23222,1,8,0:3:0:0:
308,82,23535,6,0,L|435:93,1,98.9999969787599,4|2,3:2|1:2,0:0:0:0:
460,96,24003,1,2,3:2:0:0:
507,194,24316,1,2,3:2:0:0:
495,302,24628,1,2,3:2:0:0:
405,364,24941,1,2,3:2:0:0:
305,318,25253,2,0,P|300:293|305:269,1,49.4999984893799,2|2,3:2|1:2,0:0:0:0:
312,160,25722,1,0,1:2:0:0:
265,61,26035,102,0,P|240:56|216:61,1,49.4999984893799,2|0,1:2|3:2,0:0:0:0:
166,82,26347,2,0,P|141:86|117:81,1,49.4999984893799,2|0,1:2|3:2,0:0:0:0:
71,51,26660,2,0,P|75:26|70:2,2,49.4999984893799,2|0|2,1:2|3:2|1:2,0:0:0:0:
28,84,27128,2,0,P|23:108|28:132,1,49.4999984893799,2|2,3:2|1:2,0:0:0:0:
100,214,27597,1,0,1:2:0:0:
198,167,27910,1,0,1:2:0:0:
277,240,28222,2,0,P|281:264|276:288,1,49.4999984893799,2|0,1:2|0:2,0:0:0:0:
257,339,28535,6,0,L|129:350,1,98.9999969787599,6|10,3:2|0:2,0:0:0:0:
104,353,29003,1,2,3:2:0:0:
1,316,29316,1,2,3:2:0:0:
11,208,29628,2,0,L|138:196,1,98.9999969787599,2|2,3:2|3:2,0:0:0:0:
218,191,30253,2,0,B|284:187|298:259|378:239,1,148.49999546814,2|2,3:2|1:1,0:0:0:0:
462,230,31035,101,10,0:2:0:0:
482,123,31347,2,0,L|488:60,1,49.4999984893799,10|0,0:0|3:2,0:0:0:0:
438,48,31660,2,0,L|432:-15,2,49.4999984893799,10|0|10,0:0|3:2|0:2,0:0:0:0:
401,88,32128,1,4,3:2:0:0:
367,191,32441,6,0,L|303:196,2,49.4999984893799,8|8|4,0:2|0:2|0:3,0:0:0:0:
396,236,32910,2,0,L|459:230,2,49.4999984893799,8|4|4,0:3|0:3|0:3,0:0:0:0:
328,300,33535,38,0,P|245:325|211:317,1,88,4|0,3:2|0:0,0:0:0:0:
151,312,34187,1,0,2:2:0:0:
89,239,34513,2,0,P|94:159|174:161,1,176,2|0,0:1|0:2,0:0:0:0:
235,237,35491,5,2,0:2:0:0:
299,165,35817,2,0,L|362:170,2,44,2|2|2,0:2|0:2|0:2,0:0:0:0:
241,87,36469,2,0,P|184:53|121:47,2,88,2|0|0,2:2|0:0|2:2,0:0:0:0:
337,75,37448,102,0,P|395:60|459:74,1,88,2|0,0:1|0:0,0:0:0:0:
509,104,38100,1,0,0:2:0:0:
442,174,38426,2,0,P|384:189|320:175,1,88,2|0,0:1|0:0,0:0:0:0:
262,209,39078,1,0,0:0:0:0:
261,305,39404,5,2,0:0:0:0:
351,340,39730,2,0,L|345:403,2,44,2|2|2,0:0|0:0|0:0,0:0:0:0:
429,281,40382,2,2,P|435:197|374:137,1,176,2|0,0:0|0:0,0:2:0:0:
278,144,41365,101,2,0:0:0:0:
182,151,41677,1,2,0:0:0:0:
85,160,41990,1,2,0:0:0:0:
71,255,42302,2,0,L|436:287,1,352,2|0,0:2|0:2,0:0:0:0:
480,208,43865,5,2,0:2:0:0:
473,112,44177,1,2,0:2:0:0:
464,15,44490,1,2,0:2:0:0:
369,1,44802,2,0,L|348:231,1,220,2|8,0:2|0:3,0:0:0:0:
421,286,45896,102,0,L|475:281,2,44,4|4|0,0:3|0:3|3:3,0:0:0:0:
386,320,46365,1,12,0:2:0:0:
274,352,46673,85,4,3:2:0:0:
274,352,46829,2,0,P|228:322|174:316,1,110,2|2,0:2|0:2,0:0:0:0:
115,330,47298,2,0,P|114:369|104:392,2,55,2|2|10,0:2|3:2|0:2,0:0:0:0:
80,280,47766,1,2,3:2:0:0:
88,159,48079,2,0,P|49:160|26:170,2,55,2|10|2,3:2|0:2|0:2,0:0:0:0:
151,174,48548,1,2,0:2:0:0:
151,174,48704,2,0,P|190:173|213:163,1,55,2|8,3:2|0:2,0:0:0:0:
308,104,49173,6,0,P|327:177|290:244,1,110,2|10,3:2|0:2,0:0:0:0:
283,258,49641,2,0,P|264:331|301:398,2,110,2|2|2,0:2|3:2|3:2,0:0:0:0:
343,264,50423,2,0,B|420:297|420:297|474:236,1,165,2|0,3:2|3:2,0:0:0:0:
512,188,51048,1,2,0:2:0:0:
464,76,51360,1,8,0:2:0:0:
344,53,51673,102,0,L|338:-10,2,55,6|2|10,3:2|0:2|0:2,0:0:0:0:
320,108,52141,2,0,B|248:137|227:73|161:90,1,165,2|8,0:2|0:2,0:0:0:0:
46,57,52923,6,0,L|51:-6,2,55,2|2|10,3:2|0:2|0:2,0:0:0:0:
38,118,53391,2,0,B|34:159|1:191|1:191|32:226|29:265,1,165,2|8,3:2|0:2,0:0:0:0:
25,329,54016,1,2,3:2:0:0:
25,329,54173,101,14,0:2:0:0:
140,381,54485,1,10,0:2:0:0:
140,381,54641,1,2,3:2:0:0:
240,312,54954,1,2,3:2:0:0:
275,196,55266,6,2,P|236:159|114:175,1,165,4|10,3:2|0:1,0:1:0:0:
56,258,56048,2,2,P|82:311|146:353,1,110,4|8,0:3|0:2,0:1:0:0:
240,312,56673,101,4,3:2:0:0:
240,312,56829,2,0,P|290:290|344:294,1,110,2|2,0:2|0:2,0:0:0:0:
393,330,57298,2,0,P|392:369|382:392,2,55,2|4|10,0:2|3:3|0:2,0:0:0:0:
440,293,57766,1,6,3:2:0:0:
505,190,58079,1,2,3:2:0:0:
467,80,58391,1,2,0:2:0:0:
467,80,58548,2,0,P|468:41|478:18,2,55,2|2|8,0:2|3:2|0:2,0:0:0:0:
415,106,59016,1,0,3:2:0:0:
415,106,59173,5,14,0:2:0:0:
306,65,59485,1,0,3:2:0:0:
306,65,59641,1,8,0:2:0:0:
193,111,59954,1,10,0:2:0:0:
80,68,60266,2,0,B|36:138|36:138|43:227,1,165,10|4,0:2|0:3,0:0:0:0:
58,328,61048,101,8,0:3:0:0:
155,376,61360,1,4,0:3:0:0:
256,332,61673,2,0,P|264:283|250:236,1,98.9999969787599,6|0,3:2|0:2,0:0:0:0:
223,189,62141,2,0,P|208:142|218:90,1,98.9999969787599,2|0,3:2|0:0,0:0:0:0:
306,30,62766,5,0,1:2:0:0:
306,30,62923,2,0,L|435:41,1,98.9999969787599,2|0,3:2|0:2,0:0:0:0:
458,45,63391,1,2,3:2:0:0:
499,146,63704,1,2,1:2:0:0:
436,234,64016,2,0,L|386:230,1,49.4999984893799,2|4,3:2|1:2,0:0:0:0:
256,192,64329,12,4,66673,0:2:0:0:
375,367,71673,69,4,3:2:0:0:
353,272,71985,1,0,1:0:0:0:
421,203,72298,2,0,L|485:208,2,44,2|0|0,3:1|3:2|1:0,0:0:0:0:
363,125,72923,5,2,3:1:0:0:
270,95,73235,1,2,1:1:0:0:
175,116,73548,1,2,3:1:0:0:
126,199,73860,2,0,P|124:228|133:276,1,44,2|4,1:2|0:3,0:0:0:0:
148,285,74173,102,0,P|177:281|226:286,2,44,2|0|0,3:1|0:2|1:2,0:0:0:0:
64,330,74798,1,2,1:1:0:0:
64,330,74954,2,0,P|68:359|63:408,2,44,2|0|0,3:2|1:2|3:2,0:0:0:0:
38,288,75423,6,0,L|43:175,1,88,8|8,0:2|0:2,0:0:0:0:
7,109,76048,2,0,P|63:103|105:125,1,88,8|4,0:0|0:3,0:0:0:0:
205,168,76673,5,12,0:2:0:0:
205,168,76829,2,0,B|245:183|245:183|344:167,1,110,2|2,0:2|3:2,0:0:0:0:
367,166,77298,2,0,P|369:206|387:244,2,55,10|2|10,0:2|3:2|0:2,0:0:0:0:
379,107,77766,1,2,3:2:0:0:
290,24,78079,1,2,3:2:0:0:
170,27,78391,1,2,3:2:0:0:
174,31,78548,2,0,P|170:87|181:125,2,55,10|2|10,0:2|3:2|0:0,0:0:0:0:
123,0,79016,1,2,3:2:0:0:
127,3,79173,5,14,0:2:0:0:
43,90,79485,1,2,3:2:0:0:
47,94,79641,1,12,0:2:0:0:
120,190,79954,1,8,0:2:0:0:
232,145,80266,2,2,B|301:100|301:100|379:126,1,165,12|8,0:2|0:2,0:1:0:0:
421,227,81048,101,4,0:3:0:0:
333,291,81360,1,8,0:3:0:0:
234,243,81673,2,0,P|228:195|231:145,1,98.9999969787599,6|0,3:2|0:2,0:0:0:0:
192,106,82141,2,0,P|138:114|67:106,1,98.9999969787599,2|0,3:2|0:0,0:0:0:0:
13,184,82766,5,0,1:2:0:0:
17,188,82923,2,0,L|28:317,1,98.9999969787599,2|0,3:2|0:2,0:0:0:0:
32,340,83391,1,2,3:2:0:0:
133,381,83704,1,2,1:2:0:0:
198,293,84016,2,0,L|194:243,1,49.4999984893799,2|12,3:2|0:0,0:0:0:0:
7,179,93860,86,0,L|2:120,1,44,2|2,0:2|0:2,0:0:0:0:
0,87,94173,102,0,L|113:77,1,88,6|10,3:2|0:2,0:0:0:0:
136,74,94641,1,2,0:2:0:0:
223,117,94954,2,0,P|233:64|201:0,2,88,2|2|10,3:2|0:0|0:2,0:0:0:0:
201,211,95891,2,0,P|201:233|205:254,1,44,2|2,3:2|0:2,0:0:0:0:
295,289,96360,1,8,0:2:0:0:
379,240,96673,6,0,P|382:218|382:196,1,44,10|0,3:2|0:2,0:0:0:0:
384,148,96985,2,0,P|384:126|387:104,1,44,10|0,0:2|0:2,0:0:0:0:
380,56,97298,2,0,P|358:55|336:52,1,44,10|0,0:2|3:2,0:0:0:0:
292,72,97610,2,0,P|291:93|288:115,2,44,10|2|0,0:2|0:0|3:0,0:0:0:0:
195,58,98235,2,0,P|191:79|190:101,1,44,8|2,0:2|3:2,0:0:0:0:
170,200,98704,1,2,3:2:0:0:
170,200,98860,2,0,L|233:194,1,44,10|0,0:2|0:2,0:0:0:0:
261,204,99173,102,0,P|274:256|262:311,1,88,6|0,3:2|1:0,0:0:0:0:
255,335,99641,2,0,L|137:340,1,88,2|2,0:2|3:2,0:0:0:0:
72,360,100266,2,0,P|60:309|66:273,1,88,2|2,0:2|0:0,0:0:0:0:
39,181,100891,2,0,B|84:158|118:215|182:186,1,132,2|2,3:2|1:1,0:0:0:0:
276,177,101673,5,4,3:2:0:0:
367,236,101985,1,8,0:2:0:0:
474,207,102298,2,0,L|469:155,2,49.4999984893799,8|0|8,0:2|3:2|0:2,0:0:0:0:
512,246,102767,1,4,0:2:0:0:
445,333,103079,102,0,L|450:385,2,49.4999984893799,8|8|0,0:2|0:2|3:2,0:0:0:0:
407,293,103548,1,4,0:3:0:0:
301,315,103860,2,0,L|249:310,1,49.4999984893799,10|10,0:2|0:2,0:0:0:0:
198,299,104173,6,0,B|186:171,1,98.9999969787599,6|10,3:2|0:2,0:0:0:0:
182,146,104641,1,2,3:2:0:0:
84,96,104954,1,2,3:2:0:0:
10,175,105266,2,0,P|1:236|28:292,1,98.9999969787599,2|10,3:2|0:2,0:0:0:0:
99,335,105891,2,0,P|159:343|215:316,1,98.9999969787599,2|0,3:2|3:2,0:0:0:0:
242,304,106360,1,8,0:2:0:0:
329,237,106673,102,0,P|332:215|330:182,1,49.4999984893799,10|0,3:2|0:2,0:0:0:0:
372,153,106985,2,0,P|394:156|427:154,1,49.4999984893799,10|0,0:2|0:2,0:0:0:0:
468,183,107298,2,0,P|465:205|467:238,2,49.4999984893799,10|0|10,0:2|0:2|0:2,0:0:0:0:
512,151,107766,2,0,P|509:129|511:96,1,49.4999984893799,2|0,3:2|3:2,0:0:0:0:
416,46,108235,2,0,P|394:42|361:44,1,49.4999984893799,8|2,0:2|3:2,0:0:0:0:
301,133,108704,1,2,3:2:0:0:
301,133,108860,2,0,L|292:229,1,49.4999984893799,10|0,0:2|0:2,0:0:0:0:
291,236,109173,6,0,L|163:247,1,98.9999969787599,6|0,3:2|1:2,0:0:0:0:
138,254,109641,1,2,3:2:0:0:
161,360,109954,2,0,P|185:359|210:362,1,49.4999984893799,2|0,3:2|1:2,0:0:0:0:
264,365,110266,1,2,3:2:0:0:
372,378,110579,1,2,3:2:0:0:
470,331,110891,2,0,B|444:269|506:231|461:163,1,148.49999546814,2|2,3:2|1:1,0:0:0:0:
414,92,111673,101,14,0:2:0:0:
305,79,111985,2,0,L|301:128,1,49.4999984893799,10|0,0:2|3:2,0:0:0:0:
259,164,112298,2,0,L|264:227,2,49.4999984893799,10|0|10,0:2|3:2|0:2,0:0:0:0:
218,128,112766,1,6,3:2:0:0:
115,164,113079,6,0,L|110:228,2,49.4999984893799,8|8|8,0:2|0:2|0:2,0:0:0:0:
86,117,113548,2,0,L|92:54,2,49.4999984893799,8|8|4,0:2|0:3|0:3,0:0:0:0:
25,187,114173,38,0,P|25:227|46:274,1,88,2|0,3:1|0:0,0:0:0:0:
105,344,114825,1,0,0:2:0:0:
196,317,115151,2,0,P|251:260|197:201,1,176,2|0,0:1|0:2,0:0:0:0:
110,155,116129,5,2,0:2:0:0:
178,87,116455,2,0,L|173:24,2,44,2|0|2,0:2|0:0|0:2,0:0:0:0:
264,130,117107,2,0,P|321:96|384:90,2,88,2|0|0,0:2|0:2|0:2,0:0:0:0:
196,200,118086,102,0,P|181:258|195:322,1,88,2|0,0:1|0:0,0:0:0:0:
218,375,118738,1,0,0:2:0:0:
292,312,119064,2,0,P|307:254|293:190,1,88,2|0,0:1|0:0,0:0:0:0:
268,136,119716,1,0,0:0:0:0:
173,154,120042,6,0,L|167:217,1,44,2|0,0:0|0:0,0:0:0:0:
162,245,120368,1,2,0:0:0:0:
76,290,120694,1,2,0:0:0:0:
8,220,121020,2,2,P|15:146|108:94,1,176,2|0,0:0|0:0,0:2:0:0:
173,154,121999,101,2,0:2:0:0:
180,250,122311,1,2,0:2:0:0:
189,347,122624,1,2,0:2:0:0:
284,361,122936,2,0,L|316:-4,1,352,2|0,0:2|0:2,0:0:0:0:
219,0,124499,5,2,0:2:0:0:
123,7,124811,1,2,0:2:0:0:
26,16,125124,1,2,0:2:0:0:
12,111,125451,6,0,L|126:121,1,110,8|8,0:1|0:2,0:0:0:0:
179,152,125919,1,0,3:2:0:0:
179,152,126076,2,0,L|293:162,1,110,8|8,0:2|0:1,0:0:0:0:
336,50,126701,2,0,P|391:33|450:39,1,110,8|8,0:3|0:2,0:0:0:0:
499,150,127326,53,4,3:2:0:0:
499,150,127482,2,0,P|503:226|473:295,1,110,2|2,0:2|0:2,0:0:0:0:
458,307,127951,2,0,P|458:343|474:391,2,55,2|2|10,0:2|3:2|0:2,0:0:0:0:
406,275,128419,2,0,P|330:271|261:301,1,110,2|2,3:2|0:2,0:0:0:0:
182,315,129044,2,0,P|128:326|74:320,1,110,2|2,0:2|3:2,0:0:0:0:
18,295,129513,1,8,0:2:0:0:
41,176,129826,6,0,L|200:162,1,110,2|10,3:2|0:1,0:0:0:0:
204,190,130294,2,0,L|267:280,2,110,2|2|2,0:2|3:2|3:2,0:0:0:0:
199,131,131076,2,0,P|224:81|371:76,1,165,2|0,3:2|3:2,0:0:0:0:
383,61,131701,1,2,0:2:0:0:
436,169,132013,1,8,0:2:0:0:
424,289,132326,102,0,L|487:295,2,55,6|2|10,3:2|0:2|0:2,0:0:0:0:
363,282,132794,2,0,B|296:266|285:326|177:300,1,165,2|8,0:2|0:0,0:0:0:0:
84,329,133576,6,0,L|89:392,2,55,2|2|10,3:2|0:2|0:2,0:0:0:0:
76,268,134044,2,0,B|72:227|39:195|39:195|70:160|67:121,1,165,2|8,3:2|0:2,0:0:0:0:
104,73,134669,1,0,3:2:0:0:
108,77,134826,101,14,0:2:0:0:
214,134,135138,1,10,0:2:0:0:
218,138,135294,1,2,3:2:0:0:
326,84,135607,1,2,3:2:0:0:
432,141,135919,6,0,P|447:203|393:296,1,165,6|2,3:2|0:1,0:0:0:0:
303,360,136701,1,4,0:3:0:0:
183,345,137013,1,4,0:3:0:0:
105,251,137326,101,4,3:2:0:0:
105,251,137482,2,0,B|116:123,1,110,2|2,0:2|0:2,0:0:0:0:
92,84,137951,2,0,P|62:82|9:91,2,55,2|2|10,0:2|3:2|0:2,0:0:0:0:
143,51,138419,1,4,3:2:0:0:
263,41,138732,2,0,P|290:43|317:41,1,55,2|8,3:2|0:2,0:0:0:0:
365,78,139044,2,0,B|376:205,2,110,2|2|2,0:2|3:2|3:2,0:0:0:0:
405,32,139826,5,14,0:2:0:0:
508,90,140138,1,0,3:2:0:0:
512,94,140294,1,10,0:2:0:0:
459,203,140607,1,10,0:2:0:0:
512,310,140919,2,2,B|441:353|441:353|352:346,1,165,14|8,0:2|0:3,0:1:0:0:
252,323,141701,101,8,0:2:0:0:
291,221,142013,1,4,0:3:0:0:
239,124,142326,2,0,P|190:111|142:121,1,98.9999969787599,6|0,3:2|0:0,0:0:0:0:
99,153,142794,2,0,P|79:198|85:251,1,98.9999969787599,2|0,3:2|0:0,0:0:0:0:
171,312,143419,5,0,1:2:0:0:
175,316,143576,2,0,L|304:305,1,98.9999969787599,2|0,3:2|1:2,0:0:0:0:
327,300,144044,1,2,3:2:0:0:
423,352,144357,1,2,3:2:0:0:
512,289,144669,2,0,L|507:235,1,49.4999984893799,2|4,3:2|1:2,0:0:0:0:
256,192,144982,12,4,147326,3:2:0:0:
260,354,147951,70,0,L|248:226,1,98.9999969787599,2|0,3:2|1:2,0:0:0:0:
183,169,148576,2,0,P|134:172|94:200,1,98.9999969787599,2|0,3:2|1:1,0:0:0:0:
61,304,149201,2,0,L|188:315,1,98.9999969787599,2|0,3:2|1:2,0:0:0:0:
250,255,149826,5,6,3:2:0:0:
356,278,150138,1,2,1:2:0:0:
461,247,150451,2,0,P|476:199|482:150,1,98.9999969787599,2|2,3:2|1:2,0:0:0:0:
485,96,150919,2,0,P|491:46|506:0,2,98.9999969787599,2|2|2,3:2|0:2|3:2,0:0:0:0:
439,127,151701,1,2,0:2:0:0:
353,194,152013,1,2,1:2:0:0:
260,139,152326,2,0,P|212:124|163:118,1,98.9999969787599,4|0,3:2|1:2,0:0:0:0:
102,208,152951,102,0,B|90:236|90:236|110:324,1,98.9999969787599,2|0,3:2|1:2,0:0:0:0:
194,365,153576,2,0,P|242:361|282:333,1,98.9999969787599,2|0,3:2|1:2,0:0:0:0:
307,226,154201,2,0,L|179:214,1,98.9999969787599,2|0,0:2|1:2,0:0:0:0:
102,208,154826,6,0,L|52:203,1,49.4999984893799,4|0,3:2|0:0,0:0:0:0:
5,200,155138,1,0,1:2:0:0:
5,90,155451,2,0,P|52:76|101:72,1,98.9999969787599,2|2,3:2|1:2,0:0:0:0:
135,115,155919,2,0,P|122:162|101:207,2,98.9999969787599,2|2|2,3:2|0:2|3:2,0:0:0:0:
156,64,156701,1,2,3:2:0:0:
250,10,157013,1,8,0:3:0:0:
347,59,157326,2,0,P|357:102|354:183,1,98.9999969787599,4|0,3:2|1:1,0:0:0:0:
300,249,157951,102,0,L|172:237,1,98.9999969787599,2|0,3:2|1:2,0:0:0:0:
115,172,158576,2,0,P|118:123|146:83,1,98.9999969787599,2|0,3:2|1:2,0:0:0:0:
250,50,159201,2,0,L|261:177,1,98.9999969787599,2|0,0:2|1:2,0:0:0:0:
201,239,159826,5,6,3:2:0:0:
210,347,160138,1,2,1:2:0:0:
312,383,160451,2,0,P|347:348|376:308,1,98.9999969787599,2|0,3:2|1:2,0:0:0:0:
415,271,160919,2,0,P|464:275|511:289,2,98.9999969787599,2|2|2,3:2|0:2|3:2,0:0:0:0:
362,256,161701,1,2,0:2:0:0:
405,156,162013,1,2,1:2:0:0:
307,106,162326,2,0,P|292:153|286:202,1,98.9999969787599,4|0,3:2|1:2,0:0:0:0:
189,252,162951,102,0,B|161:264|161:264|73:244,1,98.9999969787599,2|0,3:2|1:2,0:0:0:0:
30,160,163576,2,0,P|33:111|61:71,1,98.9999969787599,2|0,3:2|1:2,0:0:0:0:
169,45,164201,2,0,L|180:172,1,98.9999969787599,2|0,0:2|1:2,0:0:0:0:
189,252,164826,6,0,L|193:301,1,49.4999984893799,14|0,0:2|0:0,0:0:0:0:
197,355,165138,1,10,0:2:0:0:
90,366,165451,2,0,P|76:318|72:269,1,98.9999969787599,10|10,0:2|0:2,0:0:0:0:
55,217,165919,2,0,P|27:175|8:130,2,98.9999969787599,4|8|8,3:2|0:2|0:3,0:0:0:0:
109,227,166701,1,0,3:2:0:0:
177,143,167013,1,0,3:2:0:0:
254,219,167326,70,0,B|288:229|288:229|331:230|361:229,1,98.9999969787599,4|8,3:2|0:2,0:2:0:0:
459,195,167951,1,2,3:2:0:0:
459,195,168107,1,2,3:2:0:0:
397,104,168419,2,8,B|397:61|412:44|412:44|408:8,2,98.9999969787599,2|10|10,3:2|0:0|0:0,0:0:0:0:
361,147,169201,2,0,P|312:140|302:137,2,49.4999984893799,2|2|8,0:2|3:2|0:2,0:2:0:0:
459,195,169826,6,0,P|507:189|517:189,2,49.4999984893799,2|0|8,3:2|0:2|0:2,0:2:0:0:
425,237,170294,1,2,0:0:0:0:
366,328,170607,1,2,3:2:0:0:
260,301,170919,1,2,0:2:0:0:
264,305,171076,2,0,B|264:267|264:267|260:237|260:237|273:216|265:190,1,98.9999969787599,2|8,3:2|0:2,0:2:0:0:
276,154,171544,1,2,3:2:0:0:
184,94,171857,2,8,B|170:92|170:92|158:97|147:93|147:93|136:88|132:92|118:98,1,49.4999984893799,2|8,3:2|0:2,0:2:0:0:
52,161,172326,102,8,B|46:235|46:235|56:269,1,98.9999969787599,4|8,3:2|0:2,0:2:0:0:
80,305,172794,2,8,B|131:350|131:350|161:357,1,98.9999969787599,2|0,0:2|3:2,0:2:0:0:
214,370,173263,1,8,0:0:0:0:
286,290,173576,2,0,P|305:294|342:292,2,49.4999984893799,2|0|8,3:2|0:2|0:2,0:2:0:0:
257,244,174044,2,0,B|255:220|255:220|275:190|259:132,1,98.9999969787599,2|2,3:2|3:2,0:2:0:0:
248,94,174513,2,0,P|244:75|246:38,1,49.4999984893799,10|0,0:2|3:2,0:2:0:0:
256,192,174826,12,8,176701,0:0:0:0:
385,117,177326,5,6,3:2:0:0:
282,53,177638,1,8,0:2:0:0:
164,83,177951,2,0,P|164:43|155:16,2,55,2|0|10,3:2|3:2|0:1,0:0:0:0:
127,131,178419,2,0,B|124:187|124:187|155:230,1,110,2|0,3:2|3:2,0:0:0:0:
208,260,178888,2,8,B|224:206|224:206|268:175,1,110,10|8,0:2|3:2,0:0:0:0:
328,166,179357,2,0,B|349:186|352:216|352:216|340:240|340:240|347:268,1,110,2|2,3:2|3:0,0:0:0:0:
369,321,179826,102,2,B|408:328|444:315|444:315|454:271|476:275|493:244|482:232,1,165,12|4,0:1|0:2,0:1:0:0:
454,121,180607,1,10,0:2:0:0:
342,77,180919,6,2,P|274:69|202:107,1,110,12|2,0:2|3:2,0:1:0:0:
185,114,181388,2,2,P|147:152|128:203,1,110,10|10,0:2|3:2,0:1:0:0:
115,324,182013,1,8,0:2:0:0:
13,259,182326,102,0,B|4:235|4:235|25:198|12:120,1,110,2|0,3:2|0:1,0:0:0:0:
8,96,182794,1,2,3:2:0:0:
8,96,182951,2,0,P|43:88|78:93,1,55,8|0,0:2|3:2,0:0:0:0:
179,105,183419,1,8,0:2:0:0:
179,105,183576,2,0,B|228:137|164:178|189:224,1,110,2|0,3:2|0:2,0:0:0:0:
188,269,184044,1,0,3:2:0:0:
188,269,184201,2,0,B|233:298|264:276|279:289|279:289|295:306|331:284|390:322,1,165,12|4,0:2|0:3,0:0:0:0:
406,313,184826,5,12,0:2:0:0:
483,221,185138,1,2,3:2:0:0:
483,221,185294,1,12,0:0:0:0:
410,131,185607,1,2,3:2:0:0:
410,131,185763,2,0,B|439:96|423:69|458:57|458:57|465:95,1,110,12|0,0:0|3:0,0:0:0:0:
256,192,186232,12,4,187326,0:2:0:0:
83,341,192326,5,6,3:2:0:0:
171,381,192638,1,0,1:0:0:0:
261,346,192951,2,0,L|266:282,2,44,2|0|0,3:1|3:2|1:0,0:0:0:0:
351,381,193576,5,2,3:1:0:0:
420,314,193888,1,2,1:1:0:0:
432,217,194201,1,2,3:1:0:0:
352,162,194513,2,0,P|330:161|308:157,1,44,0|4,1:0|0:3,0:0:0:0:
279,119,194826,102,0,P|250:115|201:120,2,44,2|8|0,3:1|0:3|1:2,0:0:0:0:
350,53,195451,1,2,0:1:0:0:
350,53,195607,2,0,P|371:52|393:48,2,44,0|0|0,3:0|1:2|3:2,0:0:0:0:
309,27,196076,6,0,L|196:32,1,88,8|8,0:2|0:2,0:0:0:0:
125,22,196701,2,0,P|135:76|173:115,1,88,8|8,0:0|0:0,0:0:0:0:
232,194,197326,5,4,3:2:0:0:
232,194,197482,2,0,P|278:164|332:158,1,110,2|2,0:2|0:2,0:0:0:0:
391,172,197951,2,0,P|392:211|402:234,2,55,2|2|10,3:2|3:2|0:2,0:0:0:0:
426,122,198419,1,2,3:1:0:0:
418,8,198732,2,0,P|457:9|480:19,2,55,2|10|2,3:2|0:2|0:2,0:0:0:0:
355,16,199201,1,2,0:2:0:0:
355,16,199357,2,0,P|316:15|293:5,1,55,2|8,3:2|0:0,0:0:0:0:
202,77,199826,6,0,P|183:150|220:217,1,110,2|10,3:2|0:2,0:0:0:0:
228,232,200294,2,0,P|247:305|210:372,2,110,2|2|2,0:2|3:2|3:2,0:0:0:0:
167,238,201076,2,0,B|90:271|90:271|35:210,1,165,2|0,3:2|3:2,0:0:0:0:
0,161,201701,1,2,0:2:0:0:
73,65,202013,1,8,0:2:0:0:
188,100,202326,102,0,L|194:163,2,55,6|2|10,3:2|0:2|0:2,0:0:0:0:
229,56,202794,2,0,B|302:78|317:13|384:24,1,165,2|10,0:2|0:2,0:0:0:0:
431,137,203576,6,0,L|494:132,2,55,2|2|10,3:2|0:2|0:2,0:0:0:0:
396,186,204044,2,0,B|355:190|323:223|323:223|288:192|248:195,1,165,2|8,3:2|0:2,0:0:0:0:
188,199,204669,1,2,3:2:0:0:
192,203,204826,101,14,0:2:0:0:
113,294,205138,1,10,0:2:0:0:
117,298,205294,1,2,3:2:0:0:
204,382,205607,1,2,3:2:0:0:
326,369,205919,6,0,P|366:333|360:210,1,165,4|10,3:2|0:1,0:0:0:0:
282,145,206701,2,0,P|226:166|179:226,1,110,8|4,0:3|0:3,0:0:0:0:
117,298,207326,101,4,3:2:0:0:
117,298,207482,2,0,P|81:256|69:203,1,110,2|2,0:2|0:2,0:0:0:0:
54,144,207951,2,0,P|15:145|-7:155,2,55,4|4|8,0:3|3:3|0:2,0:0:0:0:
107,115,208419,1,6,3:2:0:0:
191,202,208732,1,2,3:2:0:0:
301,152,209044,1,8,0:3:0:0:
305,156,209201,2,0,P|306:117|316:94,2,55,4|8|10,3:3|0:3|0:2,0:0:0:0:
329,211,209669,1,0,3:2:0:0:
333,215,209826,5,6,3:2:0:0:
453,214,210138,1,2,0:2:0:0:
457,218,210294,1,4,0:3:0:0:
502,105,210607,1,8,0:3:0:0:
408,28,210919,1,6,3:2:0:0:
256,192,211076,12,4,213576,0:2:0:0:
249,331,214826,102,0,P|241:282|255:235,1,98.9999969787599,6|0,3:2|0:2,0:0:0:0:
282,188,215294,2,0,P|297:141|287:89,1,98.9999969787599,2|0,3:2|3:0,0:0:0:0:
202,26,215919,5,0,1:2:0:0:
206,30,216076,2,0,L|77:41,1,98.9999969787599,2|0,3:2|0:2,0:0:0:0:
54,45,216544,1,2,3:2:0:0:
13,146,216857,1,2,1:2:0:0:
76,234,217169,2,0,L|125:230,1,49.4999984893799,2|4,3:2|1:2,0:0:0:0:
256,192,217482,12,2,218576,3:2:0:0:
169,110,219201,101,8,0:2:0:0:
228,203,219513,1,8,0:2:0:0:
332,171,219826,2,0,P|338:123|335:73,1,98.9999969787599,4|2,3:2|0:2,0:0:0:0:
368,31,220294,1,2,3:2:0:0:
368,31,220451,2,0,P|399:37|434:32,1,49.4999984893799,2|0,1:1|0:0,0:0:0:0:
492,113,220919,5,2,1:2:0:0:
496,117,221076,2,0,L|485:246,1,98.9999969787599,6|2,3:2|0:0,0:0:0:0:
480,269,221544,1,2,3:2:0:0:
393,334,221857,2,0,L|387:403,2,49.4999984893799,2|8|8,3:2|0:2|0:2,0:0:0:0:
362,281,222326,38,0,B|329:261|329:261|226:271,1,115.49999647522,4|10,3:2|0:2,0:0:0:0:
189,379,222951,2,0,L|111:385,1,57.7499982376099,10|0,0:0|3:2,0:0:0:0:
82,343,223263,2,0,L|75:265,1,57.7499982376099,10|0,0:2|3:2,0:0:0:0:
75,221,223576,1,10,0:1:0:0:
154,122,223888,1,10,0:1:0:0:
253,211,224201,1,10,0:1:0:0:
253,211,224357,2,0,P|254:244|246:288,2,57.7499982376099,2|10|2,3:2|0:2|3:2,0:0:0:0:
274,150,224826,6,0,P|330:129|402:142,1,115.49999647522,12|8,0:2|0:2,0:0:0:0:
442,159,225294,1,2,3:2:0:0:
430,284,225607,2,0,L|507:290,2,57.7499982376099,2|10|2,3:2|0:2|3:2,0:0:0:0:
366,278,226076,2,0,L|238:266,1,115.49999647522,10|8,0:1|0:2,0:0:0:0:
137,323,226701,1,12,0:2:0:0:
137,323,226857,2,0,P|139:352|136:381,2,57.7499982376099,2|10|2,3:2|0:2|3:2,0:0:0:0:
100,273,227326,102,0,P|89:214|114:145,1,115.49999647522,12|8,0:2|0:2,0:0:0:0:
140,110,227794,1,2,3:2:0:0:
265,88,228107,2,0,L|271:10,2,57.7499982376099,2|10|2,3:2|0:2|3:2,0:0:0:0:
259,152,228576,1,10,0:2:0:0:
341,249,228888,2,0,P|377:258|418:255,1,57.7499982376099,10|0,0:1|3:2,0:0:0:0:
441,304,229201,2,0,P|432:339|434:381,2,57.7499982376099,10|2|10,0:1|3:2|0:2,0:0:0:0:
489,262,229669,6,2,P|504:187|470:83,1,173.24999471283,2|8,3:2|0:2,0:1:0:0:
434,49,230294,1,2,3:2:0:0:
306,56,230607,2,0,L|228:62,1,57.7499982376099,4|8,0:3|0:3,0:0:0:0:
185,67,230919,102,0,B|169:108|169:108|192:199,1,115.49999647522,6|2,3:1|0:3,0:0:0:0:
229,302,231545,1,10,0:2:0:0:
229,302,231701,2,2,B|192:313|158:292|158:292|136:330|89:342|24:319|44:283|60:270|78:279|80:296,1,230.99999295044,12|0,0:2|0:2,0:1:0:0:
