osu file format v14

[General]
AudioFilename: audio.mp3
AudioLeadIn: 0
PreviewTime: 45218
Countdown: 0
SampleSet: Normal
StackLeniency: 0.3
Mode: 1
LetterboxInBreaks: 0
WidescreenStoryboard: 1

[Editor]
Bookmarks: 32080
DistanceSpacing: 1.5
BeatDivisor: 4
GridSize: 4
TimelineZoom: 2.3

[Metadata]
Title:Otome no Route wa Hitotsu Janai! (TV Size)
TitleUnicode:乙女のルートはひとつじゃない!(TV Size)
Artist:angela
ArtistUnicode:angela
Creator:kanpakyin
Version:Muzukashii
Source:乙女ゲームの破滅フラグしかない悪役令嬢に転生してしまった…
Tags:My Next Life as a Villainess: All Routes Lead to Doom! Hamefura Otome Game no Hametsu Flag shika Nai Akuyaku Reijou ni Tensei shiteshimatta... anime op opening japanese Faputa Uta bakarina
BeatmapID:2433015
BeatmapSetID:1161770

[Difficulty]
HPDrainRate:6
CircleSize:4.5
OverallDifficulty:5
ApproachRate:8
SliderMultiplier:1.4
SliderTickRate:1

[Events]
//Background and Video events
Video,120,"video.mp4",0,120
0,0,"bg2.jpg",0,30
//Break Periods
//Storyboard Layer 0 (Background)
//Storyboard Layer 1 (Fail)
//Storyboard Layer 2 (Pass)
//Storyboard Layer 3 (Foreground)
//Storyboard Layer 4 (Overlay)
//Storyboard Sound Samples

[TimingPoints]
830,312.5,4,1,0,55,1,0
4580,-100,4,1,0,75,0,0
12080,-100,4,1,0,70,0,0
22080,-100,4,1,0,75,0,0
32080,326.086956521739,3,1,0,55,1,0
39906,312.5,4,1,0,60,1,0
44124,-100,4,1,0,70,0,0
44906,312.5,4,1,0,70,1,8
45218,312.5,4,1,0,80,1,0
45218,-100,4,1,0,80,0,9
65218,-100,4,1,0,70,0,8
74593,-100,4,1,0,80,0,8
75218,-100,4,1,0,80,0,9
78811,-100,4,1,0,80,0,8
78968,-100,4,1,0,70,0,8
82093,-100,4,1,0,75,0,8
82718,-100,4,1,0,80,0,9
86936,-100,4,1,0,85,0,9
87093,-100,4,1,0,90,0,8

[Colours]
Combo1 : 255,225,134
Combo2 : 255,140,198
Combo3 : 170,208,255
Combo4 : 252,205,213

[HitObjects]
380,142,830,5,0,0:0:0:0:
380,142,1142,1,8,0:0:0:0:
381,135,1455,1,0,0:0:0:0:
381,133,1767,1,8,0:0:0:0:
381,133,2080,1,8,0:0:0:0:
381,135,2236,1,0,0:0:0:0:
381,135,2392,1,8,0:0:0:0:
381,133,2705,1,8,0:0:0:0:
381,133,3017,1,0,0:0:0:0:
381,135,3330,1,8,0:0:0:0:
381,135,3408,1,8,0:0:0:0:
381,133,3486,1,8,0:0:0:0:
256,192,3642,12,0,4423,0:0:0:0:
399,146,4580,5,4,0:0:0:0:
399,146,4892,1,8,0:0:0:0:
396,151,5048,1,0,0:0:0:0:
396,151,5205,1,8,0:0:0:0:
394,150,5361,1,0,0:0:0:0:
399,146,5517,1,8,0:0:0:0:
397,151,5830,1,0,0:0:0:0:
396,151,6142,1,8,0:0:0:0:
393,149,6455,1,8,0:0:0:0:
399,155,6611,1,8,0:0:0:0:
397,151,6767,1,8,0:0:0:0:
402,166,7080,1,0,0:0:0:0:
402,166,7392,1,8,0:0:0:0:
402,166,7548,1,0,0:0:0:0:
403,164,7705,1,8,0:0:0:0:
402,166,7861,1,0,0:0:0:0:
376,175,8017,1,8,0:0:0:0:
376,175,8330,1,0,0:0:0:0:
384,174,8642,1,8,0:0:0:0:
381,169,8955,1,8,0:0:0:0:
376,175,9111,1,8,0:0:0:0:
376,175,9267,1,8,0:0:0:0:
380,184,9580,1,4,0:0:0:0:
380,184,9892,1,12,0:0:0:0:
380,183,10205,1,0,0:0:0:0:
380,183,10361,1,12,0:0:0:0:
380,184,10673,1,4,0:0:0:0:
380,183,10986,1,8,0:0:0:0:
380,183,11142,1,0,0:0:0:0:
380,183,11298,1,0,0:0:0:0:
380,191,11455,1,8,0:0:0:0:
390,192,12080,1,0,0:0:0:0:
377,189,12392,1,0,0:0:0:0:
377,189,12705,1,0,0:0:0:0:
377,184,12861,1,8,0:0:0:0:
377,188,13017,1,0,0:0:0:0:
377,189,13330,1,0,0:0:0:0:
376,194,13486,1,8,0:0:0:0:
377,189,13642,1,0,0:0:0:0:
385,185,13798,1,8,0:0:0:0:
377,188,13955,1,8,0:0:0:0:
377,189,14267,1,0,0:0:0:0:
377,189,14580,1,8,0:0:0:0:
377,188,14736,1,0,0:0:0:0:
377,188,14892,1,8,0:0:0:0:
377,189,15048,1,0,0:0:0:0:
377,189,15205,1,8,0:0:0:0:
377,189,15361,1,8,0:0:0:0:
377,189,15517,1,0,0:0:0:0:
377,188,15673,1,8,0:0:0:0:
377,189,16142,1,0,0:0:0:0:
377,189,16455,1,8,0:0:0:0:
369,184,16611,1,0,0:0:0:0:
377,188,16767,1,8,0:0:0:0:
369,184,16923,1,0,0:0:0:0:
377,189,17080,1,12,0:0:0:0:
369,184,17392,1,0,0:0:0:0:
347,180,17548,1,8,0:0:0:0:
369,184,17705,1,0,0:0:0:0:
369,184,18017,1,0,0:0:0:0:
369,184,18330,1,0,0:0:0:0:
369,184,18642,1,8,0:0:0:0:
369,184,18955,1,8,0:0:0:0:
369,184,19267,1,8,0:0:0:0:
369,184,19580,1,4,0:0:0:0:
374,183,20205,1,12,0:0:0:0:
369,184,20361,1,0,0:0:0:0:
369,184,20517,1,8,0:0:0:0:
369,184,20673,1,4,0:0:0:0:
374,183,20986,1,8,0:0:0:0:
374,183,21142,1,0,0:0:0:0:
369,184,21298,1,0,0:0:0:0:
369,184,21455,1,8,0:0:0:0:
369,187,21767,1,0,0:0:0:0:
374,183,22080,1,12,0:0:0:0:
369,184,22392,1,8,0:0:0:0:
369,184,22548,1,0,0:0:0:0:
364,184,22705,1,8,0:0:0:0:
364,184,22861,1,8,0:0:0:0:
364,184,22939,1,8,0:0:0:0:
364,184,23017,1,8,0:0:0:0:
369,184,23173,1,0,0:0:0:0:
364,184,23330,1,0,0:0:0:0:
369,184,23486,1,0,0:0:0:0:
364,184,23798,1,0,0:0:0:0:
364,184,23955,1,8,0:0:0:0:
369,184,24111,1,0,0:0:0:0:
369,184,24267,1,8,0:0:0:0:
369,184,24580,1,0,0:0:0:0:
364,184,24736,1,0,0:0:0:0:
364,184,24892,1,8,0:0:0:0:
369,184,25048,1,8,0:0:0:0:
369,184,25205,1,0,0:0:0:0:
369,184,25361,1,0,0:0:0:0:
369,184,25517,1,8,0:0:0:0:
364,184,25673,1,0,0:0:0:0:
356,181,26142,1,8,0:0:0:0:
356,181,26298,1,0,0:0:0:0:
356,181,26455,1,8,0:0:0:0:
364,184,26611,1,0,0:0:0:0:
364,184,26767,1,8,0:0:0:0:
333,181,26923,1,0,0:0:0:0:
356,181,27080,1,4,0:0:0:0:
356,181,27392,1,8,0:0:0:0:
352,178,27548,1,0,0:0:0:0:
352,178,27705,1,8,0:0:0:0:
346,181,27861,1,0,0:0:0:0:
345,181,28017,1,8,0:0:0:0:
327,178,28173,1,0,0:0:0:0:
324,176,28486,1,0,0:0:0:0:
322,176,28642,1,8,0:0:0:0:
322,177,28798,1,0,0:0:0:0:
322,177,28955,1,8,0:0:0:0:
327,178,29111,1,8,0:0:0:0:
321,176,29189,1,8,0:0:0:0:
321,176,29267,1,8,0:0:0:0:
324,176,29423,1,8,0:0:0:0:
324,176,29580,1,4,0:0:0:0:
301,157,30205,1,12,0:0:0:0:
300,157,30361,1,0,0:0:0:0:
300,157,30517,1,0,0:0:0:0:
300,157,30673,1,12,0:0:0:0:
301,157,30986,1,8,0:0:0:0:
301,157,31142,1,0,0:0:0:0:
300,157,31298,1,0,0:0:0:0:
300,157,31455,1,8,0:0:0:0:
315,166,31611,1,0,0:0:0:0:
314,166,31689,1,0,0:0:0:0:
317,167,31767,1,0,0:0:0:0:
314,166,32080,1,0,0:0:0:0:
314,166,33058,1,8,0:0:0:0:
314,166,33710,1,0,0:0:0:0:
314,166,34036,1,8,0:0:0:0:
314,166,34362,1,0,0:0:0:0:
314,166,34688,1,8,0:0:0:0:
314,166,35014,1,8,0:0:0:0:
314,166,35993,1,0,0:0:0:0:
306,163,36645,1,0,0:0:0:0:
306,163,36971,1,8,0:0:0:0:
306,163,37623,1,0,0:0:0:0:
306,163,37949,1,8,0:0:0:0:
306,163,38275,1,8,0:0:0:0:
306,163,38601,1,8,0:0:0:0:
306,163,38927,1,8,0:0:0:0:
297,162,39906,5,8,0:0:0:0:
300,178,40218,1,8,0:0:0:0:
300,178,40531,1,8,0:0:0:0:
299,176,40843,1,0,0:0:0:0:
358,158,42406,5,8,0:0:0:0:
358,158,42718,1,8,0:0:0:0:
358,158,43031,1,8,0:0:0:0:
358,158,43343,1,0,0:0:0:0:
358,158,44124,5,0,0:0:0:0:
352,153,44437,1,0,0:0:0:0:
379,166,44593,1,0,0:0:0:0:
358,158,44749,1,0,0:0:0:0:
358,158,44906,1,12,0:0:0:0:
346,150,45218,1,4,0:0:0:0:
334,152,45374,1,0,0:0:0:0:
346,150,45530,1,8,0:0:0:0:
337,149,45686,1,0,0:0:0:0:
341,144,45843,1,8,0:0:0:0:
341,144,45999,1,0,0:0:0:0:
339,140,46155,1,8,0:0:0:0:
343,154,46311,1,8,0:0:0:0:
339,140,46624,1,0,0:0:0:0:
334,144,46780,1,8,0:0:0:0:
336,141,46936,1,0,0:0:0:0:
339,140,47093,1,0,0:0:0:0:
336,141,47249,1,8,0:0:0:0:
336,142,47718,1,0,0:0:0:0:
339,140,48030,1,8,0:0:0:0:
336,141,48186,1,0,0:0:0:0:
339,140,48343,1,0,0:0:0:0:
336,142,48499,1,8,0:0:0:0:
340,133,48577,1,8,0:0:0:0:
336,142,48655,1,8,0:0:0:0:
339,140,48811,1,8,0:0:0:0:
332,128,48968,1,0,0:0:0:0:
324,130,49124,1,0,0:0:0:0:
339,129,49280,1,8,0:0:0:0:
340,133,49593,1,8,0:0:0:0:
329,132,49749,1,0,0:0:0:0:
338,129,49905,1,8,0:0:0:0:
339,129,50061,1,0,0:0:0:0:
339,129,50218,1,0,0:0:0:0:
338,139,50374,1,0,0:0:0:0:
322,131,50530,1,8,0:0:0:0:
322,131,50686,1,8,0:0:0:0:
319,130,51155,1,8,0:0:0:0:
322,131,51311,1,0,0:0:0:0:
322,131,51468,1,0,0:0:0:0:
313,126,51624,1,0,0:0:0:0:
313,126,51780,1,8,0:0:0:0:
312,126,51936,1,8,0:0:0:0:
312,124,52249,1,0,0:0:0:0:
306,123,52405,1,8,0:0:0:0:
306,123,52561,1,0,0:0:0:0:
302,121,52718,1,12,0:0:0:0:
299,120,53030,1,8,0:0:0:0:
299,120,53186,1,0,0:0:0:0:
299,118,53343,1,8,0:0:0:0:
299,120,53499,1,0,0:0:0:0:
302,121,53655,1,8,0:0:0:0:
299,120,53811,1,4,0:0:0:0:
299,118,54280,1,8,0:0:0:0:
281,124,54436,1,0,0:0:0:0:
299,114,54593,1,0,0:0:0:0:
292,123,54671,1,0,0:0:0:0:
297,123,54749,1,0,0:0:0:0:
294,123,54905,1,8,0:0:0:0:
294,123,54983,1,8,0:0:0:0:
294,123,55061,1,8,0:0:0:0:
294,123,55218,1,4,0:0:0:0:
294,120,55374,1,8,0:0:0:0:
294,120,55530,1,8,0:0:0:0:
308,121,55686,1,0,0:0:0:0:
308,121,55843,1,8,0:0:0:0:
316,118,55999,1,0,0:0:0:0:
316,118,56311,1,4,0:0:0:0:
316,118,56624,1,0,0:0:0:0:
316,118,56780,1,8,0:0:0:0:
331,114,56936,1,0,0:0:0:0:
331,114,57014,1,0,0:0:0:0:
331,114,57093,1,0,0:0:0:0:
316,118,57249,1,0,0:0:0:0:
316,118,57405,1,8,0:0:0:0:
316,118,57718,1,4,0:0:0:0:
316,118,58186,1,4,0:0:0:0:
316,118,58499,1,4,0:0:0:0:
315,119,58811,1,12,0:0:0:0:
321,115,59124,1,0,0:0:0:0:
321,114,59436,1,0,0:0:0:0:
321,114,59593,1,8,0:0:0:0:
332,110,59671,1,8,0:0:0:0:
321,114,59749,1,8,0:0:0:0:
321,115,59905,1,0,0:0:0:0:
321,115,60061,1,0,0:0:0:0:
321,115,60218,1,12,0:0:0:0:
321,108,60530,1,0,0:0:0:0:
321,108,60843,1,8,0:0:0:0:
321,108,61311,1,8,0:0:0:0:
321,108,61468,1,8,0:0:0:0:
321,108,61780,1,0,0:0:0:0:
331,113,61936,1,8,0:0:0:0:
322,120,62093,1,8,0:0:0:0:
440,128,62249,1,0,0:0:0:0:
409,131,62405,1,0,0:0:0:0:
331,113,62561,1,8,0:0:0:0:
330,119,62718,1,0,0:0:0:0:
336,119,63030,1,8,0:0:0:0:
332,124,63499,1,0,0:0:0:0:
335,119,63655,1,8,0:0:0:0:
332,114,63968,1,0,0:0:0:0:
322,115,64124,1,8,0:0:0:0:
332,124,64280,1,0,0:0:0:0:
317,115,64436,1,0,0:0:0:0:
317,115,64593,1,8,0:0:0:0:
316,112,64749,1,8,0:0:0:0:
316,112,64827,1,8,0:0:0:0:
317,115,64905,1,8,0:0:0:0:
317,115,65061,1,0,0:0:0:0:
317,115,65218,1,4,0:0:0:0:
314,111,65530,1,8,0:0:0:0:
316,112,65686,1,0,0:0:0:0:
316,112,65843,1,0,0:0:0:0:
317,115,66155,1,8,0:0:0:0:
317,115,66311,1,0,0:0:0:0:
314,111,66468,1,0,0:0:0:0:
296,118,66624,1,0,0:0:0:0:
314,117,66780,1,8,0:0:0:0:
317,115,67093,1,0,0:0:0:0:
317,115,67249,1,0,0:0:0:0:
313,117,67405,1,8,0:0:0:0:
324,121,67561,1,0,0:0:0:0:
324,121,67639,1,0,0:0:0:0:
323,123,67718,1,0,0:0:0:0:
323,123,67874,1,0,0:0:0:0:
324,119,68030,1,8,0:0:0:0:
324,119,68343,1,0,0:0:0:0:
324,121,68655,1,8,0:0:0:0:
323,123,68811,1,0,0:0:0:0:
324,119,68968,1,0,0:0:0:0:
324,119,69124,1,0,0:0:0:0:
324,119,69280,1,8,0:0:0:0:
306,123,69749,1,8,0:0:0:0:
311,118,69827,1,8,0:0:0:0:
311,115,69905,1,8,0:0:0:0:
311,115,70061,1,0,0:0:0:0:
307,120,70218,1,12,0:0:0:0:
306,124,70530,1,8,0:0:0:0:
306,123,70686,1,0,0:0:0:0:
311,118,70843,1,0,0:0:0:0:
306,120,70999,1,0,0:0:0:0:
307,120,71155,1,8,0:0:0:0:
306,124,71468,1,0,0:0:0:0:
306,123,71624,1,0,0:0:0:0:
311,118,71780,1,8,0:0:0:0:
306,120,71936,1,8,0:0:0:0:
307,120,72093,1,0,0:0:0:0:
306,124,72405,1,8,0:0:0:0:
306,123,72561,1,0,0:0:0:0:
318,123,72639,1,0,0:0:0:0:
311,118,72718,1,0,0:0:0:0:
316,129,72874,1,0,0:0:0:0:
307,120,73030,1,8,0:0:0:0:
305,118,73343,1,0,0:0:0:0:
306,123,73499,1,8,0:0:0:0:
306,123,73655,1,8,0:0:0:0:
306,120,73811,1,0,0:0:0:0:
307,120,73968,1,12,0:0:0:0:
311,109,74280,1,8,0:0:0:0:
311,109,74436,1,0,0:0:0:0:
311,109,74593,1,8,0:0:0:0:
308,104,74671,1,8,0:0:0:0:
311,108,74749,1,8,0:0:0:0:
305,100,74905,1,0,0:0:0:0:
311,108,74983,1,0,0:0:0:0:
301,113,75061,1,0,0:0:0:0:
304,98,75218,1,12,0:0:0:0:
299,102,75686,1,0,0:0:0:0:
299,102,75843,1,8,0:0:0:0:
297,102,75999,1,0,0:0:0:0:
296,101,76155,1,8,0:0:0:0:
292,101,76311,1,0,0:0:0:0:
291,100,76624,1,0,0:0:0:0:
291,100,76780,1,8,0:0:0:0:
291,100,76936,1,0,0:0:0:0:
291,100,77093,1,8,0:0:0:0:
292,101,77249,1,8,0:0:0:0:
291,100,77405,1,0,0:0:0:0:
291,100,77483,1,0,0:0:0:0:
284,94,77561,1,0,0:0:0:0:
277,93,77718,1,12,0:0:0:0:
288,98,78030,1,0,0:0:0:0:
287,94,78186,1,4,0:0:0:0:
287,94,78499,1,12,0:0:0:0:
288,98,78811,1,12,0:0:0:0:
256,192,78968,12,0,81468,0:0:0:0:
355,115,82093,5,8,0:0:0:0:
355,115,82405,1,0,0:0:0:0:
355,115,82718,1,4,0:0:0:0:
355,115,83186,1,0,0:0:0:0:
349,109,83343,1,8,0:0:0:0:
346,133,83655,1,0,0:0:0:0:
362,126,83811,1,0,0:0:0:0:
357,125,83968,1,8,0:0:0:0:
354,115,84280,1,0,0:0:0:0:
354,115,84436,1,0,0:0:0:0:
349,130,84593,1,8,0:0:0:0:
354,115,84749,1,0,0:0:0:0:
347,114,84905,1,0,0:0:0:0:
354,115,85218,1,12,0:0:0:0:
368,132,85530,1,8,0:0:0:0:
354,130,85686,1,0,0:0:0:0:
368,132,85843,1,0,0:0:0:0:
363,131,85999,1,0,0:0:0:0:
362,131,86155,1,8,0:0:0:0:
360,130,86311,1,4,0:0:0:0:
358,129,86624,1,12,0:0:0:0:
363,131,86936,1,12,0:0:0:0:
362,131,87093,1,12,0:0:0:0:
