osu file format v14

[General]
AudioFilename: audio.mp3
AudioLeadIn: 0
PreviewTime: 45218
Countdown: 0
SampleSet: Soft
StackLeniency: 0.7
Mode: 0
LetterboxInBreaks: 0
WidescreenStoryboard: 1

[Editor]
Bookmarks: 32080,65218
DistanceSpacing: 1.2
BeatDivisor: 4
GridSize: 4
TimelineZoom: 2

[Metadata]
Title:Otome no Route wa Hitotsu Janai! (TV Size)
TitleUnicode:乙女のルートはひとつじゃない!(TV Size)
Artist:angela
ArtistUnicode:angela
Creator:kanpakyin
Version:Hard
Source:乙女ゲームの破滅フラグしかない悪役令嬢に転生してしまった…
Tags:My Next Life as a Villainess: All Routes Lead to Doom! Hamefura Otome Game no Hametsu Flag shika Nai Akuyaku Reijou ni Tensei shiteshimatta... anime op opening japanese Faputa Uta bakarina
BeatmapID:2456241
BeatmapSetID:1161770

[Difficulty]
HPDrainRate:4
CircleSize:4
OverallDifficulty:6
ApproachRate:8
SliderMultiplier:1.5
SliderTickRate:1

[Events]
//Background and Video events
Video,120,"video.mp4"
0,0,"bg.jpg",0,0
//Break Periods
//Storyboard Layer 0 (Background)
//Storyboard Layer 1 (Fail)
//Storyboard Layer 2 (Pass)
//Storyboard Layer 3 (Foreground)
//Storyboard Layer 4 (Overlay)
//Storyboard Sound Samples

[TimingPoints]
830,312.5,4,2,1,60,1,0
830,-100,4,2,1,60,0,0
4580,-100,4,2,2,70,0,0
9580,-100,4,2,2,85,0,0
9892,-100,4,2,2,85,0,0
10205,-100,4,2,2,70,0,0
12080,-111.111111111111,4,2,3,60,0,0
19580,-100,4,2,2,60,0,0
20205,-100,4,2,3,60,0,0
20283,-100,4,2,2,60,0,0
22080,-100,4,2,2,70,0,0
29580,-100,4,2,4,70,0,0
29658,-100,4,2,2,70,0,0
30205,-100,4,2,4,70,0,0
30283,-100,4,2,2,70,0,0
30673,-100,4,2,4,70,0,0
30751,-100,4,2,2,70,0,0
32080,326.086956521739,3,2,0,70,1,0
32080,-200,3,2,2,70,0,0
32161,-200,3,2,1,70,0,0
35014,-200,3,2,4,70,0,0
35096,-200,3,2,1,70,0,0
39906,312.5,4,2,1,70,1,0
39906,-200,4,2,1,70,0,0
43968,-133.333333333333,4,2,2,60,0,0
44202,-133.333333333333,4,2,2,60,0,0
44906,312.5,4,2,4,80,1,8
44906,-133.333333333333,4,2,4,80,0,0
44945,-133.333333333333,4,2,2,80,0,0
45218,312.5,4,2,0,75,1,0
45218,-100,4,2,2,75,0,9
52639,-100,4,2,2,60,0,9
52796,-100,4,2,2,75,0,9
60452,-100,4,2,6,75,0,9
64514,-100,4,2,1,75,0,9
64671,-100,4,2,2,75,0,9
64827,-100,4,2,1,75,0,9
64983,-100,4,2,2,75,0,9
65218,-133.333333333333,4,2,2,75,0,8
65296,-133.333333333333,4,2,5,60,0,8
70218,-133.333333333333,4,2,2,70,0,8
70296,-133.333333333333,4,2,5,60,0,8
74905,-133.333333333333,4,2,2,60,0,8
74983,-133.333333333333,4,2,2,65,0,8
75061,-133.333333333333,4,2,2,70,0,8
75139,-133.333333333333,4,2,2,75,0,8
75218,-100,4,2,2,80,0,9
75296,-100,4,2,6,75,0,9
78811,-100,4,2,2,75,0,8
81468,-100,4,2,4,75,0,8
81546,-100,4,2,1,75,0,8
82718,-100,4,2,2,75,0,9
82952,-100,4,2,6,75,0,9
85530,-100,4,2,5,75,0,9
86311,-100,4,2,2,75,0,9
87093,-100,4,2,2,75,0,8

[Colours]
Combo1 : 255,225,134
Combo2 : 255,140,198
Combo3 : 170,208,255
Combo4 : 252,205,213

[HitObjects]
119,308,830,6,0,P|88:250|114:161,1,150,2|0,0:0|0:0,0:0:0:0:
188,136,1298,1,0,0:0:0:0:
164,223,1455,2,0,P|131:242|75:236,1,75,2|0,0:0|0:0,0:0:0:0:
64,108,1767,1,0,0:0:0:0:
64,108,2080,5,2,0:0:0:0:
237,155,2392,1,0,0:0:0:0:
216,68,2548,5,0,0:0:0:0:
214,157,2705,1,2,0:0:0:0:
280,217,2861,1,0,0:0:0:0:
369,209,3017,2,0,L|458:202,1,75,0|0,0:0|0:0,0:0:0:0:
433,292,3330,5,2,0:0:0:0:
412,284,3408,1,0,0:0:0:0:
397,267,3486,2,0,P|357:191|377:121,1,150
424,59,3955,1,2,0:0:0:0:
187,254,4580,6,0,P|152:251|119:224,1,75,14|0,0:0|3:0,0:0:0:0:
121,144,4892,1,10,0:0:0:0:
202,132,5048,1,0,3:0:0:0:
250,200,5205,2,0,B|287:237|269:326|204:335,2,150,10|10|10,0:0|0:0|0:0,0:0:0:0:
316,151,5986,1,0,3:0:0:0:
350,225,6142,2,0,L|481:204,1,112.5,10|0,0:0|0:0,0:0:0:0:
492,173,6455,2,0,P|502:142|483:84,1,75,10|0,0:0|3:0,0:0:0:0:
401,40,6767,1,10,0:0:0:0:
401,40,7080,5,10,0:0:0:0:
295,102,7236,1,0,3:0:0:0:
414,119,7392,1,10,0:0:0:0:
324,32,7548,1,0,3:0:0:0:
347,158,7705,6,0,P|345:200|337:254,1,75,10|0,0:0|3:0,0:0:0:0:
262,328,8017,2,0,P|256:271|238:189,1,112.5,10|0,0:0|0:0,0:0:0:0:
263,186,8330,2,0,L|177:176,1,75,10|0,0:0|3:0,0:0:0:0:
128,121,8642,1,10,0:0:0:0:
183,60,8798,1,0,3:0:0:0:
251,107,8955,5,10,0:0:0:0:
263,186,9111,1,0,3:0:0:0:
371,132,9267,2,0,B|354:96|376:57|376:57|349:44|338:12,1,112.5,10|0,0:0|0:0,0:0:0:0:
360,23,9580,1,14,0:0:0:0:
335,207,9892,6,0,P|394:210|446:164,1,112.5,10|0,0:0|0:0,0:0:0:0:
454,149,10205,1,10,3:2:0:0:
289,117,10361,1,8,3:2:0:0:
289,117,10673,6,0,B|230:137|187:105|187:105|167:132|129:132,1,150,4|8,0:0|3:2,0:0:0:0:
70,166,11142,2,0,P|40:158|4:117,1,75,8|8,3:2|3:2,0:0:0:0:
87,82,11455,2,0,L|58:262,1,150,8|8,3:2|1:2,0:0:0:0:
224,244,12080,6,0,B|271:256|271:256|305:245|305:245|371:263,1,134.999995880127,14|10,0:0|0:0,0:0:0:0:
428,228,12548,1,2,0:0:0:0:
363,178,12705,1,10,0:0:0:0:
353,258,12861,2,0,L|374:326,2,67.4999979400635,2|10|2,0:0|0:0|0:0,0:0:0:0:
428,228,13330,6,0,P|445:182|409:113,1,101.249996910095,10|0,0:0|0:0,0:0:0:0:
416,118,13642,2,0,L|345:89,1,67.4999979400635,10|2,0:0|0:0,0:0:0:0:
280,56,13955,2,0,B|224:55|215:107|136:97,1,134.999995880127,10|10,0:0|0:0,0:0:0:0:
27,200,14580,6,0,L|41:271,1,67.4999979400635,10|2,0:0|0:0,0:0:0:0:
118,245,14892,2,0,L|103:331,1,67.4999979400635,10|2,0:0|0:0,0:0:0:0:
187,304,15205,2,0,L|197:377,2,67.4999979400635,10|2|10,0:0|0:0|0:0,0:0:0:0:
262,274,15673,1,2,0:0:0:0:
300,202,15830,6,0,B|338:161|299:105|299:105|325:74,1,134.999995880127,10|10,0:0|0:0,0:0:0:0:
285,12,16298,1,2,0:0:0:0:
365,20,16455,2,0,B|410:40|459:3|459:3|491:27,1,134.999995880127,10|10,0:0|0:0,0:0:0:0:
506,101,16923,1,2,0:0:0:0:
448,158,17080,5,14,0:0:0:0:
448,158,17392,2,0,P|400:131|326:155,1,134.999995880127,10|10,0:0|0:0,0:0:0:0:
330,266,17861,2,0,P|398:289|458:249,1,134.999995880127,2|2,0:0|0:0,0:0:0:0:
388,207,18330,6,0,L|358:347,2,134.999995880127,10|10|10,0:0|0:0|0:0,0:0:0:0:
261,276,19267,1,10,0:0:0:0:
223,71,19580,6,0,B|162:50|110:80|110:80|116:52|139:37,1,150,4|0,1:2|0:0,0:0:0:0:
261,276,20205,2,0,P|260:320|213:358,2,75,6|0|8,1:2|0:0|0:0,0:0:0:0:
201,208,20673,2,0,L|354:239,1,150,4|8,3:2|3:0,0:0:0:0:
463,208,21142,5,8,3:0:0:0:
483,295,21298,1,4,3:0:0:0:
418,358,21455,1,4,3:0:0:0:
261,276,21767,1,4,3:0:0:0:
45,228,22080,6,0,B|75:178|61:124|61:124|29:152|31:175,1,150,4|10,0:0|0:0,0:0:0:0:
139,168,22548,2,0,P|187:169|250:83,1,150,0|0,3:0|3:0,0:0:0:0:
167,84,23017,5,10,0:0:0:0:
139,168,23173,2,0,L|154:258,1,75,0|10,3:0|0:0,0:0:0:0:
234,238,23486,2,0,L|215:316,1,75,0|10,3:0|0:0,3:0:0:0:
298,315,23798,2,0,B|375:296|373:367|464:323,1,150,0|0,3:0|3:0,0:0:0:0:
509,283,24267,1,10,0:0:0:0:
432,251,24423,2,0,L|446:175,1,75,0|10,3:0|0:0,0:0:0:0:
384,121,24736,5,0,3:0:0:0:
319,172,24892,2,0,P|297:174|236:139,2,75,10|0|10,0:0|3:0|0:0,0:0:0:0:
384,121,25361,1,0,3:0:0:0:
374,39,25517,2,0,P|402:37|455:71,1,75,10|0,0:0|3:0,0:0:0:0:
384,121,25830,2,0,L|411:290,1,150,10|10,0:0|0:0,0:0:0:0:
319,172,26298,5,0,3:2:0:0:
319,172,26455,2,0,P|263:202|184:175,1,150,10|10,0:0|0:0,0:0:0:0:
108,206,26923,1,0,3:0:0:0:
122,124,27080,6,0,P|115:98|124:46,2,75,14|0|10,0:0|3:0|0:0,0:0:0:0:
108,206,27548,2,0,B|124:242|124:242|98:357,1,150,0|0,3:0|3:0,0:0:0:0:
20,373,28017,1,10,0:0:0:0:
99,349,28173,2,0,L|180:366,1,75,0|10,3:0|0:0,0:0:0:0:
252,343,28486,5,0,3:0:0:0:
307,281,28642,1,10,0:0:0:0:
296,199,28798,2,0,L|445:186,1,150,0|0,3:2|3:0,0:0:0:0:
407,259,29267,2,0,P|370:194|396:114,1,150,14|14,0:0|0:0,0:0:0:0:
467,104,29736,5,0,3:0:0:0:
445,185,29892,1,10,0:0:0:0:
363,197,30048,2,0,P|328:201|286:182,1,75,0|14,3:0|0:0,0:0:0:0:
333,69,30361,5,0,3:0:0:0:
387,124,30517,1,10,0:0:0:0:
363,197,30673,2,0,B|322:222|258:180|258:180|243:218|208:212,1,150,12|10,3:2|0:2,0:0:0:0:
117,253,31142,6,0,P|95:258|38:238,1,75,8|8,0:0|0:0,0:0:0:0:
8,155,31455,5,8,0:3:0:0:
59,94,31611,1,8,0:3:0:0:
156,182,31767,5,4,0:3:0:0:
258,69,32080,6,0,B|325:63|340:123|403:107,1,150,4|0,0:0|0:0,0:0:0:0:
492,234,33058,2,0,B|421:236|420:292|347:288,1,150,2|0,0:0|0:0,0:0:0:0:
467,147,34036,6,0,P|478:109|465:65,2,75,2|2|2,0:0|0:0|0:0,0:0:0:0:
290,233,35014,2,0,B|264:266|264:266|262:325|310:366,1,150,2|0,0:0|0:0,0:0:0:0:
147,356,35993,6,0,B|102:364|53:325|53:325|41:361|13:359,1,150,2|0,0:0|0:0,0:0:0:0:
55,204,36971,1,2,0:0:0:0:
147,356,37297,1,0,0:0:0:0:
55,204,37623,1,0,0:0:0:0:
210,180,37949,5,2,0:0:0:0:
64,127,38275,1,2,0:0:0:0:
140,106,38438,1,0,0:0:0:0:
176,36,38601,1,2,0:0:0:0:
349,276,38927,5,2,0:0:0:0:
352,284,39906,5,2,0:0:0:0:
357,270,40218,1,2,0:0:0:0:
362,256,40531,1,2,0:0:0:0:
367,241,40843,2,0,B|352:194|395:162|395:162|411:130|388:99|388:99|357:123|319:110,1,225,2|0,0:0|0:0,0:0:0:0:
188,173,42406,5,2,0:0:0:0:
174,167,42718,1,2,0:0:0:0:
160,161,43031,1,2,0:0:0:0:
146,155,43343,2,0,B|121:201|121:201|149:254|119:303,1,150,2|0,0:0|0:0,0:0:0:0:
180,348,44124,5,8,3:0:0:0:
180,348,44437,1,8,3:0:0:0:
247,307,44593,2,0,L|321:323,1,56.2500021457673,8|4,3:0|3:0,0:0:0:0:
358,379,44906,2,0,P|381:340|370:275,1,112.500004291535,6|4,0:2|3:2,0:0:0:0:
424,204,45374,6,0,P|388:151|400:62,1,150
471,34,45843,1,0,3:0:0:0:
467,116,45999,1,0,3:0:0:0:
389,142,46155,2,0,L|308:132,1,75,10|0,0:0|3:0,0:0:0:0:
161,46,46624,6,0,L|85:59,2,75,0|10|0,3:0|0:0|0:0,0:0:0:0:
232,88,47093,1,0,3:0:0:0:
232,170,47249,1,0,3:0:0:0:
167,220,47405,2,0,B|129:241|94:213|94:213|72:231|31:235,1,112.5,10|0,2:2|0:0,0:0:0:0:
53,217,47718,6,0,L|44:293,1,75,4|0,3:2|0:0,0:0:0:0:
122,315,48030,2,0,L|93:384,2,75,10|0|0,0:0|0:0|3:0,0:0:0:0:
185,262,48499,1,0,3:0:0:0:
246,317,48655,1,10,0:0:0:0:
182,369,48811,1,0,3:0:0:0:
303,378,48968,6,0,P|325:337|303:258,1,112.5,0|0,3:0|0:0,0:0:0:0:
304,254,49280,2,0,L|329:157,1,75,10|0,0:2|3:0,0:0:0:0:
402,157,49593,1,0,3:0:0:0:
375,79,49749,1,0,3:0:0:0:
297,105,49905,1,10,0:0:0:0:
297,105,50218,6,0,B|308:66|308:66|293:17,2,75,4|0|10,3:2|0:0|0:0,0:0:0:0:
228,150,50686,2,0,B|172:167|116:145|116:145|136:138|170:129,1,150,0|0,3:2|3:0,0:0:0:0:
198,67,51155,1,10,0:0:0:0:
284,217,51468,6,0,L|269:293,2,75,0|0|10,3:0|3:0|0:0,0:0:0:0:
187,271,51936,2,0,L|197:404,1,112.5,0|0,3:2|0:0,0:0:0:0:
195,383,52249,2,0,P|151:382|113:356,1,75,0|10,3:0|0:0,0:0:0:0:
75,301,52561,1,0,0:0:0:0:
98,221,52718,6,0,L|77:129,1,75,4|0,3:2|0:0,0:0:0:0:
167,146,53030,1,10,0:0:0:0:
167,146,53186,2,0,L|183:64,1,75,0|0,3:0|3:2,0:0:0:0:
255,155,53499,2,0,L|263:244,1,75,0|10,3:2|3:2,0:0:0:0:
349,158,53811,6,0,B|388:116|379:53|379:53|350:31|333:66,1,150,4|0,3:2|3:0,0:0:0:0:
349,158,54280,2,0,P|368:240|330:299,1,150,10|8,0:0|0:3,0:0:0:0:
252,351,54749,1,8,0:0:0:0:
252,351,54827,1,8,0:0:0:0:
252,351,54905,2,0,P|187:340|148:339,1,75,10|10,2:0|0:0,0:0:0:0:
81,361,55218,6,0,B|62:325|62:325|96:206,1,150,4|10,3:2|0:0,0:0:0:0:
73,139,55686,2,0,L|-12:159,2,75,0|0|0,0:0|3:0|3:0,0:0:0:0:
118,69,56155,1,10,0:0:0:0:
221,109,56311,6,0,P|291:105|341:21,1,150,4|0,3:1|3:0,0:0:0:0:
256,31,56780,1,10,0:0:0:0:
221,109,56936,1,0,0:0:0:0:
256,184,57093,1,0,3:0:0:0:
335,205,57249,2,0,P|366:206|417:180,2,75,0|10|0,3:0|0:0|3:0,0:0:0:0:
256,184,57718,6,0,B|206:174|206:174|162:198|162:198|97:184,1,150,4|10,3:2|0:0,0:0:0:0:
76,114,58186,2,0,L|-5:124,1,75,10|0,3:2|0:0,0:0:0:0:
23,43,58499,1,0,3:0:0:0:
114,187,58811,1,4,3:2:0:0:
277,165,59124,2,0,L|270:202,2,37.5,8|8|4,0:3|0:3|0:3,0:0:0:0:
339,111,59436,1,0,0:0:0:0:
320,32,59593,5,2,3:0:0:0:
397,58,59749,1,2,3:0:0:0:
463,9,59905,1,4,3:0:0:0:
431,177,60218,6,0,B|419:202|419:202|456:249|432:314,1,112.5,6|0,3:2|0:0,0:0:0:0:
426,297,60530,1,2,0:0:0:0:
347,273,60686,1,0,3:0:0:0:
268,245,60843,2,0,B|211:263|161:227|161:227|148:262|109:262,1,150,10|0,0:0|0:0,0:0:0:0:
177,327,61311,5,8,0:0:0:0:
94,318,61468,1,2,3:2:0:0:
62,241,61624,2,0,L|48:153,2,75,8|2|0,0:0|3:2|0:0,0:0:0:0:
132,160,62093,1,10,0:0:0:0:
183,96,62249,2,0,L|190:16,2,75,0|0|0,3:0|0:0|3:0,0:0:0:0:
238,157,62718,6,0,P|316:198|382:176,1,150,8|0,3:2|3:0,0:0:0:0:
349,19,63343,1,4,3:0:0:0:
467,147,63655,1,8,0:0:0:0:
467,147,63811,1,0,3:0:0:0:
467,147,63968,2,0,L|449:221,1,75,0|4,0:0|3:0,0:0:0:0:
386,272,64280,2,0,L|399:345,1,75
472,384,64593,5,12,3:0:0:0:
312,228,64905,2,0,P|271:237|227:212,1,75,12|0,3:0|0:0,0:0:0:0:
278,155,65218,5,4,0:0:0:0:
103,239,65530,1,10,0:0:0:0:
54,177,65686,2,0,L|-9:195,2,56.2500021457673,0|0|0,0:0|3:0|3:0,0:0:0:0:
117,129,66155,2,0,P|134:83|109:12,1,112.500004291535,10|2,0:0|3:2,0:0:0:0:
42,46,66624,5,0,3:0:0:0:
117,129,66780,2,0,L|191:146,1,56.2500021457673,10|0,0:0|0:0,0:0:0:0:
234,190,67093,1,0,3:0:0:0:
246,267,67249,1,0,3:0:0:0:
311,223,67405,2,0,B|324:214|324:214|372:217|402:249,1,84.3750032186509,10|2,0:0|3:2,0:0:0:0:
402,250,67718,6,0,B|432:293|414:343|414:343|390:340,1,112.500004291535,2|8,3:2|0:0,0:0:0:0:
465,197,68343,2,0,L|448:123,1,56.2500021457673,0|0,3:0|3:0,0:0:0:0:
505,83,68655,1,10,0:0:0:0:
428,64,68811,1,0,0:0:0:0:
375,123,68968,2,0,B|323:135|284:112|284:112|264:117,1,112.500004291535,2|8,3:2|0:0,0:0:0:0:
120,6,69593,5,2,0:0:0:0:
76,71,69749,1,2,3:0:0:0:
70,77,69827,1,0,0:0:0:0:
61,77,69905,2,0,L|-18:68,1,56.2500021457673,10|0,0:0|3:0,0:0:0:0:
14,149,70218,1,4,0:0:0:0:
105,278,70530,5,10,0:0:0:0:
175,243,70686,1,0,0:0:0:0:
241,285,70843,1,0,3:0:0:0:
172,324,70999,1,0,3:0:0:0:
175,243,71155,2,0,L|151:166,1,56.2500021457673,10|0,0:0|3:2,0:0:0:0:
232,162,71468,6,0,L|236:99,1,56.2500021457673,0|0,3:2|3:0,0:0:0:0:
316,108,71780,2,0,L|306:41,1,56.2500021457673,10|0,0:0|0:0,0:0:0:0:
330,192,72093,2,0,P|276:195|226:152,1,112.500004291535,2|10,3:2|0:0,0:0:0:0:
399,144,72561,1,2,0:0:0:0:
399,144,72639,1,2,0:0:0:0:
399,144,72718,2,0,L|478:157,2,56.2500021457673,0|0|10,3:0|3:0|0:0,0:0:0:0:
348,321,73343,6,0,L|408:337,1,56.2500021457673,0|0,3:0|3:0,0:0:0:0:
291,367,73655,2,0,P|315:322|300:254,1,112.500004291535,10|12,0:0|3:2,0:0:0:0:
178,169,74280,1,12,0:0:0:0:
158,325,74593,2,0,L|118:311,3,28.1250010728836,10|8|10|8,3:2|0:0|0:0|0:0,0:0:0:0:
118,304,74905,2,0,P|113:293|115:264,3,28.1250010728836,8|8|8|8,0:0|0:0|0:0|0:0,0:0:0:0:
120,256,75218,6,0,L|28:272,1,75,12|0,0:0|3:0,0:0:0:0:
5,197,75530,1,10,0:0:0:0:
43,124,75686,1,0,3:0:0:0:
123,144,75843,2,0,L|201:157,1,75,10|0,0:0|3:0,0:0:0:0:
244,229,76155,1,10,0:0:0:0:
244,229,76311,2,0,P|280:174|251:89,1,150,0|0,3:0|3:0,0:0:0:0:
406,122,76780,6,0,L|248:95,1,150,10|10,0:0|0:0,0:0:0:0:
198,39,77249,1,0,3:0:0:0:
196,156,77405,2,0,P|158:164|110:145,1,75,10|0,0:0|3:0,0:0:0:0:
134,291,77718,6,0,P|103:225|125:152,1,150,14|10,0:0|0:0,0:0:0:0:
258,96,78186,2,0,P|284:174|256:234,2,150,14|14|14,0:0|0:0|3:2,0:0:0:0:
256,192,78968,12,6,81468,0:0:0:0:
140,275,82093,5,2,0:0:0:0:
140,275,82405,1,0,0:0:0:0:
140,275,82718,2,0,L|98:200,1,75,6|0,3:2|0:0,0:0:0:0:
140,275,83030,2,0,L|98:352,1,75,0|0,0:0|3:0,0:0:0:0:
140,275,83343,2,0,B|254:289|254:289|301:316,1,150,10|2,0:0|0:0,0:0:0:0:
337,369,83811,1,0,0:0:0:0:
424,257,83968,6,0,L|434:171,1,75,10|0,3:2|0:0,0:0:0:0:
344,164,84280,1,0,0:0:0:0:
352,257,84436,2,0,P|430:259|482:322,2,150,0|0|0,3:0|3:0|3:0,0:0:0:0:
256,352,85218,1,12,0:0:0:0:
256,352,85530,5,0,0:0:0:0:
222,276,85686,1,2,0:0:0:0:
145,243,85843,1,2,0:0:0:0:
227,248,85999,5,0,0:0:0:0:
289,194,86155,1,2,0:0:0:0:
272,62,86311,2,0,L|375:81,1,75,12|0,3:2|0:0,0:0:0:0:
208,125,86624,2,0,P|152:134|106:91,1,112.5,8|0,3:2|0:0,0:0:0:0:
122,78,86936,5,8,3:2:0:0:
272,62,87093,1,12,3:2:0:0:
