osu file format v14

[General]
AudioFilename: audio.mp3
AudioLeadIn: 0
PreviewTime: 45218
Countdown: 0
SampleSet: Soft
StackLeniency: 0.3
Mode: 0
LetterboxInBreaks: 0
WidescreenStoryboard: 0

[Editor]
Bookmarks: 32080,65218,79749
DistanceSpacing: 1.2
BeatDivisor: 4
GridSize: 4
TimelineZoom: 2

[Metadata]
Title:Otome no Route wa Hitotsu Janai! (TV Size)
TitleUnicode:乙女のルートはひとつじゃない!(TV Size)
Artist:angela
ArtistUnicode:angela
Creator:kanpakyin
Version:Extra
Source:乙女ゲームの破滅フラグしかない悪役令嬢に転生してしまった…
Tags:My Next Life as a Villainess: All Routes Lead to Doom! Hamefura Otome Game no Hametsu Flag shika Nai Akuyaku Reijou ni Tensei shiteshimatta... anime op opening japanese Faputa Uta bakarina
BeatmapID:2423683
BeatmapSetID:1161770

[Difficulty]
HPDrainRate:6
CircleSize:4.3
OverallDifficulty:8
ApproachRate:9
SliderMultiplier:1.6
SliderTickRate:1

[Events]
//Background and Video events
Video,120,"video.mp4"
0,0,"bg.jpg",0,0
//Break Periods
//Storyboard Layer 0 (Background)
//Storyboard Layer 1 (Fail)
//Storyboard Layer 2 (Pass)
//Storyboard Layer 3 (Foreground)
//Storyboard Layer 4 (Overlay)
//Storyboard Sound Samples

[TimingPoints]
830,312.5,4,2,1,60,1,0
830,-153.846153846154,4,2,1,60,0,0
4580,-100,4,2,2,70,0,0
9580,-200,4,2,2,85,0,0
9892,-66.6666666666667,4,2,2,85,0,0
10205,-100,4,2,2,70,0,0
12080,-133.333333333333,4,2,3,60,0,0
19580,-117.647058823529,4,2,2,60,0,0
20205,-117.647058823529,4,2,3,60,0,0
20283,-117.647058823529,4,2,2,60,0,0
22080,-111.111111111111,4,2,2,70,0,0
29580,-111.111111111111,4,2,4,70,0,0
29658,-111.111111111111,4,2,2,70,0,0
30205,-111.111111111111,4,2,4,70,0,0
30283,-111.111111111111,4,2,2,70,0,0
30673,-111.111111111111,4,2,4,70,0,0
30751,-111.111111111111,4,2,2,70,0,0
32080,326.086956521739,3,2,1,70,1,0
32080,-200,3,2,2,70,0,0
32161,-200,3,2,1,70,0,0
35014,-200,3,2,4,70,0,0
35096,-200,3,2,1,70,0,0
39906,312.5,4,2,1,70,1,0
39906,-58.8235294117647,4,2,1,70,0,0
40140,-58.8235294117647,4,2,1,20,0,0
40218,-76.9230769230769,4,2,1,70,0,0
40452,-76.9230769230769,4,2,1,20,0,0
40531,-125,4,2,1,70,0,0
40765,-125,4,2,1,20,0,0
40843,-333.333333333333,4,2,1,70,0,0
42406,-58.8235294117647,4,2,1,70,0,0
42640,-58.8235294117647,4,2,1,20,0,0
42718,-76.9230769230769,4,2,1,70,0,0
42952,-76.9230769230769,4,2,1,20,0,0
43031,-125,4,2,1,70,0,0
43265,-125,4,2,1,20,0,0
43343,-333.333333333333,4,2,1,70,0,0
43968,-333.333333333333,4,2,2,60,0,0
44202,-133.333333333333,4,2,2,60,0,0
44906,312.5,4,2,4,80,1,8
44906,-500,4,2,4,80,0,0
44945,-500,4,2,2,80,0,0
45218,312.5,4,2,1,80,1,0
45218,-100,4,2,2,75,0,9
52639,-100,4,2,2,60,0,9
52796,-100,4,2,2,75,0,9
54749,-100,4,2,2,50,0,9
54827,-100,4,2,2,60,0,9
54905,-100,4,2,2,65,0,9
54983,-100,4,2,2,70,0,9
55061,-100,4,2,2,75,0,9
55218,-100,4,2,2,75,0,9
58499,-117.647058823529,4,2,2,75,0,9
58811,-200,4,2,2,75,0,9
59280,-100,4,2,2,75,0,9
60218,-111.111111111111,4,2,2,75,0,9
60452,-111.111111111111,4,2,6,75,0,9
64514,-111.111111111111,4,2,1,75,0,9
64671,-111.111111111111,4,2,2,75,0,9
64827,-111.111111111111,4,2,1,75,0,9
64983,-111.111111111111,4,2,2,75,0,9
65218,-117.647058823529,4,2,2,75,0,8
65296,-117.647058823529,4,2,5,60,0,8
70218,-117.647058823529,4,2,2,70,0,8
70296,-117.647058823529,4,2,5,60,0,8
74905,-117.647058823529,4,2,2,60,0,8
74983,-117.647058823529,4,2,2,65,0,8
75061,-117.647058823529,4,2,2,70,0,8
75139,-117.647058823529,4,2,2,75,0,8
75218,-100,4,2,2,80,0,9
75296,-100,4,2,6,75,0,9
78186,-58.8235294117647,4,2,6,75,0,9
78499,-83.3333333333333,4,2,6,75,0,9
78811,-500,4,2,2,75,0,8
81468,-500,4,2,4,75,0,8
81546,-500,4,2,1,75,0,8
82718,-117.647058823529,4,2,2,75,0,9
82952,-117.647058823529,4,2,6,75,0,9
85530,-117.647058823529,4,2,5,75,0,9
86311,-117.647058823529,4,2,2,75,0,9
87093,-100,4,2,2,75,0,8
87327,-100,4,2,2,40,0,8

[Colours]
Combo1 : 255,225,134
Combo2 : 255,140,198
Combo3 : 170,208,255
Combo4 : 252,205,213

[HitObjects]
164,269,830,6,0,L|154:217,1,51.999997619629,2|0,0:0|0:0,0:0:0:0:
101,89,1142,2,0,L|91:140,1,51.999997619629
235,142,1455,2,0,L|172:129,1,51.999997619629,2|0,0:0|0:0,0:0:0:0:
23,241,1767,2,0,L|79:226,1,51.999997619629
298,209,2080,6,0,P|323:163|309:103,1,103.999995239258,2|0,0:0|0:0,0:0:0:0:
265,53,2548,1,0,0:0:0:0:
346,244,2705,6,0,P|315:215|241:210,1,103.999995239258,2|0,0:0|0:0,0:0:0:0:
194,253,3173,1,0,0:0:0:0:
95,122,3330,5,2,0:0:0:0:
95,122,3408,1,0,0:0:0:0:
95,122,3486,1,0,0:0:0:0:
256,192,3642,12,0,4423,0:0:0:0:
343,321,4580,5,14,0:0:0:0:
397,168,4736,1,0,3:0:0:0:
366,297,4892,6,0,L|382:377,1,80,10|0,0:0|3:0,0:0:0:0:
418,144,5205,2,0,P|422:113|399:65,1,80,10|0,0:0|3:0,0:0:0:0:
283,232,5517,6,0,L|162:213,1,120,10|0,0:0|0:0,0:0:0:0:
105,266,5830,2,0,P|78:270|26:239,1,80,10|0,0:0|3:0,0:0:0:0:
197,143,6142,1,10,0:0:0:0:
241,329,6298,1,0,3:0:0:0:
350,182,6455,5,10,0:0:0:0:
163,359,6611,1,0,3:0:0:0:
81,192,6767,2,0,L|98:346,1,120,10|0,0:0|0:0,0:0:0:0:
9,286,7080,6,0,P|38:266|102:282,1,80,10|0,0:0|3:0,0:0:0:0:
163,359,7392,1,10,0:0:0:0:
250,221,7548,1,0,3:0:0:0:
368,328,7705,2,0,P|339:328|282:282,1,80,10|0,0:0|3:0,0:0:0:0:
316,159,8017,6,0,L|292:41,1,120,10|0,0:0|0:0,0:0:0:0:
217,94,8330,2,0,P|190:105|134:90,1,80,10|0,0:0|3:0,0:0:0:0:
396,205,8642,1,10,0:0:0:0:
210,177,8798,1,0,3:0:0:0:
332,260,8955,5,10,0:0:0:0:
405,35,9111,1,0,3:0:0:0:
210,177,9267,2,0,B|240:159|299:189|299:189|330:177|318:148,1,120,10|0,0:0|0:0,0:0:0:0:
391,112,9580,6,0,P|432:110|453:92,1,60,14|0,0:0|0:0,0:0:0:0:
411,334,9892,6,0,B|377:288|398:205|398:205|408:254|439:273,1,180.000006866455,10|0,0:0|0:0,0:0:0:0:
486,280,10205,5,10,3:2:0:0:
277,90,10361,1,8,3:2:0:0:
259,79,10673,6,0,L|174:91,1,80,4|0,0:0|0:0,0:0:0:0:
56,14,10986,1,8,3:2:0:0:
123,162,11142,1,8,3:2:0:0:
219,15,11298,1,8,3:2:0:0:
231,214,11455,6,0,L|201:334,1,120,8|0,3:2|0:0,0:0:0:0:
122,353,11767,2,0,P|92:349|47:311,1,80,8|0,1:2|0:0,0:0:0:0:
331,135,12080,6,0,L|460:156,1,120.000004577637,14|10,0:0|0:0,0:0:0:0:
503,98,12548,1,2,0:0:0:0:
354,205,12705,2,0,P|332:158|354:83,1,120.000004577637,10|10,0:0|0:0,0:0:0:0:
408,47,13173,1,2,0:0:0:0:
418,214,13330,6,0,P|383:203|308:236,1,120.000004577637,10|10,0:0|0:0,0:0:0:0:
240,349,13798,1,2,0:0:0:0:
155,130,13955,2,0,L|167:59,1,60.0000022888184,10|2,0:0|0:0,0:0:0:0:
237,98,14267,2,0,L|249:27,1,60.0000022888184,10|2,0:0|0:0,0:0:0:0:
84,207,14580,5,10,0:0:0:0:
22,81,14736,1,2,0:0:0:0:
156,176,14892,5,10,0:0:0:0:
246,38,15048,1,2,0:0:0:0:
146,250,15205,5,10,0:0:0:0:
2,148,15361,1,2,0:0:0:0:
79,280,15517,5,10,0:0:0:0:
237,98,15673,1,2,0:0:0:0:
84,207,15830,5,10,0:0:0:0:
250,284,15986,1,2,0:0:0:0:
237,98,16142,2,0,P|267:103|307:79,1,60.0000022888184,10|2,0:0|0:0,0:0:0:0:
408,12,16455,1,10,0:0:0:0:
347,153,16611,5,2,0:0:0:0:
364,149,16689,1,2,0:0:0:0:
381,146,16767,2,0,P|412:157|431:183,1,60.0000022888184,10|2,0:0|0:0,0:0:0:0:
284,200,17080,6,0,P|267:140|299:88,2,120.000004577637,14|10|10,0:0|0:0|0:0,0:0:0:0:
482,84,17861,1,2,0:0:0:0:
413,258,18017,2,0,L|353:271,1,60.0000022888184,10|2,0:0|0:0,0:0:0:0:
252,362,18330,6,0,L|193:349,1,60.0000022888184,10|2,0:0|0:0,0:0:0:0:
143,233,18642,1,10,0:0:0:0:
289,201,18798,1,2,0:0:0:0:
127,312,18955,6,0,P|65:315|21:359,1,120.000004577637,10|10,0:0|0:0,0:0:0:0:
252,362,19423,1,0,0:0:0:0:
189,156,19580,6,0,B|209:128|181:95|181:95|192:57|216:55,1,102.000001945496,4|0,1:2|0:0,0:0:0:0:
210,57,19892,2,0,L|128:46,1,68.0000012969971
424,171,20205,6,0,L|491:162,1,68.0000012969971,6|0,1:2|3:0,0:0:0:0:
354,231,20517,1,8,0:0:0:0:
438,363,20673,2,0,P|451:325|420:251,1,102.000001945496,4|0,3:2|0:0,0:0:0:0:
337,148,20986,6,0,L|265:156,1,68.0000012969971,8|8,3:0|3:0,0:0:0:0:
402,85,21298,1,8,3:0:0:0:
231,231,21455,2,0,P|193:187|205:108,1,136.000002593994,4|4,3:0|3:0,0:0:0:0:
277,73,21923,1,0,0:0:0:0:
293,322,22080,6,0,L|139:301,1,143.999995605469,4|10,0:0|0:0,0:0:0:0:
269,155,22548,1,0,3:0:0:0:
368,293,22705,2,0,P|374:330|349:374,1,71.9999978027344,10|0,0:0|3:0,0:0:0:0:
236,229,23017,1,10,0:0:0:0:
353,162,23173,5,0,3:0:0:0:
186,141,23330,2,0,L|103:131,1,71.9999978027344,10|0,0:0|3:0,0:0:0:0:
225,300,23642,2,0,L|238:214,1,71.9999978027344,10|0,0:0|3:0,0:0:0:0:
360,61,23955,6,0,P|373:105|335:178,1,107.999996704102,10|0,0:0|0:0,0:0:0:0:
418,204,24267,2,0,L|437:283,1,71.9999978027344,10|0,0:0|3:0,0:0:0:0:
294,110,24580,5,10,0:0:0:0:
235,228,24736,1,0,3:0:0:0:
235,62,24892,5,10,0:0:0:0:
301,192,25048,1,0,3:0:0:0:
162,89,25205,6,0,P|136:92|81:67,1,71.9999978027344,10|0,0:0|3:0,0:0:0:0:
353,254,25517,2,0,P|379:251|433:281,1,71.9999978027344,10|0,0:0|3:0,0:0:0:0:
249,353,25830,5,10,0:0:0:0:
301,192,25986,1,0,3:0:0:0:
280,206,26064,1,0,3:0:0:0:
255,210,26142,2,0,L|183:189,1,71.9999978027344,10|0,0:0|3:0,0:0:0:0:
70,253,26455,5,10,0:0:0:0:
37,180,26611,1,0,3:0:0:0:
185,189,26767,1,10,0:0:0:0:
217,116,26923,1,0,3:0:0:0:
70,253,27080,5,14,0:0:0:0:
185,189,27236,1,0,3:0:0:0:
74,333,27392,2,0,P|39:329|0:290,1,71.9999978027344,10|0,0:0|3:0,0:0:0:0:
185,189,27705,6,0,L|336:229,1,143.999995605469,10|10,0:0|0:0,0:0:0:0:
388,272,28173,1,0,3:0:0:0:
416,60,28330,2,0,L|489:42,1,71.9999978027344,10|0,0:0|3:0,0:0:0:0:
465,254,28642,5,10,0:0:0:0:
337,77,28798,2,0,P|337:35|374:-6,1,71.9999978027344,0|10,3:2|0:0,0:0:0:0:
440,327,29111,5,0,3:0:0:0:
389,141,29267,2,0,P|339:158|286:136,1,107.999996704102,14|0,0:0|0:0,0:0:0:0:
189,35,29580,6,0,L|104:51,1,71.9999978027344,14|0,0:0|3:0,0:0:0:0:
60,102,29892,1,10,0:0:0:0:
98,170,30048,1,0,3:0:0:0:
261,72,30205,6,0,P|269:33|253:-12,1,71.9999978027344,14|0,0:0|3:0,0:0:0:0:
174,179,30517,1,10,0:0:0:0:
60,102,30673,2,0,B|47:157|47:157|62:189|62:189|45:262,1,143.999995605469,12|10,3:2|0:2,0:0:0:0:
200,363,31142,5,8,0:2:0:0:
230,183,31298,1,8,0:2:0:0:
86,330,31455,5,8,0:3:0:0:
263,270,31611,1,8,0:3:0:0:
114,157,31767,1,4,0:3:0:0:
102,176,32080,6,0,B|119:217|93:251|93:251|140:239|164:275,1,160,4|0,0:0|0:0,0:0:0:0:
232,330,33058,2,0,L|402:321,1,160,2|0,0:0|0:0,0:0:0:0:
77,119,34036,6,0,P|69:87|94:31,1,80,2|2,0:0|0:0,0:0:0:0:
102,29,34525,1,0,0:0:0:0:
125,22,34688,2,0,L|178:34,1,40,2|0,0:0|0:0,0:0:0:0:
102,197,35014,2,0,P|64:203|17:173,2,80,2|0|0,0:0|0:0|0:0,0:0:0:0:
385,254,35993,6,0,B|395:216|391:169|391:169|426:177|437:236,1,160,2|0,0:0|0:0,0:0:0:0:
187,337,36971,2,0,B|155:364|75:324|75:324|71:350|41:358,1,160,2|0,0:0|0:0,0:0:0:0:
198,59,37949,5,2,0:0:0:0:
357,343,38275,1,2,0:0:0:0:
333,338,38438,1,0,0:0:0:0:
309,333,38601,2,0,P|276:337|255:341,1,40,2|0,0:0|0:0,0:0:0:0:
136,200,38927,6,0,L|112:362,1,160,2|0,0:0|0:0,0:0:0:0:
112,358,39906,6,0,P|123:265|233:275,1,204.000003890991,2|0,0:0|0:0,0:0:0:0:
337,354,40218,6,0,P|368:301|336:206,1,155.999992858887,2|0,0:0|0:0,0:0:0:0:
170,317,40531,6,0,P|122:312|83:254,1,96,2|0,0:0|0:0,0:0:0:0:
182,119,40843,6,0,L|218:265,1,143.999995605469,2|0,0:0|0:0,0:0:0:0:
216,258,42406,6,0,P|316:265|354:172,1,204.000003890991,2|0,0:0|0:0,0:0:0:0:
168,141,42718,6,0,P|104:142|54:62,1,155.999992858887,2|0,0:0|0:0,0:0:0:0:
333,95,43031,6,0,P|375:96|419:48,1,96,2|0,0:0|0:0,0:0:0:0:
258,41,43343,6,0,L|246:165,1,119.999996337891,2|8,0:0|3:0,0:0:0:0:
261,183,44437,6,0,P|271:220|266:262,1,60.0000022888184,8|8,3:0|3:0,0:0:0:0:
179,148,44749,1,4,3:0:0:0:
77,306,44906,6,0,L|51:310,1,24,6|0,0:2|0:0,0:0:0:0:
42,315,45218,6,0,L|132:326,1,80,4|0,3:2|0:0,0:0:0:0:
207,139,45530,1,10,0:0:0:0:
43,203,45686,1,0,0:0:0:0:
184,381,45843,2,0,P|202:350|194:292,1,80,0|0,3:0|3:0,0:0:0:0:
93,123,46155,1,10,0:0:0:0:
267,261,46311,6,0,P|221:290|149:265,1,120,0|0,3:0|0:0,0:0:0:0:
176,261,46624,1,0,3:0:0:0:
336,194,46780,1,10,0:0:0:0:
336,194,46858,1,0,0:0:0:0:
336,194,46936,1,0,0:0:0:0:
353,280,47093,5,0,3:0:0:0:
222,144,47249,1,0,3:0:0:0:
392,88,47405,2,0,P|396:48|364:-1,1,80,10|0,2:2|0:0,0:0:0:0:
336,194,47718,6,0,P|390:199|448:124,1,120,4|0,3:2|0:0,0:0:0:0:
285,134,48030,2,0,L|191:123,1,80,10|0,0:0|0:0,0:0:0:0:
151,54,48343,1,0,3:0:0:0:
79,274,48499,1,0,3:0:0:0:
29,201,48655,2,0,L|111:191,1,80,10|0,0:0|0:0,0:0:0:0:
301,72,48968,6,0,P|316:133|277:190,1,120,0|0,3:0|0:0,0:0:0:0:
157,291,49280,2,0,L|55:268,1,80,10|0,0:2|3:0,0:0:0:0:
34,150,49593,1,0,3:0:0:0:
201,231,49749,1,0,3:0:0:0:
268,23,49905,1,10,0:0:0:0:
110,210,50061,5,0,0:0:0:0:
120,188,50139,1,0,0:0:0:0:
121,163,50218,2,0,P|117:133|93:105,1,40,4|0,3:2|0:0,0:0:0:0:
47,250,50374,2,0,P|66:275|97:279,1,40
201,231,50530,2,0,P|214:209|217:177,1,40,10|0,0:0|0:0,0:0:0:0:
34,150,50686,5,0,3:2:0:0:
153,303,50843,1,0,0:0:0:0:
34,150,50999,1,0,3:0:0:0:
295,179,51155,2,0,L|209:196,1,80,10|0,0:0|0:0,0:0:0:0:
103,80,51468,6,0,P|103:59|81:31,1,40,0|0,3:0|0:0,0:0:0:0:
67,238,51624,2,0,P|50:249|31:254,1,40,0|0,3:0|0:0,0:0:0:0:
148,172,51780,1,10,0:0:0:0:
348,242,51936,6,0,P|378:193|354:120,1,120,0|0,3:2|0:0,0:0:0:0:
308,72,52249,2,0,L|222:60,1,80,0|10,3:0|0:0,0:0:0:0:
299,174,52561,1,0,0:0:0:0:
445,102,52718,6,0,P|458:73|451:20,1,80,4|0,3:2|0:0,0:0:0:0:
229,133,53030,5,10,0:0:0:0:
427,183,53186,2,0,P|484:176|515:144,1,80,0|0,3:2|3:2,0:0:0:0:
227,59,53499,5,0,3:2:0:0:
366,134,53655,1,10,0:0:0:0:
226,212,53811,2,0,B|160:234|107:194|107:194|97:226|123:229,1,160,4|0,3:2|3:0,0:0:0:0:
366,134,54280,5,10,0:0:0:0:
384,108,54358,1,0,0:0:0:0:
390,76,54436,1,0,0:0:0:0:
383,44,54514,1,0,0:0:0:0:
362,19,54593,6,0,P|343:11|320:10,1,40,8|0,3:0|0:0,0:0:0:0:
125,87,54749,2,0,P|149:88|175:76,1,40,8|8,0:0|0:0,0:0:0:0:
181,67,54905,1,10,0:0:0:0:
187,43,54983,1,8,0:0:0:0:
179,20,55061,1,10,0:0:0:0:
277,239,55218,6,0,L|255:319,1,80,4|0,3:2|0:0,0:0:0:0:
208,188,55530,2,0,P|252:157|326:167,1,120,10|0,0:0|0:0,0:0:0:0:
315,161,55843,2,0,P|286:167|224:125,1,80,0|0,3:0|3:0,0:0:0:0:
359,63,56155,1,10,0:0:0:0:
392,250,56311,6,0,L|425:118,1,120,4|0,3:1|0:0,0:0:0:0:
421,133,56624,2,0,P|448:98|451:55,1,80,0|10,3:0|0:0,0:0:0:0:
219,81,56936,1,0,0:0:0:0:
316,244,57093,2,0,P|348:257|394:249,1,80,0|0,3:0|3:0,0:0:0:0:
293,42,57405,5,10,0:0:0:0:
221,160,57561,1,0,3:0:0:0:
148,42,57718,2,0,B|95:27|57:60|57:60|26:31|49:16,1,120,4|0,3:2|0:0,0:0:0:0:
55,24,58030,1,10,0:0:0:0:
97,230,58186,6,0,P|124:179|108:106,1,120,10|0,3:2|0:0,0:0:0:0:
33,261,58499,6,0,P|79:239|153:251,1,102.000001945496,0|0,3:0|0:0,0:0:0:0:
253,349,58811,6,0,P|202:341|165:305,1,100,4|8,3:2|0:3,0:0:0:0:
198,199,59280,5,4,0:3:0:0:
341,320,59436,1,0,0:0:0:0:
362,132,59593,1,2,3:0:0:0:
289,242,59749,5,2,3:0:0:0:
455,169,59905,1,4,3:0:0:0:
303,59,60061,1,4,3:0:0:0:
395,278,60218,6,0,P|462:284|513:231,1,143.999995605469,6|2,3:2|0:0,0:0:0:0:
455,169,60686,1,0,3:0:0:0:
381,350,60843,2,0,L|353:207,1,143.999995605469,10|0,0:0|0:0,0:0:0:0:
507,106,61311,5,8,0:0:0:0:
266,229,61468,2,0,L|281:133,1,71.9999978027344,2|8,3:2|0:0,0:0:0:0:
381,350,61780,5,2,3:2:0:0:
115,184,61936,2,0,L|187:190,1,71.9999978027344,0|10,0:0|0:0,0:0:0:0:
194,18,62249,6,0,P|186:71|221:128,1,107.999996704102,0|0,3:0|0:0,0:0:0:0:
277,157,62561,1,0,3:0:0:0:
355,21,62718,1,8,3:2:0:0:
363,241,62874,5,0,3:0:0:0:
500,167,63030,2,0,P|520:118|500:64,1,107.999996704102,0|0,3:0|0:0,0:0:0:0:
355,21,63343,2,0,L|271:26,1,71.9999978027344,4|0,3:0|3:0,0:0:0:0:
363,241,63655,5,8,0:0:0:0:
410,100,63811,2,0,P|464:98|514:149,1,107.999996704102,0|0,3:0|0:0,0:0:0:0:
444,230,64124,2,0,L|427:307,1,71.9999978027344,4|0,3:0|0:0,0:0:0:0:
306,118,64436,1,0,0:0:0:0:
353,327,64593,5,12,3:0:0:0:
510,201,64749,1,0,3:0:0:0:
312,256,64905,5,12,3:0:0:0:
507,274,65061,1,0,3:0:0:0:
239,223,65218,6,0,B|168:205|175:268|87:224,1,136.000002593994,4|10,0:2|0:0,0:0:0:0:
51,291,65686,1,0,0:0:0:0:
30,211,65843,2,0,L|10:134,1,68.0000012969971,0|0,3:0|3:0,0:0:0:0:
133,312,66155,2,0,L|112:384,1,68.0000012969971,10|0,0:0|0:0,0:0:0:0:
197,135,66468,5,2,3:2:0:0:
51,291,66624,1,0,3:0:0:0:
14,146,66780,5,10,0:0:0:0:
133,312,66936,1,0,0:0:0:0:
260,185,67093,2,0,L|342:198,1,68.0000012969971,0|0,3:0|3:0,0:0:0:0:
480,128,67405,2,0,P|491:103|477:46,1,68.0000012969971,10|0,0:0|0:0,0:0:0:0:
420,167,67639,5,2,0:0:0:0:
420,167,67718,2,0,L|443:288,1,102.000001945496,2|0,3:2|0:0,0:0:0:0:
501,311,68030,2,0,L|484:380,1,68.0000012969971,8|0,0:0|0:0,0:0:0:0:
360,261,68343,5,0,3:0:0:0:
389,374,68499,1,0,3:0:0:0:
509,232,68655,5,10,0:0:0:0:
425,312,68811,1,0,0:0:0:0:
327,195,68968,2,0,L|253:217,1,68.0000012969971,2|0,3:2|3:0,0:0:0:0:
141,360,69280,2,0,L|211:340,1,68.0000012969971,8|0,0:0|3:0,0:0:0:0:
187,202,69593,6,0,P|180:190|176:157,1,34.0000006484985,2|2,0:0|0:0,0:0:0:0:
279,311,69749,2,0,P|287:351|264:391,1,68.0000012969971,2|10,3:0|0:0,0:0:0:0:
245,137,70061,5,0,3:0:0:0:
69,333,70218,2,0,B|31:314|31:314|15:257|70:215,1,136.000002593994,4|10,0:0|0:0,0:0:0:0:
120,181,70686,1,0,0:0:0:0:
199,202,70843,1,0,3:0:0:0:
257,316,70999,2,0,L|240:389,1,68.0000012969971,0|10,3:0|0:0,0:0:0:0:
322,266,71311,1,0,3:2:0:0:
171,39,71468,5,0,3:2:0:0:
175,120,71624,1,0,3:0:0:0:
120,181,71780,2,0,P|87:184|55:173,1,68.0000012969971,10|0,0:0|0:0,0:0:0:0:
97,102,72093,5,2,3:2:0:0:
175,120,72249,1,0,3:0:0:0:
197,198,72405,1,10,0:0:0:0:
172,315,72561,6,0,P|161:316|134:294,1,34.0000006484985,2|2,0:0|0:0,0:0:0:0:
233,363,72718,2,0,P|249:329|234:273,1,68.0000012969971,0|0,3:0|3:0,0:0:0:0:
442,79,73030,5,10,0:0:0:0:
274,36,73186,1,0,0:0:0:0:
304,217,73343,1,0,3:0:0:0:
387,132,73499,5,0,3:0:0:0:
202,183,73655,1,10,0:0:0:0:
335,330,73811,1,0,3:0:0:0:
245,118,73968,6,0,P|230:108|204:111,1,34.0000006484985,12|0,3:2|0:0,0:0:0:0:
262,234,74124,2,0,P|241:254|218:259,1,34.0000006484985
126,176,74280,2,0,P|124:192|129:209,1,34.0000006484985,12|0,0:0|0:0,0:0:0:0:
202,183,74436,1,0,0:0:0:0:
259,350,74593,5,10,3:2:0:0:
242,355,74671,1,8,0:0:0:0:
225,359,74749,1,10,0:2:0:0:
208,364,74827,1,8,0:0:0:0:
170,333,74905,5,8,0:0:0:0:
154,327,74983,1,8,0:0:0:0:
137,321,75061,1,8,0:0:0:0:
120,315,75139,1,8,0:0:0:0:
42,371,75218,6,0,L|25:238,1,120,12|0,0:0|0:0,0:0:0:0:
103,209,75530,2,0,P|113:172|85:118,1,80,10|0,0:0|3:0,0:0:0:0:
29,80,75843,1,10,0:0:0:0:
174,239,75999,2,0,P|205:243|252:216,1,80,0|10,3:0|0:0,0:0:0:0:
27,175,76311,5,0,3:0:0:0:
306,100,76468,1,10,0:0:0:0:
103,209,76624,2,0,P|96:244|127:294,1,80,0|10,3:0|0:0,0:0:0:0:
373,141,76936,1,0,3:0:0:0:
175,24,77093,5,10,0:0:0:0:
307,179,77249,2,0,P|250:186|199:132,1,120,0|0,3:0|0:0,0:0:0:0:
143,105,77561,2,0,P|120:109|94:125,1,40,0|0,3:0|0:0,0:0:0:0:
325,117,77718,6,0,L|293:235,1,120,14|0,0:0|0:0,0:0:0:0:
336,291,78030,1,10,0:0:0:0:
412,57,78186,6,0,P|335:119|231:60,1,204.000003890991,14|0,0:0|0:0,0:0:0:0:
89,239,78499,6,0,P|136:197|240:216,1,143.999995605469,14|0,0:0|0:0,0:0:0:0:
402,347,78811,6,0,B|470:275|424:172|424:172|401:218|355:221,1,272,14|6,3:2|0:0,0:0:0:0:
85,147,82093,5,2,0:0:0:0:
85,147,82405,1,0,0:0:0:0:
85,147,82718,2,0,P|66:215|102:275,1,136.000002593994,6|0,3:2|0:0,0:0:0:0:
169,302,83186,1,0,3:0:0:0:
155,99,83343,5,10,0:0:0:0:
85,146,83499,1,0,0:0:0:0:
54,221,83655,2,0,P|88:226|126:211,1,68.0000012969971,2|0,0:0|0:0,0:0:0:0:
226,130,83968,2,0,P|236:104|228:60,1,68.0000012969971,10|0,3:2|0:0,0:0:0:0:
84,68,84280,5,0,0:0:0:0:
204,214,84436,2,0,B|236:241|220:315|170:332,1,136.000002593994,0|0,3:2|3:0,0:0:0:0:
138,259,84905,1,2,3:2:0:0:
269,346,85061,1,0,3:0:0:0:
284,176,85218,6,0,B|252:143|261:74|313:50,1,136.000002593994,12|0,0:0|0:0,0:0:0:0:
408,136,85686,1,2,0:0:0:0:
304,257,85843,1,2,0:0:0:0:
268,117,85999,5,0,0:0:0:0:
438,63,86155,1,2,0:0:0:0:
203,72,86311,6,0,L|130:60,1,68.0000012969971,12|0,3:2|0:0,0:0:0:0:
11,223,86624,6,0,P|3:204|9:179,1,34.0000006484985,8|0,3:2|0:0,0:0:0:0:
346,316,86936,6,0,P|337:334|312:348,1,34.0000006484985,8|0,3:2|0:0,0:0:0:0:
256,192,87093,2,0,B|316:196|329:127|329:127|363:131|353:169,1,160,12|0,3:2|0:0,0:0:0:0:
