osu file format v14

[General]
AudioFilename: audio.mp3
AudioLeadIn: 0
PreviewTime: 106261
Countdown: 0
SampleSet: Soft
StackLeniency: 0.7
Mode: 0
LetterboxInBreaks: 0
WidescreenStoryboard: 1

[Editor]
Bookmarks: 11011,32344,53678,64344,75011,85678,96344,107011,128344,149678,171011,181678,192344,213678,223678,235011,256344,277678
DistanceSpacing: 1.2
BeatDivisor: 4
GridSize: 8
TimelineZoom: 1.900001

[Metadata]
Title:KIZUNA
TitleUnicode:KIZUNA
Artist:angela
ArtistUnicode:angela
Creator:dahkjdas
Version:kuuti's Hard
Source:K RETURN OF KINGS
Tags:japanese full version pop anime ed ending jpop j-pop rock jrock j-rock kuuti LandoriK Ayesha Altugle Shizuku- Kazato Asa Shikibe Mayu Kyuuchie Amateurre
BeatmapID:4049071
BeatmapSetID:1809920

[Difficulty]
HPDrainRate:4
CircleSize:3.8
OverallDifficulty:6.5
ApproachRate:8
SliderMultiplier:1.5
SliderTickRate:1

[Events]
//Background and Video events
0,0,"bg.jpg",0,0
//Break Periods
2,32544,41928
2,213878,222928
//Storyboard Layer 0 (Background)
//Storyboard Layer 1 (Fail)
//Storyboard Layer 2 (Pass)
//Storyboard Layer 3 (Foreground)
//Storyboard Layer 4 (Overlay)
//Storyboard Sound Samples

[TimingPoints]
345,333.333333333333,4,2,1,30,1,0
10344,-133.333333333333,4,2,1,60,0,0
11011,-100,4,2,1,70,0,0
13011,-100,4,2,1,50,0,0
13678,-100,4,2,1,70,0,0
15678,-100,4,2,1,50,0,0
16344,-100,4,2,1,70,0,0
18344,-100,4,2,1,50,0,0
19011,-100,4,2,1,70,0,0
32344,-100,4,2,1,30,0,0
42678,-100,4,2,1,40,0,0
43011,-142.857142857143,4,2,1,40,0,0
53011,-100,4,2,1,40,0,0
53678,-100,4,2,1,70,0,0
63178,-111.111111111111,4,2,1,70,0,0
64344,-111.111111111111,4,2,1,50,0,0
74678,-100,4,2,1,60,0,0
75011,-100,4,2,1,50,0,0
85678,-100,4,2,1,70,0,0
105678,-100,4,2,1,80,0,0
106344,-100,4,2,1,60,0,0
107011,-100,4,2,1,80,0,1
128344,-100,4,2,1,70,0,0
149678,-111.111111111111,4,2,1,50,0,0
160011,-100,4,2,1,50,0,0
171011,-100,4,2,1,70,0,0
181678,-100,4,2,1,80,0,0
213678,-100,4,2,1,30,0,0
223678,-133.333333333333,4,2,1,40,0,0
224344,-100,4,2,1,70,0,0
233678,-100,4,2,1,80,0,0
234344,-133.333333333333,4,2,1,60,0,0
235011,-100,4,2,1,80,0,1
277678,-100,4,2,1,40,0,0
280344,342.857142857143,4,2,1,100,1,0
281715,352.941176470588,4,2,1,100,1,0
283017,400,4,2,1,100,1,0
283817,461.538461538462,4,2,1,100,1,0
284278,705.882352941176,4,2,1,100,1,0
285689,909.090909090909,4,2,1,100,1,0

[Colours]
Combo1 : 212,212,212
Combo2 : 255,128,128
Combo3 : 0,128,192
Combo4 : 255,255,128
Combo5 : 128,255,128

[HitObjects]
228,314,10344,6,0,L|172:306,3,56.2500021457673,0|0|0|0,1:0|1:0|1:0|1:0,0:0:0:0:
95,342,11011,6,0,L|65:176,1,150,14|0,0:0|3:2,0:0:0:0:
59,109,11511,2,0,P|96:110|126:131,1,75,10|0,0:0|3:2,0:0:0:0:
195,197,11844,1,0,3:2:0:0:
195,197,12011,2,0,P|265:178|299:114,1,150,10|2,0:0|0:0,0:0:0:0:
362,49,12511,1,8,0:0:0:0:
436,99,12678,2,0,L|442:135,3,37.5,0|0|0|0,3:2|3:2|3:2|3:2,0:0:0:0:
507,241,13678,6,0,L|359:214,1,150,14|0,0:0|3:2,0:0:0:0:
269,203,14178,2,0,L|282:276,1,75,10|0,0:0|3:2,0:0:0:0:
303,369,14511,1,0,3:2:0:0:
303,369,14678,2,0,L|229:355,1,75,10|0,0:0|3:2,0:0:0:0:
130,371,15011,2,0,L|123:334,3,37.5,2|0|0|0,0:0|3:2|3:2|3:2,0:0:0:0:
95,322,15344,2,0,L|88:285,3,37.5,0|0|0|0,3:2|3:2|3:2|3:2,0:0:0:0:
63,267,15678,1,0,3:2:0:0:
210,313,16344,6,0,P|277:285|300:216,1,150,14|0,0:0|3:2,0:0:0:0:
283,128,16844,2,0,L|357:142,1,75,10|0,0:0|3:2,0:0:0:0:
426,200,17178,1,0,3:2:0:0:
493,140,17344,1,10,0:0:0:0:
493,140,17428,1,0,0:0:0:0:
493,140,17511,2,0,L|486:103,2,37.5,0|0|2,3:2|3:2|0:0,0:0:0:0:
512,233,17844,6,0,P|440:250|405:313,1,150,8|0,0:0|3:2,0:0:0:0:
335,368,18344,1,0,3:2:0:0:
206,254,19011,5,14,0:0:0:0:
122,309,19178,2,0,L|109:236,1,75,8|0,0:0|3:2,0:0:0:0:
38,172,19511,2,0,P|56:121|163:85,1,150,8|0,0:0|3:2,0:0:0:0:
216,29,20011,2,0,L|290:43,1,75,8|0,0:0|3:2,0:0:0:0:
290,43,20261,1,0,3:2:0:0:
290,43,20344,1,0,3:2:0:0:
379,80,20511,6,0,P|362:113|329:131,2,75,2|2|2,0:0|3:2|0:0,0:0:0:0:
436,19,21011,2,0,P|463:43|471:79,1,75,2|2,3:2|3:2,0:0:0:0:
471,80,21261,1,0,3:2:0:0:
471,80,21344,2,0,L|457:153,1,75,14|2,0:0|0:0,0:0:0:0:
480,249,21678,6,0,L|332:222,1,150,6|8,0:0|0:0,0:0:0:0:
243,203,22178,2,0,P|243:240|260:273,1,75,2|0,3:2|3:2,0:0:0:0:
303,352,22511,1,0,3:2:0:0:
214,383,22678,2,0,L|140:369,1,75,10|0,0:0|3:2,0:0:0:0:
51,382,23011,6,0,P|51:344|72:315,1,75,2|0,3:2|3:2,0:0:0:0:
153,276,23344,2,0,L|140:203,1,75,10|0,0:0|3:2,0:0:0:0:
57,165,23678,2,0,L|70:92,1,75,2|0,3:2|3:2,0:0:0:0:
98,7,24011,2,0,P|131:23|150:55,1,75,10|0,0:0|3:2,0:0:0:0:
187,137,24344,6,0,P|260:135|310:81,1,150,2|8,3:2|0:0,0:0:0:0:
376,21,24844,2,0,L|449:34,1,75,2|0,3:2|3:2,0:0:0:0:
496,112,25178,1,0,3:2:0:0:
430,173,25344,2,0,L|357:160,1,75,10|0,0:0|3:2,0:0:0:0:
267,177,25678,6,0,P|289:246|356:273,1,150,2|10,3:2|0:0,0:0:0:0:
447,296,26178,1,0,3:2:0:0:
396,369,26344,2,0,L|323:382,1,75,2|0,3:2|3:2,0:0:0:0:
261,308,26678,2,0,L|188:295,1,75,10|0,0:0|3:2,0:0:0:0:
109,351,27011,6,0,L|79:185,1,150,6|8,0:0|0:0,0:0:0:0:
17,140,27511,2,0,P|25:94|123:43,1,150,2|0,3:2|3:2,0:0:0:0:
199,25,28011,2,0,L|186:98,1,75,10|0,0:0|3:2,0:0:0:0:
169,190,28344,1,0,3:2:0:0:
169,190,28511,1,0,3:2:0:0:
244,239,28678,6,0,L|392:212,2,150,10|2|10,0:0|3:2|0:0,0:0:0:0:
8,289,29678,6,0,P|60:282|134:351,1,150,2|8,3:2|0:0,0:0:0:0:
211,383,30178,2,0,L|284:370,1,75,2|0,3:2|3:2,0:0:0:0:
373,351,30511,1,0,3:2:0:0:
373,351,30678,2,0,P|355:308|323:289,1,75,10|2,0:0|3:2,0:0:0:0:
248,258,31011,6,0,L|242:294,2,37.5,2|2|0,0:0|0:0|3:2,0:0:0:0:
320,204,31344,2,0,L|307:131,1,75,2|0,0:0|3:2,0:0:0:0:
281,51,31678,2,0,P|247:67|229:103,1,75,2|2,0:0|0:0,0:0:0:0:
229,99,31928,1,2,0:0:0:0:
229,99,32011,2,0,L|156:86,1,75,2|2,0:0|0:0,0:0:0:0:
81,133,32344,1,0,3:2:0:0:
54,73,42678,6,0,P|58:120|111:154,1,112.5,2|0,0:1|0:0,0:0:0:0:
127,173,43011,6,0,L|184:162,2,52.4999983978272,0|0|0,3:2|0:0|0:0,0:0:0:0:
87,249,43511,1,0,0:0:0:0:
87,249,43678,2,0,P|132:262|166:319,1,104.999996795654,2|2,0:0|0:0,0:0:0:0:
238,347,44178,2,0,L|295:336,1,52.4999983978272,2|0,0:0|0:0,0:0:0:0:
349,278,44511,2,0,L|406:289,1,52.4999983978272,2|0,0:0|0:0,0:0:0:0:
480,333,44844,2,0,L|498:229,2,104.999996795654,2|2|2,0:0|0:0|0:0,0:0:0:0:
409,383,45678,6,0,P|394:354|318:327,1,104.999996795654,2|2,0:0|0:0,0:0:0:0:
253,360,46178,2,0,L|196:349,1,52.4999983978272,2|0,0:0|0:0,0:0:0:0:
153,280,46511,2,0,L|96:291,1,52.4999983978272,2|0,0:0|0:0,0:0:0:0:
23,332,46844,2,0,L|5:228,2,104.999996795654,2|0|0,0:0|0:0|0:0,0:0:0:0:
97,383,47678,2,0,P|112:354|188:327,1,104.999996795654,2|2,0:0|0:0,0:0:0:0:
339,359,48344,6,0,L|357:255,1,104.999996795654,2|0,0:0|0:0,0:0:0:0:
420,200,48844,2,0,L|402:96,1,104.999996795654,2|0,0:0|0:0,0:0:0:0:
382,14,49344,2,0,P|343:28|318:93,1,104.999996795654,2|0,0:0|0:0,0:0:0:0:
324,168,49844,2,0,L|220:150,1,104.999996795654,2|2,0:0|0:0,0:0:0:0:
137,138,50344,2,0,P|137:166|151:193,1,52.4999983978272,2|0,0:0|0:0,0:0:0:0:
217,239,50678,1,2,0:0:0:0:
217,239,50844,1,2,0:0:0:0:
256,192,50928,12,0,52511,0:0:0:0:
397,321,53011,6,0,L|410:248,1,75,2|0,0:0|0:0,0:0:0:0:
506,177,53344,2,0,L|512:213,3,37.5,2|2|2|2,0:0|0:0|0:0|0:0,0:0:0:0:
496,236,53678,6,0,P|458:173|387:159,1,150,14|0,0:0|3:2,0:0:0:0:
294,140,54178,2,0,L|307:213,1,75,10|0,0:0|3:2,0:0:0:0:
324,302,54511,1,0,3:2:0:0:
254,360,54678,2,0,P|218:352|193:325,1,75,10|0,0:0|3:2,0:0:0:0:
141,252,55011,5,2,0:0:0:0:
63,297,55178,1,8,0:0:0:0:
5,228,55344,2,0,L|11:192,3,37.5,0|0|0|0,3:2|3:2|3:2|3:2,0:0:0:0:
34,171,55678,1,8,3:2:0:0:
135,65,56011,2,0,L|129:29,3,37.5,0|0|0|0,3:2|3:2|3:2|3:2,0:0:0:0:
149,6,56344,6,0,P|225:11|280:74,1,150,14|0,0:0|3:2,0:0:0:0:
307,143,56844,2,0,P|344:124|361:89,1,75,10|0,0:0|3:2,0:0:0:0:
444,64,57178,1,0,3:2:0:0:
503,131,57344,2,0,L|489:205,1,75,10|0,0:0|3:2,0:0:0:0:
440,281,57678,6,0,L|446:317,2,37.5,6|0|0,0:0|3:2|3:2,0:0:0:0:
386,208,58011,2,0,P|357:231|347:267,1,75,0|0,3:2|3:2,0:0:0:0:
362,356,58344,2,0,L|214:329,1,150,4|0,3:2|3:2,0:0:0:0:
129,373,58844,1,0,3:2:0:0:
129,373,58928,1,0,3:2:0:0:
129,373,59011,6,0,L|99:207,1,150,14|0,0:0|3:2,0:0:0:0:
86,136,59511,2,0,P|123:135|155:153,1,75,10|0,0:0|3:2,0:0:0:0:
218,218,59844,1,0,3:2:0:0:
301,183,60011,2,0,L|315:109,1,75,10|0,0:0|3:2,0:0:0:0:
315,109,60261,1,0,3:2:0:0:
315,109,60344,5,2,0:0:0:0:
253,40,60511,1,8,0:0:0:0:
169,79,60678,2,0,L|155:153,1,75,2|0,3:2|3:2,0:0:0:0:
129,239,61011,6,0,P|183:247|271:336,1,150,12|0,3:2|3:2,0:0:0:0:
329,368,61511,1,0,3:2:0:0:
398,311,61678,5,14,0:0:0:0:
398,311,61844,2,0,L|384:237,1,75,8|0,0:0|3:2,0:0:0:0:
432,151,62178,2,0,P|375:196|303:184,1,150,8|0,0:0|3:2,0:0:0:0:
239,120,62678,1,8,0:0:0:0:
170,177,62844,2,0,L|184:251,1,75,8|0,3:2|3:2,0:0:0:0:
186,338,63178,6,0,P|152:333|125:314,2,67.4999979400635,2|2|2,0:0|3:2|0:0,0:0:0:0:
265,383,63678,2,0,L|277:312,1,67.4999979400635,2|2,3:2|3:2,0:0:0:0:
359,292,64011,2,0,L|347:221,1,67.4999979400635,10|2,0:0|0:0,0:0:0:0:
373,140,64344,6,0,P|330:138|272:53,2,134.999995880127,4|0|2,0:0|3:2|3:2,0:0:0:0:
448,101,65178,1,0,0:0:0:0:
512,161,65344,1,2,3:2:0:0:
512,161,65511,2,0,L|500:227,1,67.4999979400635,2|0,0:0|3:2,0:0:0:0:
468,306,65844,2,0,P|439:288|423:259,1,67.4999979400635,2|0,0:0|3:2,0:0:0:0:
350,216,66178,2,0,P|305:217|246:287,1,134.999995880127,2|2,0:0|0:0,0:0:0:0:
265,365,66678,2,0,L|198:353,1,67.4999979400635,2|2,3:2|0:0,0:0:0:0:
115,376,67011,6,0,L|103:309,1,67.4999979400635,2|0,3:2|0:0,0:0:0:0:
103,309,67261,1,2,0:0:0:0:
103,309,67344,1,2,3:2:0:0:
35,259,67511,2,0,L|61:110,2,134.999995880127,2|2|2,0:0|0:0|0:0,0:0:0:0:
18,345,68344,1,0,3:2:0:0:
176,379,68678,1,0,3:2:0:0:
285,258,69011,2,0,L|273:187,1,67.4999979400635,2|0,3:2|0:0,0:0:0:0:
198,151,69344,2,0,L|210:80,1,67.4999979400635,2|0,3:2|0:0,0:0:0:0:
266,20,69678,6,0,P|331:27|373:78,1,134.999995880127,2|0,3:2|3:2,0:0:0:0:
459,88,70178,1,2,0:0:0:0:
459,88,70344,2,0,P|453:120|430:146,1,67.4999979400635,2|0,3:2|0:0,0:0:0:0:
359,187,70678,1,2,3:2:0:0:
419,248,70844,2,0,L|286:223,1,134.999995880127,2|2,0:0|0:0,0:0:0:0:
201,230,71344,2,0,P|206:262|228:287,1,67.4999979400635,2|2,3:2|0:0,0:0:0:0:
303,328,71678,2,0,P|237:319|185:360,1,134.999995880127,2|2,3:2|3:2,0:0:0:0:
105,383,72178,1,2,0:0:0:0:
45,324,72344,6,0,L|57:253,1,67.4999979400635,0|2,3:2|0:0,0:0:0:0:
56,257,72594,1,2,0:0:0:0:
56,257,72678,1,2,3:2:0:0:
129,213,72844,2,0,L|102:64,1,134.999995880127
60,7,73344,2,0,P|33:27|20:58,1,67.4999979400635,0|0,3:2|0:0,0:0:0:0:
9,140,73678,2,0,L|75:151,1,67.4999979400635,0|0,3:2|0:0,0:0:0:0:
143,209,74011,2,0,P|171:168|271:171,1,134.999995880127,0|4,3:2|3:2,0:0:0:0:
333,194,74511,1,0,0:0:0:0:
410,143,74678,2,0,L|434:275,1,112.5,2|0,1:1|0:0,0:0:0:0:
447,276,75011,6,0,P|388:277|322:350,1,150,4|8,3:2|0:0,0:0:0:0:
246,381,75511,1,0,0:0:0:0:
172,328,75678,2,0,L|186:254,1,75,2|0,3:2|0:0,0:0:0:0:
138,177,76011,1,10,0:0:0:0:
198,110,76178,6,0,P|270:116|319:171,1,150,2|0,0:0|0:0,0:0:0:0:
352,254,76678,2,0,P|385:237|404:205,1,75,10|0,0:0|0:0,0:0:0:0:
463,133,77011,2,0,L|389:119,1,75,2|0,3:2|0:0,0:0:0:0:
343,40,77344,2,0,L|269:54,1,75,10|0,0:0|0:0,0:0:0:0:
177,30,77678,6,0,L|203:177,1,150,2|10,3:2|0:0,0:0:0:0:
221,269,78178,2,0,P|149:254|113:191,1,150,2|2,0:0|0:0,0:0:0:0:
71,111,78678,2,0,P|40:132|26:166,1,75,10|0,0:0|0:0,0:0:0:0:
0,255,79011,6,0,L|74:269,1,75,0|0,3:2|0:0,0:0:0:0:
162,286,79344,1,8,0:0:0:0:
128,371,79511,2,0,P|199:321|265:335,1,150
337,384,80011,2,0,L|351:310,1,75,10|0,0:0|0:0,0:0:0:0:
435,276,80344,6,0,L|405:110,1,150,2|8,3:2|0:0,0:0:0:0:
383,43,80844,1,2,0:0:0:0:
383,43,81011,2,0,P|349:57|328:90,1,75,2|0,3:2|0:0,0:0:0:0:
273,160,81344,1,10,0:0:0:0:
341,219,81511,6,0,L|193:192,1,150,2|2,0:0|0:0,0:0:0:0:
103,187,82011,2,0,L|117:261,1,75,10|0,0:0|0:0,0:0:0:0:
66,335,82344,2,0,P|121:288|192:304,1,150,2|10,3:2|0:0,0:0:0:0:
253,375,82844,1,2,0:0:0:0:
332,333,83011,6,0,L|346:259,1,75,0|0,3:2|0:0,0:0:0:0:
345,259,83261,1,2,0:0:0:0:
345,259,83344,1,10,0:0:0:0:
412,205,83511,2,0,L|382:39,2,150
422,295,84344,6,0,P|385:292|355:269,1,75,0|8,3:2|0:0,0:0:0:0:
308,187,84678,2,0,P|257:184|189:260,1,150,2|10,0:0|0:0,0:0:0:0:
113,296,85178,1,2,0:0:0:0:
41,242,85344,2,0,L|26:121,1,112.5,10|0,0:0|0:0,0:0:0:0:
5,111,85678,6,0,P|53:109|120:16,1,150,6|2,3:2|0:0,0:0:0:0:
200,0,86178,1,8,0:0:0:0:
264,62,86344,2,0,L|250:136,1,75,2|0,0:0|3:2,0:0:0:0:
210,214,86678,2,0,P|179:193|166:158,1,75,10|0,0:0|3:2,0:0:0:0:
76,121,87011,6,0,L|102:268,1,150,2|2,0:0|0:0,0:0:0:0:
53,346,87511,1,0,3:2:0:0:
53,346,87594,1,0,3:2:0:0:
53,346,87678,2,0,L|127:360,1,75,8|0,0:0|0:0,0:0:0:0:
206,317,88011,1,0,3:2:0:0:
288,374,88178,1,0,3:2:0:0:
288,374,88261,1,0,3:2:0:0:
288,374,88344,6,0,P|307:334|409:313,1,150,10|2,0:0|0:0,0:0:0:0:
494,335,88844,1,0,3:2:0:0:
511,247,89011,2,0,L|497:173,1,75,2|0,0:0|3:2,0:0:0:0:
462,92,89344,2,0,P|429:110|413:143,1,75,10|0,0:0|3:2,0:0:0:0:
419,232,89678,6,0,L|271:205,1,150,6|2,0:0|0:0,0:0:0:0:
197,144,90178,1,0,3:2:0:0:
116,189,90344,2,0,P|124:225|151:249,1,75,8|0,0:0|3:2,0:0:0:0:
237,286,90678,1,0,3:2:0:0:
196,367,90844,1,0,3:2:0:0:
196,367,90928,1,0,3:2:0:0:
196,367,91011,6,0,P|221:332|334:333,1,150,6|2,0:0|0:0,0:0:0:0:
402,373,91511,1,8,0:0:0:0:
462,305,91678,2,0,P|451:270|422:248,1,75,2|0,0:0|3:2,0:0:0:0:
334,235,92011,2,0,L|348:161,1,75,10|0,0:0|3:2,0:0:0:0:
395,82,92344,6,0,P|370:117|257:116,1,150,2|2,0:0|0:0,0:0:0:0:
193,80,92844,1,0,3:2:0:0:
120,144,93011,2,0,L|111:107,3,37.5,10|0|0|0,0:0|3:2|3:2|3:2,0:0:0:0:
87,97,93344,2,0,L|78:60,3,37.5,2|0|2|0,0:0|3:2|0:0|3:2,0:0:0:0:
54,44,93678,5,12,0:0:0:0:
0,124,93844,2,0,L|14:198,1,75,2|2,0:0|0:0,0:0:0:0:
87,252,94178,1,12,0:0:0:0:
52,334,94344,2,0,P|85:290|194:284,1,150,0|12,3:2|0:0,0:0:0:0:
260,312,94844,2,0,L|274:238,1,75,0|0,3:2|3:2,0:0:0:0:
326,169,95178,5,2,3:2:0:0:
326,169,95344,2,0,P|354:194|363:230,1,75,2|2,3:2|3:2,0:0:0:0:
450,244,95678,2,0,P|440:283|409:308,1,75,2|2,3:2|0:0,0:0:0:0:
328,313,96011,2,0,L|336:349,3,37.5,2|0|2|0,3:2|3:2|3:2|3:2,0:0:0:0:
313,376,96344,6,0,L|165:349,1,150,6|10,3:2|0:0,0:0:0:0:
78,374,96844,1,0,0:0:0:0:
21,303,97011,2,0,P|29:266|59:239,1,75,2|0,3:2|0:0,0:0:0:0:
110,173,97344,2,0,P|137:198|146:237,1,75,10|0,0:0|0:0,0:0:0:0:
222,284,97678,6,0,L|252:118,2,150,2|10|0,3:2|0:0|3:2,0:0:0:0:
284,363,98511,1,0,3:2:0:0:
284,363,98594,1,0,3:2:0:0:
284,363,98678,2,0,L|358:349,1,75,10|8,0:0|0:0,0:0:0:0:
455,355,99011,6,0,P|432:286|366:257,1,150,2|10,3:2|0:0,0:0:0:0:
275,260,99511,1,0,0:0:0:0:
231,181,99678,2,0,P|235:144|258:115,1,75,2|0,3:2|3:2,0:0:0:0:
310,46,100011,2,0,P|338:69|348:105,1,75,10|0,0:0|0:0,0:0:0:0:
410,178,100344,6,0,L|336:192,1,75,2|0,3:2|0:0,0:0:0:0:
275,260,100678,2,0,L|127:233,1,150,10|0,0:0|3:2,0:0:0:0:
39,263,101178,1,0,0:0:0:0:
3,180,101344,2,0,P|23:142|51:127,1,75,8|8,0:0|0:0,0:0:0:0:
119,63,101678,6,0,P|146:119|237:144,1,150,2|10,3:2|0:0,0:0:0:0:
310,117,102178,1,0,0:0:0:0:
386,177,102344,2,0,L|400:103,1,75,2|0,3:2|0:0,0:0:0:0:
465,43,102678,2,0,P|487:73|492:110,1,75,10|0,0:0|0:0,0:0:0:0:
467,198,103011,6,0,L|319:225,1,150,2|10,3:2|0:0,0:0:0:0:
230,208,103511,1,0,0:0:0:0:
192,293,103678,2,0,P|212:331|241:344,1,75,2|0,3:2|0:0,0:0:0:0:
240,344,103928,1,2,3:2:0:0:
240,344,104011,2,0,L|316:327,1,75,10|8,0:0|0:0,0:0:0:0:
398,371,104344,6,0,L|428:205,1,150,2|8,3:2|0:0,0:0:0:0:
406,134,104844,2,0,P|370:144|346:172,1,75,0|0,0:0|3:2,0:0:0:0:
291,243,105178,1,0,0:0:0:0:
291,243,105344,2,0,L|367:260,1,75,8|0,0:0|0:0,0:0:0:0:
451,338,105678,5,14,0:0:0:0:
468,249,105844,1,8,0:0:0:0:
451,338,106011,1,10,0:0:0:0:
256,319,106344,5,2,0:0:0:0:
256,163,106678,1,2,0:0:0:0:
65,342,107011,6,0,L|38:194,1,150,6|8,1:2|0:0,0:0:0:0:
18,106,107511,1,0,3:2:0:0:
79,39,107678,2,0,P|117:53|138:91,1,75,2|0,1:2|3:2,0:0:0:0:
212,126,108011,2,0,L|198:200,1,75,10|0,0:0|3:2,0:0:0:0:
250,272,108344,6,0,P|309:260|355:180,1,150,2|8,1:2|0:0,0:0:0:0:
392,105,108844,1,0,3:2:0:0:
479,171,109011,2,0,L|493:245,1,75,2|0,1:2|0:0,0:0:0:0:
493,245,109261,1,0,3:2:0:0:
493,245,109344,2,0,P|459:267|445:299,1,75,10|0,0:0|0:0,0:0:0:0:
512,358,109678,6,0,L|364:331,1,150,2|8,1:2|0:0,0:0:0:0:
281,367,110178,1,0,3:2:0:0:
219,297,110344,2,0,P|183:308|161:342,1,75,2|0,1:2|3:2,0:0:0:0:
80,377,110678,2,0,L|66:303,1,75,10|0,0:0|3:2,0:0:0:0:
0,239,111011,6,0,P|34:176|106:154,1,150,2|8,1:2|0:0,0:0:0:0:
187,196,111511,1,0,3:2:0:0:
259,139,111678,2,0,L|245:65,1,75,2|0,1:2|0:0,0:0:0:0:
245,65,111928,1,0,3:2:0:0:
245,65,112011,2,0,P|271:29|308:23,1,75,10|0,0:0|0:0,0:0:0:0:
383,71,112344,6,0,L|356:219,1,150,6|8,1:2|0:0,0:0:0:0:
338,306,112844,1,0,3:2:0:0:
411,358,113011,2,0,P|445:346|464:313,1,75,2|0,1:2|3:2,0:0:0:0:
512,238,113344,2,0,L|438:224,1,75,10|0,0:0|0:0,0:0:0:0:
366,155,113678,6,0,P|316:209|243:208,1,150,2|10,1:2|0:0,0:0:0:0:
179,145,114178,1,0,3:2:0:0:
109,197,114344,2,0,L|95:271,1,75,2|0,1:2|0:0,0:0:0:0:
95,270,114594,1,0,3:2:0:0:
95,270,114678,2,0,P|133:275|176:244,1,75,10|0,0:0|0:0,0:0:0:0:
243,208,115011,6,0,L|270:356,2,150,2|8|0,1:2|0:0|1:2,0:0:0:0:
201,128,115844,1,0,3:2:0:0:
201,128,116011,2,0,P|170:149|156:183,1,75,8|0,0:0|3:2,0:0:0:0:
104,260,116344,6,0,L|178:274,1,75,2|0,1:2|3:2,0:0:0:0:
238,342,116678,2,0,L|312:328,1,75,10|0,0:0|3:2,0:0:0:0:
409,318,117011,2,0,P|395:279|365:259,1,75,2|0,3:2|0:0,0:0:0:0:
368,260,117261,1,0,3:2:0:0:
368,260,117344,2,0,L|382:186,1,75,10|0,0:0|0:0,0:0:0:0:
407,93,117678,6,0,P|334:96|288:153,2,150,14|8|8,0:0|0:0|0:0,0:0:0:0:
485,137,118511,1,0,3:2:0:0:
483,227,118678,2,0,L|409:241,1,75,10|0,0:0|0:0,0:0:0:0:
349,312,119011,6,0,P|326:277|208:258,1,150,10|10,0:0|0:0,0:0:0:0:
141,280,119511,1,0,3:2:0:0:
77,231,119678,2,0,L|63:157,1,75,10|0,0:0|0:0,0:0:0:0:
63,157,119928,1,0,3:2:0:0:
63,157,120011,2,0,P|73:125|121:100,1,75,10|0,0:0|0:0,0:0:0:0:
183,44,120344,6,0,P|205:88|305:111,2,150,10|8|8,0:0|0:0|0:0,0:0:0:0:
101,3,121178,1,0,3:2:0:0:
34,62,121344,2,0,L|48:136,1,75,10|0,0:0|3:2,0:0:0:0:
17,224,121678,6,0,P|64:224|144:300,1,150,10|10,0:0|0:0,0:0:0:0:
198,356,122178,1,0,3:2:0:0:
284,321,122344,2,0,L|298:247,1,75,10|0,0:0|0:0,0:0:0:0:
298,247,122594,1,2,0:0:0:0:
297,247,122678,2,0,P|283:212|253:191,1,75,10|0,0:0|0:0,0:0:0:0:
182,126,123011,6,0,L|330:99,2,150,10|8|8,0:0|0:0|0:0,0:0:0:0:
93,141,123844,1,0,3:2:0:0:
70,228,124011,2,0,P|84:266|116:287,1,75,10|0,0:0|0:0,0:0:0:0:
183,346,124344,6,0,P|232:293|335:304,1,150,10|10,0:0|0:0,0:0:0:0:
386,334,124844,1,0,3:2:0:0:
459,278,125011,2,0,P|449:241|415:216,1,75,10|0,0:0|3:2,0:0:0:0:
421,218,125261,1,0,3:2:0:0:
421,218,125344,2,0,L|435:144,1,75,10|0,0:0|0:0,0:0:0:0:
425,54,125678,6,0,P|388:61|363:88,1,75,10|0,0:0|3:2,0:0:0:0:
300,152,126011,2,0,L|226:138,1,75,8|0,0:0|3:2,0:0:0:0:
179,63,126344,2,0,L|105:77,1,75,8|0,0:0|3:2,0:0:0:0:
16,83,126678,2,0,P|22:119|50:147,1,75,8|0,0:0|3:2,0:0:0:0:
126,188,127011,1,10,0:0:0:0:
83,267,127178,6,0,P|137:217|210:216,1,150,6|0,0:0|3:2,0:0:0:0:
290,261,127678,1,2,1:2:0:0:
365,209,127844,1,2,0:0:0:0:
365,209,127927,1,2,3:2:0:0:
365,209,128011,2,0,L|351:135,1,75,10|2,0:0|0:0,0:0:0:0:
392,53,128344,6,0,P|340:105|268:103,1,150,14|0,0:0|3:2,0:0:0:0:
189,53,128844,2,0,L|175:127,1,75,10|0,0:0|3:2,0:0:0:0:
154,214,129178,1,0,3:2:0:0:
211,280,129344,2,0,P|247:271|273:245,1,75,10|0,0:0|3:2,0:0:0:0:
337,181,129678,5,2,0:0:0:0:
406,237,129844,1,8,0:0:0:0:
487,197,130011,2,0,L|493:161,3,37.5,0|0|0|0,3:2|3:2|3:2|3:2,0:0:0:0:
512,142,130344,1,0,3:2:0:0:
380,70,130678,2,0,L|374:34,3,37.5,0|0|0|0,3:2|3:2|3:2|3:2,0:0:0:0:
351,13,131011,6,0,P|288:22|238:104,1,150,14|0,0:0|3:2,0:0:0:0:
171,150,131511,2,0,L|185:224,1,75,10|0,0:0|3:2,0:0:0:0:
203,311,131844,1,0,3:2:0:0:
135,370,132011,2,0,P|93:355|76:322,1,75,10|0,0:0|3:2,0:0:0:0:
29,254,132344,5,2,0:0:0:0:
111,209,132511,1,0,3:2:0:0:
111,209,132594,1,0,3:2:0:0:
111,209,132678,2,0,L|185:223,1,75,0|0,3:2|3:2,0:0:0:0:
243,303,133011,2,0,P|271:263|377:260,1,150,0|0,3:2|3:2,0:0:0:0:
462,290,133511,1,0,3:2:0:0:
462,290,133594,1,0,3:2:0:0:
462,290,133678,6,0,L|432:124,1,150,14|0,0:0|3:2,0:0:0:0:
400,60,134178,2,0,P|364:82|351:119,1,75,10|0,0:0|3:2,0:0:0:0:
282,169,134511,1,0,3:2:0:0:
204,123,134678,2,0,L|198:87,3,37.5,10|0|0|0,0:0|3:2|3:2|3:2,0:0:0:0:
173,68,135011,2,0,L|99:82,1,75,2|8,0:0|0:0,0:0:0:0:
33,153,135344,6,0,P|80:162|139:255,1,150,2|0,3:2|3:2,0:0:0:0:
214,305,135844,1,0,3:2:0:0:
214,305,135928,1,0,3:2:0:0:
214,305,136011,2,0,L|288:291,1,75,0|0,3:2|3:2,0:0:0:0:
377,274,136344,5,14,0:0:0:0:
457,334,136511,2,0,L|471:260,1,75,8|0,0:0|3:2,0:0:0:0:
512,175,136844,2,0,P|499:139|385:106,1,150,8|0,0:0|3:2,0:0:0:0:
320,138,137344,1,8,0:0:0:0:
251,79,137511,2,0,L|177:93,1,75,0|0,3:2|3:2,0:0:0:0:
86,91,137844,6,0,P|92:54|116:26,2,75,2|2|2,0:0|3:2|0:0,0:0:0:0:
131,169,138344,1,2,3:2:0:0:
75,240,138511,1,2,3:2:0:0:
75,240,138594,1,0,3:2:0:0:
75,240,138678,2,0,L|89:314,1,75,2|0,3:2|0:0,0:0:0:0:
161,382,139011,6,0,P|189:336|288:322,1,150,6|8,0:0|0:0,0:0:0:0:
362,366,139511,2,0,L|376:292,1,75,2|0,3:2|3:2,0:0:0:0:
393,203,139844,1,0,3:2:0:0:
350,123,140011,2,0,P|301:139|284:174,1,75,10|0,0:0|3:2,0:0:0:0:
302,245,140344,6,0,L|154:218,1,150,2|10,3:2|0:0,0:0:0:0:
68,245,140844,1,0,3:2:0:0:
15,174,141011,2,0,P|31:135|67:114,1,75,2|0,3:2|3:2,0:0:0:0:
116,49,141344,2,0,L|190:63,1,75,10|0,0:0|3:2,0:0:0:0:
264,119,141678,6,0,P|297:65|403:58,1,150,2|8,3:2|0:0,0:0:0:0:
471,66,142178,2,0,P|454:107|419:127,1,75,2|0,3:2|3:2,0:0:0:0:
350,167,142511,1,0,3:2:0:0:
386,249,142678,2,0,L|460:263,1,75,10|0,0:0|3:2,0:0:0:0:
512,342,143011,6,0,L|364:369,1,150,2|10,3:2|0:0,0:0:0:0:
275,384,143511,1,0,3:2:0:0:
206,325,143678,2,0,P|211:284|246:253,1,75,2|0,3:2|3:2,0:0:0:0:
306,207,144011,1,10,0:0:0:0:
260,137,144178,1,0,3:2:0:0:
260,137,144261,1,0,3:2:0:0:
260,137,144344,6,0,L|112:110,1,150,6|8,0:0|0:0,0:0:0:0:
21,91,144844,2,0,P|19:133|97:201,1,150,2|0,3:2|3:2,0:0:0:0:
182,222,145344,2,0,P|170:257|140:279,1,75,10|0,0:0|3:2,0:0:0:0:
69,335,145678,1,0,3:2:0:0:
69,335,145844,1,0,3:2:0:0:
146,381,146011,6,0,L|294:354,2,150,10|2|10,0:0|3:2|0:0,0:0:0:0:
1,211,147011,6,0,P|17:167|118:132,1,150,2|8,3:2|0:0,0:0:0:0:
188,179,147511,2,0,L|202:105,1,75,2|0,3:2|3:2,0:0:0:0:
229,22,147844,1,0,3:2:0:0:
229,22,148011,2,0,P|270:43|286:83,1,75,10|2,0:0|3:2,0:0:0:0:
320,149,148344,6,0,L|283:155,2,37.5,2|2|2,0:0|0:0|3:2,0:0:0:0:
389,90,148678,2,0,L|463:104,1,75,10|0,0:0|3:2,0:0:0:0:
512,182,149011,2,0,P|494:223|456:240,1,75,2|2,3:2|3:2,0:0:0:0:
469,238,149261,1,2,3:2:0:0:
469,237,149344,2,0,L|483:311,1,75,2|2,3:2|0:0,0:0:0:0:
425,380,149678,6,0,L|357:368,1,67.4999979400635,0|0,3:2|3:2,0:0:0:0:
301,297,150011,2,0,P|257:345|191:348,1,134.999995880127,8|2,0:0|0:0,0:0:0:0:
116,309,150511,1,0,3:2:0:0:
37,349,150678,1,10,0:0:0:0:
37,349,150844,2,0,L|25:283,1,67.4999979400635,2|0,3:2|0:0,0:0:0:0:
97,224,151178,2,0,L|109:158,1,67.4999979400635,2|8,3:2|0:0,0:0:0:0:
70,79,151511,2,0,L|203:54,1,134.999995880127,2|2,3:2|3:2,0:0:0:0:
290,54,152011,2,0,P|287:91|262:120,1,67.4999979400635,8|2,0:0|3:2,0:0:0:0:
190,154,152344,6,0,P|256:151|308:192,1,134.999995880127,2|10,3:2|0:0,0:0:0:0:
379,245,152844,2,0,P|416:228|432:198,1,67.4999979400635,2|0,3:2|3:2,0:0:0:0:
509,161,153178,2,0,L|497:95,1,67.4999979400635,2|8,3:2|0:0,0:0:0:0:
406,73,153511,2,0,L|429:205,2,134.999995880127,2|0|0,3:2|3:2|3:2,0:0:0:0:
356,2,154344,2,0,P|330:23|319:55,1,67.4999979400635,2|0,3:2|3:2,0:0:0:0:
336,140,154678,2,0,L|268:128,1,67.4999979400635,10|0,0:0|3:2,0:0:0:0:
203,74,155011,5,2,3:2:0:0:
132,129,155178,2,0,P|151:193|208:226,1,134.999995880127,2|2,0:0|3:2,0:0:0:0:
295,229,155678,2,0,P|290:264|264:292,1,67.4999979400635,2|0,3:2|3:2,0:0:0:0:
187,319,156011,1,10,0:0:0:0:
246,384,156178,2,0,L|113:359,1,134.999995880127,2|2,3:2|3:2,0:0:0:0:
30,338,156678,2,0,P|44:302|76:283,1,67.4999979400635,8|2,0:0|3:2,0:0:0:0:
147,250,157011,2,0,P|141:204|71:152,1,134.999995880127,2|10,3:2|0:0,0:0:0:0:
32,75,157511,1,2,3:2:0:0:
105,26,157678,6,0,L|171:37,1,67.4999979400635,0|2,3:2|3:2,0:0:0:0:
171,37,157928,1,2,0:0:0:0:
171,37,158011,1,10,0:0:0:0:
240,102,158178,2,0,L|373:77,1,134.999995880127,0|0,3:2|3:2,0:0:0:0:
443,24,158678,1,8,0:0:0:0:
508,81,158844,2,0,P|499:117|477:137,1,67.4999979400635,0|0,3:2|3:2,0:0:0:0:
404,179,159178,1,0,3:2:0:0:
404,179,159344,2,0,P|413:215|435:235,1,67.4999979400635,8|0,0:0|3:2,0:0:0:0:
492,309,159678,2,0,L|425:320,1,67.4999979400635,0|0,3:2|1:2,0:0:0:0:
358,379,160011,2,0,P|336:342|269:325,1,112.5,0|0,1:2|0:0,0:0:0:0:
245,340,160344,6,0,L|231:266,1,75,4|0,3:2|3:2,0:0:0:0:
146,223,160678,2,0,P|219:234|275:188,1,150,8|2,0:0|3:2,0:0:0:0:
303,102,161178,1,0,3:2:0:0:
245,40,161344,1,10,0:0:0:0:
245,40,161511,6,0,L|171:54,1,75,2|0,3:2|3:2,0:0:0:0:
96,103,161844,1,0,3:2:0:0:
62,22,162011,2,0,L|35:169,1,150,10|2,0:0|3:2,0:0:0:0:
21,258,162511,1,0,3:2:0:0:
87,316,162678,2,0,P|124:313|150:287,1,75,10|0,0:0|3:2,0:0:0:0:
208,218,163011,6,0,P|281:230|332:289,1,150,2|10,3:2|0:0,0:0:0:0:
402,340,163511,2,0,L|416:266,1,75,2|0,3:2|3:2,0:0:0:0:
472,195,163844,1,2,3:2:0:0:
428,115,164011,1,10,0:0:0:0:
428,115,164178,6,0,P|350:121|296:199,1,150,0|0,3:2|3:2,0:0:0:0:
226,218,164678,2,0,P|193:201|174:169,1,75,8|0,0:0|3:2,0:0:0:0:
93,107,165011,2,0,L|79:181,1,75,2|0,3:2|3:2,0:0:0:0:
100,268,165344,1,10,0:0:0:0:
34,327,165511,1,0,3:2:0:0:
34,327,165594,1,0,3:2:0:0:
34,327,165678,6,0,L|182:300,1,150,2|8,3:2|0:0,0:0:0:0:
269,317,166178,1,2,3:2:0:0:
289,229,166344,2,0,P|316:237|347:279,1,75,2|0,3:2|3:2,0:0:0:0:
391,349,166678,1,10,0:0:0:0:
475,318,166844,6,0,L|502:171,1,150,2|2,3:2|3:2,0:0:0:0:
492,80,167344,2,0,P|456:89|429:115,1,75,10|0,0:0|3:2,0:0:0:0:
365,181,167678,2,0,P|294:165|254:104,1,150,2|10,3:2|0:0,0:0:0:0:
200,30,168178,1,2,3:2:0:0:
123,76,168344,6,0,L|109:150,1,75,2|0,3:2|3:2,0:0:0:0:
109,149,168594,1,2,0:0:0:0:
109,149,168678,1,10,0:0:0:0:
52,226,168844,2,0,P|121:247|164:315,1,150,0|0,3:2|3:2,0:0:0:0:
222,376,169344,1,8,0:0:0:0:
305,342,169511,6,0,L|319:268,1,75,0|0,3:2|3:2,0:0:0:0:
385,207,169844,1,0,3:2:0:0:
338,129,170011,2,0,P|301:132|272:155,1,75,8|0,0:0|1:2,0:0:0:0:
203,214,170344,2,0,L|217:288,1,75,0|0,3:2|3:2,0:0:0:0:
216,287,170594,1,2,3:2:0:0:
216,287,170678,2,0,P|188:318|147:321,1,75,2|0,3:2|0:0,0:0:0:0:
77,384,171011,6,0,L|47:218,1,150,14|2,3:2|3:2,0:0:0:0:
37,147,171511,1,8,0:0:0:0:
106,89,171678,2,0,P|140:101|161:131,1,75,2|0,3:2|3:2,0:0:0:0:
223,201,172011,6,0,P|295:188|335:127,1,150,10|2,0:0|0:0,0:0:0:0:
393,58,172511,1,0,3:2:0:0:
465,111,172678,2,0,L|479:185,1,75,2|0,3:2|3:2,0:0:0:0:
478,184,172928,1,0,3:2:0:0:
478,184,173011,1,8,0:0:0:0:
341,309,173344,2,0,L|332:346,3,37.5,0|0|0|0,3:2|3:2|3:2|3:2,0:0:0:0:
346,372,173678,6,0,L|198:345,1,150,14|2,0:0|3:2,0:0:0:0:
113,375,174178,1,8,0:0:0:0:
52,309,174344,2,0,P|64:272|108:247,1,75,2|0,0:0|3:2,0:0:0:0:
162,179,174678,6,0,P|202:239|273:252,1,150,10|2,0:0|3:2,0:0:0:0:
355,311,175178,1,0,3:2:0:0:
355,311,175261,1,0,3:2:0:0:
355,311,175344,2,0,L|369:237,1,75,2|0,3:2|3:2,0:0:0:0:
452,202,175678,2,0,L|422:36,1,150,8|0,0:0|3:2,0:0:0:0:
349,9,176178,1,0,3:2:0:0:
349,9,176261,1,0,3:2:0:0:
349,9,176344,6,0,P|276:19|233:78,1,150,14|2,0:0|3:2,0:0:0:0:
206,164,176844,1,8,0:0:0:0:
271,226,177011,2,0,L|345:212,1,75,2|0,3:2|3:2,0:0:0:0:
434,202,177344,2,0,P|433:245|411:275,1,75,10|0,0:0|3:2,0:0:0:0:
387,368,177678,6,0,P|336:315|262:312,1,150,2|2,3:2|3:2,0:0:0:0:
184,358,178178,1,0,3:2:0:0:
101,317,178344,2,0,L|94:280,3,37.5,8|0|0|0,0:0|0:0|3:2|3:2,0:0:0:0:
69,262,178678,2,0,L|62:225,3,37.5,0|0|0|0,3:2|3:2|3:2|3:2,0:0:0:0:
43,202,179011,5,14,0:0:0:0:
103,131,179178,2,0,P|138:141|164:168,1,75,0|2,0:0|3:2,0:0:0:0:
208,246,179511,1,8,0:0:0:0:
271,181,179678,2,0,L|244:328,1,150,10|10,0:0|0:0,0:0:0:0:
315,384,180178,6,0,P|350:373|373:344,1,75,8|2,0:0|3:2,0:0:0:0:
458,303,180511,1,0,3:2:0:0:
458,303,180594,1,0,3:2:0:0:
458,303,180678,2,0,L|444:229,1,75,2|0,3:2|3:2,0:0:0:0:
422,141,181011,2,0,P|386:152|363:181,1,75,0|0,3:2|3:2,0:0:0:0:
292,235,181344,2,0,L|299:272,3,37.5,0|0|0|0,3:2|3:2|3:2|3:2,0:0:0:0:
285,296,181678,6,0,P|220:288|168:208,2,150,6|10|0,3:2|0:0|3:2,0:0:0:0:
372,270,182511,1,0,0:0:0:0:
447,329,182678,2,0,L|461:255,1,75,8|0,0:0|0:0,0:0:0:0:
507,177,183011,6,0,P|435:162|395:101,1,150,0|8,3:2|0:0,0:0:0:0:
349,23,183511,1,0,0:0:0:0:
271,68,183678,2,0,L|248:185,2,112.5,2|2|10,3:2|3:2|0:0,0:0:0:0:
200,12,184344,6,0,P|127:21|81:84,1,150,2|10,3:2|0:0,0:0:0:0:
50,163,184844,1,2,0:0:0:0:
104,235,185011,2,0,L|178:221,1,75,0|0,3:2|0:0,0:0:0:0:
266,212,185344,2,0,P|266:249|247:280,1,75,8|0,0:0|0:0,0:0:0:0:
286,368,185678,6,0,P|231:318|158:317,1,150,0|8,3:2|0:0,0:0:0:0:
79,362,186178,1,0,0:0:0:0:
15,299,186344,2,0,L|29:225,1,75,2|2,3:2|0:0,0:0:0:0:
111,187,186678,2,0,L|97:113,1,75,10|10,0:0|0:0,0:0:0:0:
65,25,187011,6,0,P|139:27|191:78,1,150,6|8,0:0|0:0,0:0:0:0:
251,148,187511,2,0,P|326:144|375:89,1,150,2|0,0:0|0:0,0:0:0:0:
453,39,188011,2,0,L|467:113,1,75,8|0,0:0|0:0,0:0:0:0:
431,197,188344,5,0,3:2:0:0:
501,263,188511,1,2,0:0:0:0:
500,263,188678,2,0,P|471:287|435:290,1,75,10|2,0:0|0:0,0:0:0:0:
413,377,189011,2,0,P|378:364|357:334,1,75,2|2,3:2|0:0,0:0:0:0:
270,358,189344,2,0,P|263:321|279:288,1,75,10|10,0:0|0:0,0:0:0:0:
351,221,189678,6,0,L|203:194,1,150,2|10,3:2|0:0,0:0:0:0:
114,177,190178,1,0,0:0:0:0:
54,243,190344,2,0,P|65:279|92:304,1,75,2|0,3:2|0:0,0:0:0:0:
173,363,190678,2,0,L|187:289,1,75,10|0,0:0|0:0,0:0:0:0:
270,243,191011,6,0,L|240:77,1,150,2|10,3:2|0:0,0:0:0:0:
159,61,191511,1,0,0:0:0:0:
95,124,191678,2,0,L|109:198,1,75,2|0,1:2|0:0,0:0:0:0:
108,197,191928,1,0,1:2:0:0:
108,197,192011,1,0,3:2:0:0:
175,270,192178,1,0,1:2:0:0:
111,336,192344,6,0,L|259:363,1,150,6|10,0:0|0:0,0:0:0:0:
341,327,192844,1,0,0:0:0:0:
418,384,193011,2,0,L|432:310,1,75,0|2,3:2|0:0,0:0:0:0:
402,225,193344,1,10,0:0:0:0:
466,162,193511,1,0,3:2:0:0:
466,162,193678,6,0,L|452:88,1,75,0|0,3:2|0:0,0:0:0:0:
427,3,194011,2,0,P|392:15|369:45,1,75,8|0,0:0|0:0,0:0:0:0:
374,135,194344,2,0,L|256:112,2,112.5,2|2|2,3:2|3:2|3:2,0:0:0:0:
466,162,195011,6,0,P|394:173|347:229,1,150,2|8,3:2|0:0,0:0:0:0:
313,313,195511,1,0,0:0:0:0:
222,325,195678,2,0,P|188:310|168:279,1,75,0|2,3:2|0:0,0:0:0:0:
113,207,196011,1,10,0:0:0:0:
146,124,196178,1,0,3:2:0:0:
146,124,196344,6,0,L|132:50,1,75,0|0,3:2|0:0,0:0:0:0:
42,64,196678,2,0,L|56:138,1,75,8|0,0:0|0:0,0:0:0:0:
113,207,197011,1,0,3:2:0:0:
31,244,197178,2,0,P|104:249|157:300,1,150,8|10,0:0|0:0,0:0:0:0:
233,358,197678,6,0,L|247:284,1,75,6|2,3:2|0:0,0:0:0:0:
325,238,198011,2,0,L|311:164,1,75,10|0,0:0|0:0,0:0:0:0:
347,76,198344,2,0,P|294:126|221:126,1,150,2|8,3:2|0:0,0:0:0:0:
137,92,198844,1,0,3:2:0:0:
66,148,199011,6,0,L|92:295,2,150,0|8|0,3:2|0:0|3:2,0:0:0:0:
74,59,199844,1,0,0:0:0:0:
74,59,200011,2,0,P|110:67|137:92,1,75,10|10,0:0|0:0,0:0:0:0:
199,169,200344,6,0,P|252:165|316:89,1,150,2|10,3:2|0:0,0:0:0:0:
376,30,200844,1,0,0:0:0:0:
448,87,201011,2,0,L|462:161,1,75,2|0,3:2|0:0,0:0:0:0:
471,250,201344,2,0,P|429:246|398:219,1,75,10|0,0:0|0:0,0:0:0:0:
349,154,201678,5,2,3:2:0:0:
283,219,201844,2,0,L|297:293,1,75,4|10,0:0|0:0,0:0:0:0:
337,378,202178,1,4,0:0:0:0:
337,378,202344,2,0,P|369:358|385:324,2,75,10|2|10,0:0|3:2|0:0,0:0:0:0:
165,382,203011,6,0,P|145:340|52:305,1,150,6|10,0:0|0:0,0:0:0:0:
0,227,203511,1,0,0:0:0:0:
37,138,203678,2,0,L|111:124,1,75,2|0,3:2|3:2,0:0:0:0:
202,124,204011,2,0,P|200:160|176:189,1,75,10|0,0:0|0:0,0:0:0:0:
93,220,204344,6,0,L|241:247,1,150,2|10,3:2|0:0,0:0:0:0:
312,307,204844,1,0,0:0:0:0:
401,268,205011,2,0,L|387:194,1,75,2|2,3:2|3:2,0:0:0:0:
387,194,205261,1,0,3:2:0:0:
387,194,205344,2,0,P|399:161|447:141,1,75,10|2,0:0|3:2,0:0:0:0:
506,74,205678,6,0,L|358:47,1,150,2|10,3:2|0:0,0:0:0:0:
270,78,206178,1,0,0:0:0:0:
199,21,206344,1,2,3:2:0:0:
199,21,206511,2,0,P|163:49|153:80,1,75,0|10,3:2|0:0,0:0:0:0:
164,163,206844,1,0,0:0:0:0:
78,186,207011,6,0,P|151:194|202:246,1,150,2|10,3:2|0:0,0:0:0:0:
235,332,207511,1,0,0:0:0:0:
163,384,207678,2,0,L|89:370,1,75,2|2,3:2|3:2,0:0:0:0:
89,370,207928,1,0,3:2:0:0:
89,370,208011,2,0,P|97:332|130:306,1,75,2|2,3:2|3:2,0:0:0:0:
202,246,208344,6,0,P|248:302|323:310,1,150,6|10,0:0|0:0,0:0:0:0:
404,279,208844,1,0,0:0:0:0:
482,337,209011,2,0,L|496:263,1,75,2|0,3:2|3:2,0:0:0:0:
429,196,209344,2,0,L|415:122,1,75,10|0,0:0|0:0,0:0:0:0:
463,46,209678,6,0,P|420:87|324:78,1,150,2|10,3:2|0:0,0:0:0:0:
248,46,210178,2,0,P|237:81|247:117,1,75,0|2,3:2|3:2,0:0:0:0:
317,180,210511,1,2,3:2:0:0:
247,237,210678,2,0,L|173:223,1,75,8|2,0:0|0:0,0:0:0:0:
95,283,211011,6,0,L|69:136,1,150,2|10,3:2|0:0,0:0:0:0:
53,46,211511,1,0,0:0:0:0:
135,0,211678,2,0,P|167:11|191:45,1,75,2|10,3:2|0:0,0:0:0:0:
248,117,212011,2,0,L|174:131,1,75,2|0,3:2|0:0,0:0:0:0:
114,208,212344,6,0,L|262:235,1,150,2|10,3:2|0:0,0:0:0:0:
332,295,212844,1,0,0:0:0:0:
421,258,213011,2,0,P|416:218|392:191,1,75,0|0,1:2|3:2,0:0:0:0:
394,192,213261,1,0,1:2:0:0:
394,192,213344,2,0,L|408:118,1,75,0|0,0:0|1:2,0:0:0:0:
484,61,213678,5,6,0:0:0:0:
419,48,223678,6,0,L|427:104,3,56.2500021457673,0|0|0|0,1:0|1:0|1:0|1:0,0:0:0:0:
508,160,224344,6,0,P|436:142|371:177,1,150,6|2,3:2|0:0,0:0:0:0:
315,247,224844,1,8,0:0:0:0:
232,209,225011,2,0,L|218:135,1,75,2|0,0:0|3:2,0:0:0:0:
167,61,225344,2,0,P|138:84|126:119,1,75,10|0,0:0|3:2,0:0:0:0:
72,193,225678,5,2,0:0:0:0:
139,252,225844,1,8,0:0:0:0:
94,330,226011,2,0,L|58:336,3,37.5,2|0|0|0,0:0|3:2|3:2|3:2,0:0:0:0:
35,319,226344,1,8,0:0:0:0:
235,372,226678,2,0,L|272:366,3,37.5,0|0|0|0,3:2|3:2|3:2|3:2,0:0:0:0:
299,378,227011,6,0,L|325:231,1,150,10|2,0:0|0:0,0:0:0:0:
306,140,227511,1,0,3:2:0:0:
395,115,227678,2,0,P|427:133|445:165,1,75,2|0,0:0|3:2,0:0:0:0:
502,241,228011,2,0,L|428:255,1,75,10|0,0:0|3:2,0:0:0:0:
359,314,228344,6,0,P|313:256|241:243,1,150,6|2,0:0|0:0,0:0:0:0:
159,292,228844,1,0,3:2:0:0:
159,292,228928,1,0,3:2:0:0:
159,292,229011,2,0,L|145:218,1,75,4|0,0:0|3:2,0:0:0:0:
169,133,229344,1,0,3:2:0:0:
119,70,229511,1,0,3:2:0:0:
119,70,229594,1,0,3:2:0:0:
119,70,229678,6,0,P|180:109|252:94,1,150,6|2,0:0|0:0,0:0:0:0:
328,45,230178,1,8,0:0:0:0:
390,109,230344,2,0,L|376:183,1,75,2|0,0:0|3:2,0:0:0:0:
290,220,230678,2,0,L|304:294,1,75,10|0,0:0|3:2,0:0:0:0:
370,358,231011,6,0,L|222:331,1,150,2|2,0:0|0:0,0:0:0:0:
139,362,231511,1,0,3:2:0:0:
68,303,231678,2,0,L|62:267,3,37.5,14|0|0|0,0:0|3:2|3:2|3:2,0:0:0:0:
34,253,232011,2,0,L|28:217,3,37.5,2|0|0|0,0:0|3:2|0:0|3:2,0:0:0:0:
8,193,232344,5,12,0:0:0:0:
71,126,232511,2,0,P|108:134|134:160,1,75,8|0,0:0|3:2,0:0:0:0:
205,231,232844,2,0,P|280:223|327:166,1,150,8|0,0:0|3:2,0:0:0:0:
362,87,233344,1,8,0:0:0:0:
362,87,233511,1,8,0:0:0:0:
447,57,233678,5,14,0:0:0:0:
473,204,234011,1,10,0:0:0:0:
256,78,234344,5,2,0:0:0:0:
256,174,234678,1,2,0:0:0:0:
65,57,235011,6,0,L|38:204,1,150,6|8,3:2|0:0,0:0:0:0:
19,292,235511,1,0,0:0:0:0:
83,354,235678,2,0,P|117:342|138:312,1,75,2|0,3:2|0:0,0:0:0:0:
219,270,236011,2,0,L|205:196,1,75,10|0,0:0|0:0,0:0:0:0:
239,109,236344,6,0,P|312:111|367:161,1,150,2|8,3:2|0:0,0:0:0:0:
411,240,236844,1,0,0:0:0:0:
499,231,237011,2,0,L|513:157,1,75,2|0,3:2|0:0,0:0:0:0:
500,71,237344,2,0,P|463:79|438:106,1,75,10|0,0:0|0:0,0:0:0:0:
367,161,237678,6,0,L|394:308,1,150,6|8,3:2|0:0,0:0:0:0:
340,384,238178,1,0,0:0:0:0:
253,359,238344,2,0,P|230:329|229:292,1,75,2|0,3:2|0:0,0:0:0:0:
251,204,238678,2,0,L|177:218,1,75,10|0,0:0|0:0,0:0:0:0:
129,298,239011,6,0,P|144:226|105:164,1,150,2|8,3:2|0:0,0:0:0:0:
29,115,239511,1,0,0:0:0:0:
79,40,239678,2,0,L|153:26,1,75,2|0,3:2|3:2,0:0:0:0:
242,21,240011,2,0,P|239:57|216:88,1,75,10|0,0:0|0:0,0:0:0:0:
133,121,240344,6,0,L|281:148,1,150,6|8,3:2|0:0,0:0:0:0:
365,116,240844,1,0,3:2:0:0:
436,174,241011,2,0,P|452:206|447:243,1,75,2|0,3:2|0:0,0:0:0:0:
393,315,241344,2,0,L|319:301,1,75,10|0,0:0|0:0,0:0:0:0:
252,368,241678,6,0,P|227:324|131:305,1,150,2|10,3:2|0:0,0:0:0:0:
50,332,242178,1,0,0:0:0:0:
5,254,242344,2,0,L|19:180,1,75,2|0,3:2|3:2,0:0:0:0:
46,96,242678,2,0,P|80:109|101:140,1,75,10|0,0:0|3:2,0:0:0:0:
99,230,243011,6,0,L|247:203,2,150,2|8|0,3:2|0:0|3:2,0:0:0:0:
11,255,243844,1,0,0:0:0:0:
11,255,244011,2,0,P|25:289|56:309,1,75,8|0,0:0|3:2,0:0:0:0:
109,382,244344,6,0,L|183:368,1,75,2|0,0:0|0:0,0:0:0:0:
215,283,244678,2,0,L|289:297,1,75,10|0,0:0|0:0,0:0:0:0:
357,360,245011,1,2,3:2:0:0:
444,327,245178,1,8,0:0:0:0:
444,327,245261,1,8,0:0:0:0:
444,327,245344,2,0,P|444:290|426:258,1,75,2|0,3:2|3:2,0:0:0:0:
343,214,245678,6,0,P|358:173|471:134,2,150,6|8|0,0:0|0:0|3:2,0:0:0:0:
356,305,246511,1,0,0:0:0:0:
283,358,246678,2,0,L|209:344,1,75,10|0,0:0|0:0,0:0:0:0:
126,380,247011,6,0,P|120:339|23:273,1,150,2|10,3:2|0:0,0:0:0:0:
0,193,247511,1,0,0:0:0:0:
52,119,247678,2,0,L|126:105,1,75,2|0,3:2|3:2,0:0:0:0:
214,88,248011,2,0,P|213:133|187:169,1,75,10|0,0:0|0:0,0:0:0:0:
115,194,248344,6,0,L|263:221,2,150,6|8|0,0:0|0:0|3:2,0:0:0:0:
26,213,249178,1,0,0:0:0:0:
7,300,249344,2,0,P|27:330|62:343,1,75,10|0,0:0|0:0,0:0:0:0:
152,384,249678,6,0,P|183:336|280:322,1,150,2|10,3:2|0:0,0:0:0:0:
355,356,250178,1,0,0:0:0:0:
426,299,250344,2,0,L|412:225,1,75,2|0,3:2|3:2,0:0:0:0:
327,191,250678,2,0,L|341:117,1,75,10|0,0:0|0:0,0:0:0:0:
375,33,251011,6,0,P|337:77|237:77,2,150,6|8|0,0:0|0:0|3:2,0:0:0:0:
463,4,251844,1,0,0:0:0:0:
512,80,252011,2,0,L|498:154,1,75,10|0,0:0|0:0,0:0:0:0:
451,236,252344,6,0,P|411:190|312:182,1,150,2|10,3:2|0:0,0:0:0:0:
250,225,252844,1,0,3:2:0:0:
181,165,253011,2,0,L|195:91,1,75,2|0,3:2|3:2,0:0:0:0:
178,2,253344,2,0,P|130:23|114:51,1,75,10|0,0:0|3:2,0:0:0:0:
33,72,253678,6,0,L|60:219,1,150,2|8,3:2|0:0,0:0:0:0:
26,303,254178,1,0,0:0:0:0:
96,360,254344,2,0,P|133:348|156:312,1,75,0|0,3:2|0:0,0:0:0:0:
186,235,254678,2,0,P|223:247|246:283,1,75,8|0,0:0|3:2,0:0:0:0:
322,323,255011,6,0,L|336:249,1,75,0|0,0:0|3:2,0:0:0:0:
408,195,255344,2,0,L|394:121,1,75,8|0,0:0|3:2,0:0:0:0:
375,32,255678,5,2,3:2:0:0:
296,75,255844,1,0,3:2:0:0:
227,24,256011,1,2,0:0:0:0:
227,24,256178,1,0,3:2:0:0:
152,74,256344,6,0,L|179:221,1,150,6|8,0:0|0:0,0:0:0:0:
140,307,256844,1,0,3:2:0:0:
212,366,257011,2,0,P|247:353|273:308,1,75,2|0,3:2|3:2,0:0:0:0:
298,234,257344,2,0,L|372:248,1,75,10|0,0:0|0:0,0:0:0:0:
434,318,257678,5,10,0:0:0:0:
512,266,257844,1,0,3:2:0:0:
512,266,258011,2,0,L|498:192,1,75,8|0,0:0|3:2,0:0:0:0:
477,110,258344,2,0,P|442:123|416:168,1,75,2|0,3:2|3:2,0:0:0:0:
419,152,258594,1,0,3:2:0:0:
419,152,258678,2,0,L|345:138,1,75,2|0,3:2|0:0,0:0:0:0:
279,69,259011,6,0,P|245:115|136:115,1,150,14|8,0:0|0:0,0:0:0:0:
74,75,259511,1,0,3:2:0:0:
17,149,259678,2,0,L|31:223,1,75,10|0,0:0|3:2,0:0:0:0:
62,311,260011,2,0,P|100:291|118:245,1,75,10|0,0:0|0:0,0:0:0:0:
197,218,260344,5,10,0:0:0:0:
255,297,260511,1,0,3:2:0:0:
255,297,260678,2,0,L|329:311,1,75,8|0,0:0|3:2,0:0:0:0:
408,377,261011,2,0,P|431:339|478:328,1,75,10|0,0:0|3:2,0:0:0:0:
458,328,261261,1,0,3:2:0:0:
458,328,261344,2,0,L|444:254,1,75,2|0,3:2|0:0,0:0:0:0:
484,172,261678,6,0,P|437:170|358:77,1,150,14|8,0:0|0:0,0:0:0:0:
331,15,262178,1,0,3:2:0:0:
238,3,262344,2,0,P|199:28|188:77,1,75,10|0,0:0|0:0,0:0:0:0:
185,146,262678,1,10,0:0:0:0:
104,181,262844,1,0,3:2:0:0:
104,181,262928,1,0,3:2:0:0:
104,181,263011,6,0,L|251:208,1,150,10|10,0:0|0:0,0:0:0:0:
329,272,263511,1,0,3:2:0:0:
419,237,263678,2,0,L|433:163,1,75,2|0,3:2|3:2,0:0:0:0:
433,164,263928,1,0,3:2:0:0:
433,164,264011,2,0,P|415:127|373:111,1,75,10|0,0:0|0:0,0:0:0:0:
320,39,264344,6,0,P|296:80|182:88,1,150,14|8,0:0|0:0,0:0:0:0:
115,61,264844,1,0,3:2:0:0:
39,117,265011,2,0,L|53:191,1,75,8|0,0:0|0:0,0:0:0:0:
119,256,265344,1,8,0:0:0:0:
82,344,265511,1,0,3:2:0:0:
82,344,265678,6,0,L|156:358,1,75,10|0,0:0|0:0,0:0:0:0:
220,290,266011,2,0,L|294:276,1,75,10|0,0:0|3:2,0:0:0:0:
376,320,266344,1,10,0:0:0:0:
440,253,266511,1,0,3:2:0:0:
440,253,266594,1,0,3:2:0:0:
440,253,266678,2,0,P|429:217|400:193,1,75,10|0,0:0|0:0,0:0:0:0:
336,114,267011,6,0,P|312:161|195:175,2,150,6|8|8,0:0|0:0|0:0,0:0:0:0:
390,37,267844,1,0,3:2:0:0:
475,76,268011,2,0,L|489:150,1,75,10|0,0:0|3:2,0:0:0:0:
500,239,268344,6,0,L|426:225,1,75,10|0,0:0|3:2,0:0:0:0:
332,215,268678,2,0,P|335:252|355:283,1,75,10|0,0:0|3:2,0:0:0:0:
411,371,269011,2,0,L|337:385,1,75,10|0,0:0|3:2,0:0:0:0:
337,384,269261,1,0,3:2:0:0:
337,384,269344,2,0,P|300:369|277:336,1,75,10|0,0:0|0:0,0:0:0:0:
209,272,269678,6,0,L|236:125,2,150,14|8|8,0:0|0:0|0:0,0:0:0:0:
189,363,270511,1,0,3:2:0:0:
97,383,270678,2,0,P|65:362|49:321,1,75,10|0,0:0|3:2,0:0:0:0:
0,251,271011,6,0,L|74:237,1,75,10|0,0:0|3:2,0:0:0:0:
163,210,271344,2,0,P|147:176|115:156,1,75,10|0,0:0|3:2,0:0:0:0:
23,136,271678,1,10,0:0:0:0:
85,67,271844,1,0,3:2:0:0:
85,67,271928,1,0,3:2:0:0:
85,67,272011,2,0,L|159:53,1,75,10|0,0:0|3:2,0:0:0:0:
241,96,272344,6,0,P|289:51|370:52,2,150,14|8|8,0:0|0:0|0:0,0:0:0:0:
202,182,273178,1,0,3:2:0:0:
271,244,273344,2,0,L|345:230,1,75,10|0,0:0|3:2,0:0:0:0:
416,168,273678,5,10,0:0:0:0:
498,219,273844,1,0,3:2:0:0:
498,219,274011,2,0,P|494:256|467:282,1,75,10|0,0:0|3:2,0:0:0:0:
447,379,274344,2,0,L|373:365,1,75,10|0,0:0|3:2,0:0:0:0:
373,365,274594,1,0,3:2:0:0:
373,365,274678,2,0,P|344:341|333:305,1,75,10|0,0:0|3:2,0:0:0:0:
291,223,275011,6,0,P|236:228|170:310,1,150,10|8,0:0|0:0,0:0:0:0:
121,372,275511,1,0,3:2:0:0:
42,319,275678,2,0,L|28:245,1,75,8|0,0:0|3:2,0:0:0:0:
6,153,276011,1,8,0:0:0:0:
63,79,276178,1,0,3:2:0:0:
63,79,276344,6,0,P|99:87|126:112,1,75,0|0,3:2|3:2,0:0:0:0:
202,168,276678,2,0,L|216:94,1,75,8|0,0:0|3:2,0:0:0:0:
299,51,277011,1,8,0:0:0:0:
371,126,277178,1,0,3:2:0:0:
371,126,277261,1,0,3:2:0:0:
371,126,277344,2,0,L|357:200,1,75,8|8,0:0|0:0,0:0:0:0:
269,247,277678,5,4,0:0:0:0:
