osu file format v14

[General]
AudioFilename: audio.mp3
AudioLeadIn: 0
PreviewTime: 106261
Countdown: 0
SampleSet: Soft
StackLeniency: 0.3
Mode: 0
LetterboxInBreaks: 0
WidescreenStoryboard: 1

[Editor]
Bookmarks: 101011,189011
DistanceSpacing: 0.5
BeatDivisor: 4
GridSize: 32
TimelineZoom: 2.300001

[Metadata]
Title:KIZUNA
TitleUnicode:KIZUNA
Artist:angela
ArtistUnicode:angela
Creator:dahkjdas
Version:LandoriK's Insane
Source:K RETURN OF KINGS
Tags:japanese full version pop anime ed ending jpop j-pop rock jrock j-rock kuuti LandoriK Ayesha Altugle Shizuku- Kazato Asa Shikibe Mayu Kyuuchie Amateurre
BeatmapID:3852041
BeatmapSetID:1809920

[Difficulty]
HPDrainRate:5
CircleSize:4
OverallDifficulty:8
ApproachRate:9
SliderMultiplier:1.8
SliderTickRate:1

[Events]
//Background and Video events
0,0,"bg.jpg",0,0
//Break Periods
2,32544,42078
2,128544,135744
2,213878,223078
//Storyboard Layer 0 (Background)
//Storyboard Layer 1 (Fail)
//Storyboard Layer 2 (Pass)
//Storyboard Layer 3 (Foreground)
//Storyboard Layer 4 (Overlay)
//Storyboard Sound Samples

[TimingPoints]
345,333.333333333333,4,2,1,30,1,0
345,-166.666666666667,4,2,1,30,0,0
10344,-100,4,2,1,60,0,0
11011,-100,4,2,1,70,0,0
13011,-142.857142857143,4,2,1,50,0,0
13678,-100,4,2,1,70,0,0
15678,-142.857142857143,4,2,1,50,0,0
16344,-100,4,2,1,70,0,0
18344,-142.857142857143,4,2,1,50,0,0
19011,-100,4,2,1,70,0,0
21344,-90.9090909090909,4,2,1,70,0,0
21678,-90.9090909090909,4,2,1,70,0,0
22678,-105.263157894737,4,2,1,70,0,0
31678,-133.333333333333,4,2,1,70,0,0
32344,-200,4,2,1,30,0,0
42678,-133.333333333333,4,2,1,40,0,0
43011,-166.666666666667,4,2,1,40,0,0
48011,-142.857142857143,4,2,1,40,0,0
53344,-166.666666666667,4,2,1,40,0,0
53678,-100,4,2,1,70,0,0
54178,-111.111111111111,4,2,1,70,0,0
64344,-133.333333333333,4,2,1,50,0,0
72011,-117.647058823529,4,2,1,50,0,0
74344,-142.857142857143,4,2,1,50,0,0
74678,-90.9090909090909,4,2,1,60,0,0
75011,-111.111111111111,4,2,1,50,0,0
85011,-100,4,2,1,50,0,0
85678,-100,4,2,1,70,0,0
96344,-100,4,2,1,70,0,0
103344,-90.9090909090909,4,2,1,70,0,0
105678,-90.9090909090909,4,2,1,80,0,0
106344,-90.9090909090909,4,2,1,60,0,0
107011,-90.9090909090909,4,2,1,80,0,1
128344,-100,4,2,1,70,0,0
139011,-90.9090909090909,4,2,1,70,0,0
140344,-100,4,2,1,70,0,0
149678,-111.111111111111,4,2,1,50,0,0
160011,-90.9090909090908,4,2,1,50,0,0
160678,-111.111111111111,4,2,1,50,0,0
171011,-100,4,2,1,70,0,0
181678,-90.9090909090909,4,2,1,80,0,0
184344,-100,4,2,1,80,0,0
187011,-90.9090909090909,4,2,1,80,0,0
188011,-100,4,2,1,80,0,0
213678,-133.333333333333,4,2,1,30,0,0
223678,-100,4,2,1,40,0,0
224344,-100,4,2,1,70,0,0
233678,-90.9090909090909,4,2,1,80,0,0
234344,-90.9090909090908,4,2,1,60,0,0
235011,-90.9090909090909,4,2,1,80,0,1
277678,-90.9090909090909,4,2,1,40,0,0
280344,342.857142857143,4,2,1,100,1,0
281715,352.941176470588,4,2,1,100,1,0
283017,400,4,2,1,100,1,0
283817,461.538461538462,4,2,1,100,1,0
284278,705.882352941176,4,2,1,100,1,0
285689,909.090909090909,4,2,1,100,1,0

[Colours]
Combo1 : 212,212,212
Combo2 : 255,128,128
Combo3 : 0,128,192
Combo4 : 255,255,128
Combo5 : 128,255,128

[HitObjects]
145,148,10344,5,0,1:0:0:0:
279,184,10511,1,0,1:0:0:0:
204,85,10678,1,0,1:0:0:0:
209,230,10844,1,0,1:0:0:0:
324,115,11011,6,0,B|378:83|437:88|437:88|421:115|384:126,1,180,14|0,0:0|3:2,0:0:0:0:
290,273,11511,2,0,P|283:226|277:163,1,90,10|0,0:0|3:2,0:0:0:0:
238,103,11844,1,0,3:2:0:0:
365,218,12011,2,0,P|409:213|454:206,1,90,10|0,0:0|3:2,0:0:0:0:
454,206,12511,5,8,0:0:0:0:
290,273,12678,2,0,L|294:212,1,45,0|0,3:2|3:2,0:0:0:0:
363,115,12844,2,0,L|365:159,1,45,0|0,3:2|3:2,0:0:0:0:
358,308,13011,2,0,P|295:315|233:325,1,125.999996154785,0|0,3:2|3:2,0:0:0:0:
122,160,13678,6,0,P|130:214|134:251,1,90,14|0,0:0|3:2,0:0:0:0:
138,275,13928,1,0,3:2:0:0:
138,275,14011,1,0,3:2:0:0:
261,359,14178,2,0,P|265:314|273:269,1,90,10|0,0:0|3:2,0:0:0:0:
296,120,14511,1,0,3:2:0:0:
296,120,14678,2,0,B|232:139|232:139|146:104,1,135,10|0,0:0|0:0,0:0:0:0:
147,105,15011,6,0,L|137:168,1,45,2|0,0:0|3:2,0:0:0:0:
198,263,15178,1,0,3:2:0:0:
198,263,15261,1,0,3:2:0:0:
197,262,15344,2,0,L|131:238,3,45,0|0|0|0,3:2|3:2|3:2|3:2,0:0:0:0:
53,191,15678,2,0,P|63:253|70:315,1,125.999996154785,0|0,3:2|3:2,0:0:0:0:
246,369,16344,6,0,P|252:315|259:249,1,90,14|0,0:0|3:2,0:0:0:0:
345,212,16678,1,0,3:2:0:0:
188,137,16844,2,0,P|232:131|277:126,1,90,14|0,0:0|3:2,0:0:0:0:
278,127,17094,1,0,3:2:0:0:
278,127,17178,1,0,3:2:0:0:
430,211,17344,6,0,L|381:217,1,45,10|0,0:0|0:0,0:0:0:0:
274,294,17511,2,0,L|323:300,1,45,10|0,0:0|0:0,0:0:0:0:
419,315,17678,1,2,0:0:0:0:
303,210,17844,1,8,0:0:0:0:
453,136,18011,6,0,P|446:187|442:264,1,90,2|0,3:2|3:2,0:0:0:0:
313,335,18344,2,0,P|306:284|302:207,1,125.999996154785,2|0,3:2|3:2,0:0:0:0:
113,159,19011,6,0,P|115:183|118:213,1,45,14|0,0:0|0:0,0:0:0:0:
194,299,19178,2,0,P|196:276|198:254,3,45,8|0|0|0,0:0|3:2|3:2|0:0,0:0:0:0:
294,177,19511,2,0,P|292:199|289:221,3,45,8|0|0|0,0:0|3:2|3:2|3:2,0:0:0:0:
339,304,19844,2,0,P|361:299|383:296,1,45,0|0,3:2|3:2,0:0:0:0:
473,230,20011,1,8,0:0:0:0:
473,230,20094,1,0,3:2:0:0:
473,230,20178,2,0,P|450:225|428:222,3,45,0|0|0|0,3:2|3:2|3:2|3:2,0:0:0:0:
326,151,20511,5,2,0:0:0:0:
214,195,20678,1,2,3:2:0:0:
341,145,20844,1,2,0:0:0:0:
306,316,21011,1,2,3:2:0:0:
306,316,21094,1,0,3:2:0:0:
306,316,21178,2,0,P|298:287|288:244,1,45,2|0,3:2|3:2,0:0:0:0:
214,195,21344,2,0,P|146:184|127:250,1,148.50000453186,14|0,0:0|0:0,0:0:0:0:
203,297,21678,6,0,B|166:294|130:284|130:284|85:308|85:308|40:303|1:292,1,198.000006042481,6|8,0:0|0:0,0:0:0:0:
0,121,22178,1,2,3:2:0:0:
0,121,22344,1,0,3:2:0:0:
66,216,22511,1,0,3:2:0:0:
160,106,22678,2,0,P|156:162|155:204,1,85.4999977169037,10|0,0:0|3:2,0:0:0:0:
14,288,23011,6,0,P|57:277|101:269,1,85.4999977169037,2|0,3:2|3:2,0:0:0:0:
238,209,23344,2,0,P|195:198|151:190,1,85.4999977169037,10|0,0:0|3:2,0:0:0:0:
40,93,23678,2,0,P|48:135|59:176,1,85.4999977169037,2|0,3:2|3:2,0:0:0:0:
177,282,24011,2,0,P|187:240|195:198,1,85.4999977169037,10|0,0:0|3:2,0:0:0:0:
90,326,24344,6,0,P|172:314|234:369,1,170.999995433807,2|8,3:2|0:0,0:0:0:0:
298,238,24844,1,2,3:2:0:0:
375,342,25011,1,0,3:2:0:0:
394,190,25178,1,0,3:2:0:0:
211,330,25344,2,0,L|317:315,1,85.4999977169037,10|0,0:0|3:2,0:0:0:0:
394,190,25678,6,0,P|410:233|423:273,1,85.4999977169037,2|0,3:2|3:2,0:0:0:0:
267,200,26011,2,0,P|280:159|295:119,1,85.4999977169037,10|0,0:0|3:2,0:0:0:0:
168,33,26344,2,0,P|207:25|251:16,1,85.4999977169037,2|0,3:2|3:2,0:0:0:0:
67,134,26678,2,0,P|106:142|150:150,1,85.4999977169037,10|0,0:0|3:2,0:0:0:0:
318,225,27011,6,0,B|223:200|257:276|141:243,1,170.999995433807,6|8,0:0|0:0,0:0:0:0:
67,134,27511,1,2,3:2:0:0:
67,134,27678,1,0,3:2:0:0:
187,173,27844,1,0,3:2:0:0:
76,302,28011,2,0,P|70:244|67:197,1,85.4999977169037,10|0,0:0|3:2,0:0:0:0:
142,113,28344,1,0,3:2:0:0:
33,78,28511,1,0,3:2:0:0:
148,209,28678,6,0,P|190:205|233:201,1,85.4999977169037,10|0,0:0|3:2,0:0:0:0:
322,60,29011,2,0,P|317:102|314:145,1,85.4999977169037,2|0,3:2|3:2,0:0:0:0:
426,211,29344,2,0,P|422:168|418:125,1,85.4999977169037,10|0,0:0|3:2,0:0:0:0:
300,44,29678,5,2,3:2:0:0:
332,165,29844,1,0,3:2:0:0:
198,97,30011,1,8,0:0:0:0:
332,165,30178,6,0,P|327:212|323:255,1,85.4999977169037,2|0,3:2|3:2,0:0:0:0:
402,330,30511,1,0,3:2:0:0:
402,330,30594,1,0,3:2:0:0:
402,330,30678,1,10,0:0:0:0:
222,213,30844,6,0,P|227:260|231:303,1,85.4999977169037,2|2,3:2|0:0,0:0:0:0:
227,326,31094,1,2,0:0:0:0:
227,326,31178,2,0,P|248:322|269:318,1,42.7499988584519,0|0,3:2|3:2,0:0:0:0:
368,241,31344,1,2,0:0:0:0:
310,118,31511,1,0,3:2:0:0:
310,118,31678,6,0,L|306:156,1,33.7500012874604,2|0,0:0|3:2,0:0:0:0:
234,244,31844,2,0,L|238:206,1,33.7500012874604,2|0,0:0|0:0,0:0:0:0:
223,78,32011,2,0,L|218:119,1,33.7500012874604,2|0,0:0|0:0,0:0:0:0:
139,216,32177,2,0,L|143:174,1,33.7500012874604,2|0,0:0|0:0,0:0:0:0:
310,118,32344,1,0,3:2:0:0:
122,197,42678,6,0,B|168:173|168:173|224:187,1,101.250003862381,2|0,0:1|0:0,0:0:0:0:
247,197,43011,5,0,3:2:0:0:
159,283,43178,2,0,P|89:276|28:267,1,107.999996704102
0,165,43678,2,0,P|70:158|131:149,1,107.999996704102,2|2,0:0|0:0,0:0:0:0:
219,95,44178,2,0,P|211:148|206:202,2,107.999996704102,2|2|2,0:0|0:0|0:0,0:0:0:0:
303,204,45011,1,0,0:0:0:0:
303,204,45178,2,0,P|346:234|398:227,1,107.999996704102,2|2,0:0|0:0,0:0:0:0:
304,119,45678,5,2,0:0:0:0:
304,119,45844,2,0,P|266:123|230:128,1,53.9999983520508,0|2,0:0|0:0,0:0:0:0:
139,82,46178,2,0,P|150:135|157:189,2,107.999996704102,2|2|2,0:0|0:0|0:0,0:0:0:0:
139,82,47678,5,2,0:0:0:0:
195,186,48011,2,0,P|229:190|267:191,1,62.9999980773926,2|0,0:0|0:0,0:0:0:0:
354,69,48344,1,2,0:0:0:0:
354,69,48511,2,0,L|349:141,1,62.9999980773926,2|0,0:0|0:0,0:0:0:0:
462,203,48844,1,2,0:0:0:0:
462,203,49011,2,0,L|456:140,1,62.9999980773926,2|0,0:0|0:0,0:0:0:0:
354,69,49344,5,2,0:0:0:0:
354,69,49511,2,0,P|300:108|220:91,2,125.999996154785,2|2|2,0:0|0:0|0:0,0:0:0:0:
460,192,50344,2,0,B|383:172|415:216|328:193,1,125.999996154785,2|2,0:0|0:0,0:0:0:0:
219,98,50844,2,0,P|224:169|233:234,1,125.999996154785,2|2,0:0|0:0,0:0:0:0:
246,304,51344,1,2,0:0:0:0:
256,192,51428,12,0,52678,0:0:0:0:
169,156,53011,6,0,L|161:108,3,31.4999990386963,2|2|2|2,0:0|0:0|0:0|0:0,0:0:0:0:
45,104,53344,1,2,0:0:0:0:
38,130,53427,1,2,0:0:0:0:
43,156,53510,1,2,0:0:0:0:
58,178,53594,1,2,0:0:0:0:
81,194,53678,6,0,B|112:185|149:183|149:183|187:202|187:202|221:200|254:191,1,180,14|0,0:0|3:2,0:0:0:0:
370,93,54178,2,0,P|363:144|357:192,1,80.9999975280763,10|0,0:0|3:2,0:0:0:0:
483,237,54511,1,0,3:2:0:0:
483,237,54594,1,0,3:2:0:0:
483,237,54678,2,0,P|477:196|472:156,1,80.9999975280763,10|0,0:0|3:2,0:0:0:0:
370,93,55011,5,2,0:0:0:0:
337,193,55178,1,8,0:0:0:0:
233,130,55344,1,0,3:2:0:0:
234,150,55427,1,0,3:2:0:0:
235,170,55510,1,0,3:2:0:0:
236,190,55594,1,0,3:2:0:0:
238,210,55678,2,0,P|275:214|324:218,1,80.9999975280763,8|0,3:2|3:2,0:0:0:0:
437,275,56011,1,0,3:2:0:0:
437,275,56094,1,0,3:2:0:0:
437,275,56178,2,0,P|434:242|429:201,1,40.4999987640381,0|0,3:2|3:2,0:0:0:0:
327,137,56344,6,0,P|322:177|318:217,1,80.9999975280763,14|0,0:0|3:2,0:0:0:0:
423,107,56678,1,0,3:2:0:0:
235,185,56844,2,0,P|195:181|155:177,1,80.9999975280763,10|0,0:0|3:2,0:0:0:0:
79,293,57178,1,0,3:2:0:0:
79,293,57261,1,0,3:2:0:0:
79,293,57344,2,0,P|119:289|159:285,1,80.9999975280763,10|0,0:0|3:2,0:0:0:0:
154,176,57678,5,6,0:0:0:0:
253,277,57844,1,0,3:2:0:0:
253,277,57928,1,0,3:2:0:0:
253,277,58011,2,0,P|274:266|304:243,3,40.4999987640381,0|0|0|0,3:2|3:2|3:2|3:2,0:0:0:0:
235,144,58344,2,0,P|233:164|234:184,3,40.4999987640381,4|0|0|0,3:2|0:0|3:2|0:0,0:0:0:0:
361,196,58678,2,0,P|344:184|326:175,3,40.4999987640381,0|0|0|0,3:2|3:2|3:2|3:2,0:0:0:0:
166,249,59011,5,14,0:0:0:0:
79,153,59178,2,0,P|37:160|0:167,1,80.9999975280763,0|0,3:2|3:2,0:0:0:0:
92,312,59511,5,10,0:0:0:0:
188,225,59678,2,0,P|181:183|173:145,1,80.9999975280763,0|0,3:2|3:2,0:0:0:0:
258,278,60011,5,10,0:0:0:0:
236,299,60094,1,0,3:2:0:0:
208,310,60177,1,0,3:2:0:0:
178,311,60261,1,0,3:2:0:0:
150,302,60344,1,2,0:0:0:0:
312,361,60511,1,8,0:0:0:0:
267,197,60678,6,0,P|260:243|256:290,1,80.9999975280763,2|0,3:2|3:2,0:0:0:0:
401,234,61011,2,0,P|397:194|392:154,1,80.9999975280763,12|0,3:2|0:0,0:0:0:0:
257,27,61344,2,0,P|264:73|268:120,1,80.9999975280763,0|0,3:2|3:2,0:0:0:0:
267,197,61678,6,0,P|246:195|227:191,1,40.4999987640381,14|0,0:0|0:0,0:0:0:0:
143,110,61844,2,0,P|162:105|182:103,3,40.4999987640381,8|0|0|0,0:0|3:2|3:2|0:0,0:0:0:0:
87,279,62178,2,0,B|63:228|68:166|68:166|89:192|121:202,1,161.999995056153,8|0,0:0|3:2,0:0:0:0:
188,291,62678,1,8,0:0:0:0:
239,187,62844,2,0,P|281:191|319:196,1,80.9999975280763,8|0,3:2|3:2,0:0:0:0:
480,155,63178,5,2,0:0:0:0:
392,255,63344,1,2,3:2:0:0:
381,127,63511,1,2,0:0:0:0:
469,234,63678,5,2,3:2:0:0:
313,275,63844,1,2,3:2:0:0:
462,323,64011,1,10,0:0:0:0:
308,361,64178,1,2,0:0:0:0:
392,266,64344,6,0,P|400:205|405:130,1,135.000005149842,4|0,0:0|3:2,0:0:0:0:
301,213,64844,1,0,0:0:0:0:
301,213,65011,2,0,P|262:217|208:223,1,67.5000025749208,2|0,3:2|0:0,0:0:0:0:
159,97,65344,1,2,3:2:0:0:
76,183,65511,6,0,P|109:186|143:190,1,67.5000025749208,2|0,0:0|3:2,0:0:0:0:
163,280,65844,2,0,P|129:276|95:272,1,67.5000025749208,2|0,0:0|3:2,0:0:0:0:
52,355,66178,2,0,P|85:358|119:362,1,67.5000025749208,2|0,0:0|3:2,0:0:0:0:
252,273,66511,5,2,0:0:0:0:
209,354,66678,1,2,3:2:0:0:
165,263,66844,1,2,0:0:0:0:
310,339,67011,6,0,P|343:335|377:331,1,67.5000025749208,2|0,3:2|0:0,0:0:0:0:
419,206,67344,1,2,3:2:0:0:
331,253,67511,2,0,P|324:220|320:187,1,67.5000025749208,2|0,0:0|3:2,0:0:0:0:
444,130,67844,2,0,P|437:163|433:196,1,67.5000025749208,2|0,0:0|3:2,0:0:0:0:
402,293,68178,1,2,0:0:0:0:
402,293,68344,2,0,B|316:277|357:318|261:301,2,135.000005149842,0|0|2,3:2|3:2|3:2,0:0:0:0:
297,218,69178,5,0,0:0:0:0:
297,218,69344,2,0,P|250:208|207:204,1,67.5000025749208,2|0,3:2|0:0,0:0:0:0:
124,94,69678,2,0,B|135:121|149:147|149:147|139:187|124:218,1,135.000005149842,2|0,3:2|3:2,0:0:0:0:
20,262,70177,1,2,0:0:0:0:
99,333,70344,2,0,P|131:325|165:319,1,67.5000025749208,2|0,3:2|0:0,0:0:0:0:
222,239,70678,1,2,3:2:0:0:
298,318,70845,2,0,P|291:351|284:384,1,67.5000025749208,2|0,0:0|3:2,0:0:0:0:
214,217,71178,5,2,0:0:0:0:
336,155,71344,1,2,3:2:0:0:
218,116,71511,1,2,0:0:0:0:
314,239,71678,2,0,P|353:234|393:228,1,67.5000025749208,2|0,3:2|0:0,0:0:0:0:
512,123,72011,2,0,B|456:127|456:127|421:111|395:91,1,114.750002188683,2|0,3:2|0:0,0:0:0:0:
393,88,72344,6,0,P|359:92|311:98,1,76.5000014591217,0|2,3:2|0:0,0:0:0:0:
221,28,72678,2,0,B|206:122|253:86|230:211,2,153.000002918243,2|0|0,3:2|3:2|3:2,0:0:0:0:
141,155,73511,1,0,0:0:0:0:
141,155,73678,2,0,P|95:147|54:136,1,76.5000014591217,0|0,3:2|0:0,0:0:0:0:
0,272,74011,2,0,P|46:264|87:253,1,76.5000014591217,0|0,3:2|0:0,0:0:0:0:
171,243,74344,2,0,P|185:296|195:338,1,94.499997116089,4|0,3:2|0:0,0:0:0:0:
200,354,74678,6,0,B|237:351|273:341|273:341|318:365|318:365|363:360|402:349,1,198.000006042481,2|4,1:1|3:2,0:0:0:0:
449,267,75178,1,0,0:0:0:0:
348,187,75344,2,0,P|343:232|339:278,1,80.9999975280763,8|0,0:0|0:0,0:0:0:0:
250,346,75678,2,0,P|182:298|95:333,1,161.999995056153,2|10,3:2|0:0,0:0:0:0:
39,183,76178,2,0,L|26:268,1,80.9999975280763,2|0,0:0|3:2,0:0:0:0:
119,217,76511,1,0,0:0:0:0:
19,100,76678,6,0,P|59:99|95:116,1,80.9999975280763,10|0,0:0|0:0,0:0:0:0:
203,152,77011,2,0,P|235:128|255:93,1,80.9999975280763,2|0,3:2|0:0,0:0:0:0:
119,217,77344,2,0,P|122:257|143:291,1,80.9999975280763,10|0,0:0|0:0,0:0:0:0:
275,369,77678,6,0,P|269:324|263:272,1,80.9999975280763,2|0,3:2|0:0,0:0:0:0:
365,208,78011,1,10,0:0:0:0:
449,330,78178,2,0,P|408:324|368:318,1,80.9999975280763,2|0,0:0|3:2,0:0:0:0:
368,318,78511,1,2,0:0:0:0:
222,193,78678,2,0,P|294:233|366:206,1,161.999995056153,10|0,0:0|3:2,0:0:0:0:
307,62,79178,5,0,0:0:0:0:
307,62,79344,2,0,P|302:104|298:165,1,80.9999975280763,8|0,0:0|0:0,0:0:0:0:
458,232,79678,2,0,P|491:188|491:120,1,121.499996292114,2|0,3:2|0:0,0:0:0:0:
485,104,80011,6,0,P|443:113|385:130,1,80.9999975280763,10|0,0:0|0:0,0:0:0:0:
252,74,80344,1,2,3:2:0:0:
304,241,80511,2,0,P|309:197|314:152,1,80.9999975280763,2|8,0:0|0:0,0:0:0:0:
240,67,80844,5,2,0:0:0:0:
199,185,81011,2,0,P|158:189|118:194,1,80.9999975280763,2|0,3:2|0:0,0:0:0:0:
313,160,81344,5,10,0:0:0:0:
252,286,81511,2,0,P|211:282|171:277,1,80.9999975280763,2|0,0:0|3:2,0:0:0:0:
0,217,81844,5,2,0:0:0:0:
66,374,82011,2,0,P|69:333|74:293,1,80.9999975280763,10|0,0:0|0:0,0:0:0:0:
77,168,82344,6,0,P|114:100|191:95,1,161.999995056153,2|10,3:2|0:0,0:0:0:0:
160,201,82844,1,2,0:0:0:0:
160,201,83011,2,0,P|79:212|0:216,2,161.999995056153,0|8|0,3:2|0:0|3:2,0:0:0:0:
323,129,83844,1,0,0:0:0:0:
289,289,84011,2,0,B|266:263|266:263|260:207,1,80.9999975280763,8|0,0:0|0:0,0:0:0:0:
213,83,84344,5,0,3:2:0:0:
354,228,84511,1,8,0:0:0:0:
178,275,84678,6,0,L|172:222,1,40.4999987640381,2|0,3:2|3:2,0:0:0:0:
213,83,84844,2,0,L|217:123,1,40.4999987640381,2|0,3:2|3:2,0:0:0:0:
266,258,85011,6,0,B|295:266|326:278|326:278|359:254|395:234,1,135,10|0,0:0|0:0,0:0:0:0:
435,163,85344,2,0,B|406:155|375:143|375:143|342:167|314:182,1,135,10|0,0:0|0:0,0:0:0:0:
266,258,85678,5,6,3:2:0:0:
299,96,85844,1,0,3:2:0:0:
386,238,86011,1,2,0:0:0:0:
375,51,86178,5,8,0:0:0:0:
223,137,86344,2,0,B|211:102|211:102|222:51,1,90,2|0,0:0|3:2,0:0:0:0:
375,51,86678,6,0,B|387:86|387:86|376:137,1,90,10|0,0:0|3:2,0:0:0:0:
375,137,87011,1,2,0:0:0:0:
512,195,87178,1,8,0:0:0:0:
384,286,87344,1,2,0:0:0:0:
358,264,87427,1,0,3:2:0:0:
326,253,87510,1,0,3:2:0:0:
292,253,87593,1,0,3:2:0:0:
260,263,87678,2,0,P|210:258|132:253,1,90,8|0,0:0|0:0,0:0:0:0:
124,101,88011,5,0,3:2:0:0:
98,123,88094,1,0,3:2:0:0:
66,134,88177,1,0,3:2:0:0:
32,134,88260,1,0,3:2:0:0:
0,124,88345,2,0,L|7:217,1,90,10|0,0:0|3:2,0:0:0:0:
113,292,88678,2,0,L|107:203,1,90,2|0,0:0|3:2,0:0:0:0:
204,113,89011,2,0,L|210:202,1,90,2|0,0:0|3:2,0:0:0:0:
222,326,89344,6,0,P|302:351|362:312,1,135,10|0,0:0|0:0,0:0:0:0:
367,315,89678,2,0,P|357:262|347:184,1,90,6|8,0:0|0:0,0:0:0:0:
481,157,90011,2,0,P|471:210|461:288,1,90,2|0,0:0|3:2,0:0:0:0:
451,269,90261,1,0,3:2:0:0:
451,269,90344,2,0,P|486:277|512:284,3,45,8|0|0|0,0:0|3:2|3:2|3:2,0:0:0:0:
398,348,90678,2,0,P|376:353|354:358,3,45,0|0|0|0,3:2|3:2|3:2|3:2,0:0:0:0:
189,249,91011,6,0,P|237:224|295:223,1,90,6|0,0:0|3:2,0:0:0:0:
272,220,91344,1,2,0:0:0:0:
198,348,91511,6,0,P|153:341|114:319,1,90,8|2,0:0|0:0,0:0:0:0:
81,209,91844,1,0,3:2:0:0:
204,124,92011,5,10,0:0:0:0:
217,156,92095,1,0,3:2:0:0:
218,189,92178,1,0,3:2:0:0:
208,221,92261,1,0,3:2:0:0:
189,249,92344,6,0,P|265:237|301:233,1,90,2|8,0:0|0:0,0:0:0:0:
340,343,92678,2,0,P|264:331|228:327,1,90,2|0,0:0|3:2,0:0:0:0:
126,170,93011,2,0,P|202:158|238:154,1,90,10|0,0:0|3:2,0:0:0:0:
240,155,93261,1,0,3:2:0:0:
240,155,93344,2,0,P|251:108|261:57,1,90,2|2,0:0|0:0,0:0:0:0:
343,0,93678,5,12,0:0:0:0:
347,132,93844,2,0,P|391:124|435:116,1,90,2|2,0:0|0:0,0:0:0:0:
446,28,94178,5,12,0:0:0:0:
512,167,94344,2,0,P|505:211|497:255,1,90,0|0,3:2|3:2,0:0:0:0:
396,354,94678,2,0,L|408:290,1,45,12|0,0:0|0:0,0:0:0:0:
340,194,94844,2,0,L|331:238,3,45,0|0|0|0,3:2|3:2|3:2|3:2,0:0:0:0:
288,344,95178,5,2,3:2:0:0:
288,344,95261,1,0,3:2:0:0:
288,344,95344,2,0,P|250:331|216:317,1,45,2|0,3:2|3:2,0:0:0:0:
133,292,95511,2,0,P|116:306|100:322,1,45,2|0,3:2|3:2,0:0:0:0:
216,218,95678,2,0,P|213:196|209:174,1,45,2|0,3:2|3:2,0:0:0:0:
106,111,95844,1,2,3:2:0:0:
106,111,95928,1,0,3:2:0:0:
106,111,96011,2,0,P|102:133|99:156,3,45,2|0|2|0,3:2|3:2|3:2|3:2,0:0:0:0:
6,216,96344,6,0,P|94:190|164:239,1,180,6|10,3:2|0:0,0:0:0:0:
77,285,96844,1,0,0:0:0:0:
182,350,97011,2,0,P|237:343|294:334,1,90,2|0,3:2|0:0,0:0:0:0:
381,252,97344,2,0,P|336:245|291:240,1,90,10|0,0:0|0:0,0:0:0:0:
150,166,97678,2,0,P|194:159|239:154,1,90,2|0,3:2|3:2,0:0:0:0:
364,62,98011,2,0,P|357:106|352:151,1,90,10|0,0:0|0:0,0:0:0:0:
157,55,98344,5,0,3:2:0:0:
153,71,98427,1,0,3:2:0:0:
149,88,98510,1,0,3:2:0:0:
146,105,98593,1,0,3:2:0:0:
142,121,98678,2,0,L|153:189,1,45,10|0,0:0|0:0,0:0:0:0:
237,180,98844,2,0,L|245:225,1,45,8|0,0:0|0:0,0:0:0:0:
152,257,99011,6,0,B|274:235|208:290|356:265,1,180,2|10,3:2|0:0,0:0:0:0:
371,182,99511,1,0,0:0:0:0:
441,332,99678,2,0,L|448:235,1,90,2|0,3:2|3:2,0:0:0:0:
368,83,100011,2,0,L|362:172,1,90,10|0,0:0|0:0,0:0:0:0:
351,297,100344,6,0,P|270:280|208:320,1,135,2|0,3:2|0:0,0:0:0:0:
213,317,100678,2,0,P|235:270|237:224,1,90,10|0,0:0|0:0,0:0:0:0:
86,140,101011,1,0,3:2:0:0:
86,140,101094,2,0,P|91:191|96:235,1,90,0|0,3:2|3:2,0:0:0:0:
98,255,101344,2,0,L|167:249,1,45,8|0,0:0|0:0,0:0:0:0:
195,170,101511,2,0,L|264:164,1,45,8|0,0:0|0:0,0:0:0:0:
322,110,101678,6,0,B|331:142|335:180|335:180|314:225|314:225|318:267|328:309,1,180,2|10,3:2|0:0,0:0:0:0:
322,283,102178,1,0,0:0:0:0:
424,335,102344,2,0,P|417:290|410:243,1,90,2|0,3:2|0:0,0:0:0:0:
229,261,102678,2,0,P|235:305|242:349,1,90,10|0,0:0|0:0,0:0:0:0:
188,147,103011,5,2,3:2:0:0:
145,313,103178,1,0,0:0:0:0:
298,218,103344,2,0,B|204:200|242:248|145:227,1,148.50000453186,10|0,0:0|0:0,0:0:0:0:
132,228,103678,1,2,3:2:0:0:
132,228,103761,2,0,P|125:174|122:111,1,99.0000030212403,0|0,3:2|3:2,0:0:0:0:
100,116,104011,2,0,P|126:105|154:96,1,49.5000015106202,10|0,0:0|0:0,0:0:0:0:
312,135,104178,2,0,P|286:124|258:115,1,49.5000015106202,8|0,0:0|0:0,0:0:0:0:
268,29,104344,6,0,B|316:39|363:64|363:64|408:35|451:21,1,198.000006042481,2|8,3:2|0:0,0:0:0:0:
449,21,104844,1,0,0:0:0:0:
512,136,105011,2,0,P|462:142|413:147,1,99.0000030212403,0|0,3:2|0:0,0:0:0:0:
343,246,105344,2,0,P|392:252|441:257,1,99.0000030212403,8|0,0:0|0:0,0:0:0:0:
301,131,105678,5,14,0:0:0:0:
230,274,105844,1,8,0:0:0:0:
186,96,106011,1,10,0:0:0:0:
186,96,106344,6,0,P|195:160|134:214,1,148.50000453186,2|0,0:0|0:0,0:0:0:0:
86,148,106678,2,0,P|101:220|111:294,1,148.50000453186,2|0,0:0|0:0,0:0:0:0:
11,330,107011,6,0,B|48:327|84:317|84:317|129:341|129:341|174:336|213:325,1,198.000006042481,6|8,1:2|0:0,0:0:0:0:
281,176,107511,1,0,3:2:0:0:
151,251,107678,1,2,1:2:0:0:
313,364,107844,1,0,3:2:0:0:
313,364,107928,1,0,3:2:0:0:
313,364,108011,2,0,L|322:265,1,99.0000030212403,10|0,0:0|3:2,0:0:0:0:
334,255,108261,1,0,3:2:0:0:
345,245,108344,6,0,P|253:267|188:199,1,198.000006042481,2|8,1:2|0:0,0:0:0:0:
161,95,108844,1,0,3:2:0:0:
282,175,109011,2,0,P|295:124|302:67,1,99.0000030212403,2|0,1:2|0:0,0:0:0:0:
305,66,109261,1,0,3:2:0:0:
305,66,109344,2,0,P|259:47|211:34,1,99.0000030212403,10|0,0:0|0:0,0:0:0:0:
26,159,109678,6,0,B|78:167|125:182|125:182|163:149|214:117,1,198.000006042481,2|8,1:2|0:0,0:0:0:0:
259,47,110178,1,0,3:2:0:0:
222,222,110344,1,2,1:2:0:0:
104,83,110511,1,0,3:2:0:0:
222,222,110678,2,0,P|272:233|334:235,1,99.0000030212403,10|0,0:0|3:2,0:0:0:0:
332,228,110928,1,0,3:2:0:0:
341,217,111011,6,0,B|374:155|362:86|362:86|309:136,1,198.000006042481,2|8,1:2|0:0,0:0:0:0:
474,247,111511,1,0,3:2:0:0:
367,334,111678,1,2,1:2:0:0:
343,305,111761,1,0,3:2:0:0:
311,286,111844,1,0,3:2:0:0:
275,278,111927,1,0,3:2:0:0:
238,281,112011,2,0,B|216:312|216:312|227:376,1,99.0000030212403,10|0,0:0|0:0,0:0:0:0:
492,227,112344,6,0,B|443:193|443:193|330:215,1,148.50000453186,6|0,1:2|0:0,0:0:0:0:
341,217,112678,1,8,0:0:0:0:
387,67,112844,1,0,3:2:0:0:
222,174,113011,1,2,1:2:0:0:
296,0,113178,1,0,3:2:0:0:
296,0,113261,1,0,3:2:0:0:
296,0,113344,2,0,P|292:53|290:104,1,99.0000030212403,10|0,0:0|0:0,0:0:0:0:
136,234,113678,6,0,P|132:184|130:135,1,99.0000030212403,2|0,1:2|0:0,0:0:0:0:
13,119,114011,1,10,0:0:0:0:
168,41,114178,1,0,3:2:0:0:
50,198,114344,1,2,1:2:0:0:
32,36,114511,1,0,0:0:0:0:
166,180,114678,2,0,P|215:177|264:174,1,99.0000030212403,10|0,0:0|0:0,0:0:0:0:
347,31,115011,6,0,B|317:147|379:98|353:224,1,198.000006042481,2|8,1:2|0:0,0:0:0:0:
435,92,115511,1,0,3:2:0:0:
275,176,115678,1,0,1:2:0:0:
444,208,115844,1,0,3:2:0:0:
257,283,116011,2,0,P|253:233|250:184,1,99.0000030212403,8|0,0:0|3:2,0:0:0:0:
77,68,116344,6,0,P|128:71|177:101,1,99.0000030212403,2|0,1:2|3:2,0:0:0:0:
225,239,116678,1,10,0:0:0:0:
225,239,116761,1,2,0:0:0:0:
225,239,116844,1,2,3:2:0:0:
108,338,117011,2,0,L|103:287,1,49.5000015106202,2|0,3:2|3:2,0:0:0:0:
174,90,117178,2,0,L|175:139,1,49.5000015106202,0|0,3:2|3:2,0:0:0:0:
28,243,117344,1,10,0:0:0:0:
55,218,117427,1,0,3:2:0:0:
90,205,117510,1,0,3:2:0:0:
126,206,117593,1,0,3:2:0:0:
160,222,117678,6,0,B|215:235|271:256|271:256|319:244|355:228,1,198.000006042481,14|8,0:0|0:0,0:0:0:0:
377,67,118178,1,0,3:2:0:0:
273,164,118344,1,8,0:0:0:0:
297,31,118511,1,0,3:2:0:0:
388,157,118678,1,10,0:0:0:0:
269,255,118844,1,0,0:0:0:0:
388,157,119011,6,0,P|379:205|372:254,1,99.0000030212403,10|0,0:0|3:2,0:0:0:0:
179,329,119344,2,0,P|169:280|162:231,1,99.0000030212403,10|0,0:0|3:2,0:0:0:0:
59,93,119678,2,0,P|146:102|206:42,1,148.50000453186,10|0,0:0|3:2,0:0:0:0:
205,58,120011,2,0,P|257:67|309:75,1,99.0000030212403,10|0,0:0|0:0,0:0:0:0:
512,176,120344,6,0,B|488:190|459:211|459:211|408:201|360:181,1,148.50000453186,10|0,0:0|0:0,0:0:0:0:
358,180,120678,1,8,0:0:0:0:
440,116,120844,1,0,3:2:0:0:
380,283,121011,1,8,0:0:0:0:
259,179,121178,1,0,3:2:0:0:
279,323,121344,2,0,P|226:315|158:307,1,99.0000030212403,10|0,0:0|3:2,0:0:0:0:
166,309,121594,1,0,3:2:0:0:
166,309,121678,6,0,P|142:258|125:193,1,99.0000030212403,10|0,0:0|0:0,0:0:0:0:
273,125,122011,2,0,P|259:174|242:219,1,99.0000030212403,10|0,0:0|3:2,0:0:0:0:
21,144,122344,2,0,B|67:130|111:115|111:115|188:142,1,148.50000453186,10|0,0:0|0:0,0:0:0:0:
176,140,122677,2,0,P|167:87|160:35,1,99.0000030212403,10|0,0:0|0:0,0:0:0:0:
309,237,123011,6,0,B|277:226|237:221|237:221|219:233|196:244|196:244|155:234|116:229,1,198.000006042481,10|8,0:0|0:0,0:0:0:0:
47,90,123511,1,0,3:2:0:0:
177,151,123678,1,8,0:0:0:0:
4,196,123844,1,0,3:2:0:0:
139,267,124011,1,10,0:0:0:0:
87,94,124178,1,0,3:2:0:0:
87,94,124261,1,0,3:2:0:0:
87,94,124344,2,0,L|94:199,1,99.0000030212403,10|0,0:0|3:2,0:0:0:0:
229,335,124678,2,0,L|235:236,1,99.0000030212403,10|0,0:0|3:2,0:0:0:0:
196,117,125011,6,0,P|245:113|293:102,1,99.0000030212403,10|0,0:0|3:2,0:0:0:0:
309,97,125260,1,0,3:2:0:0:
309,97,125344,2,0,P|336:137|356:183,1,99.0000030212403,10|0,0:0|0:0,0:0:0:0:
496,264,125678,6,0,B|371:232|426:299|304:266,1,198.000006042481,10|8,0:0|0:0,0:0:0:0:
180,146,126178,1,0,3:2:0:0:
215,293,126344,1,8,0:0:0:0:
317,159,126511,1,0,3:2:0:0:
155,227,126678,1,8,0:0:0:0:
339,276,126844,2,0,P|291:281|239:288,1,99.0000030212403,0|10,3:2|0:0,0:0:0:0:
13,252,127178,6,0,B|69:221|138:203|138:203|115:237|96:275,1,198.000006042481,6|0,0:0|3:2,0:0:0:0:
78,367,127678,2,0,P|65:345|50:318,1,49.5000015106202,2|0,1:2|3:2,0:0:0:0:
168,321,127844,2,0,P|180:300|193:279,1,49.5000015106202,2|0,0:0|3:2,0:0:0:0:
325,214,128011,1,10,0:0:0:0:
315,249,128094,1,0,3:2:0:0:
308,286,128177,1,2,3:2:0:0:
304,323,128260,1,0,3:2:0:0:
302,360,128344,1,14,0:0:0:0:
256,192,136344,12,2,138678,3:2:0:0:
512,269,139011,6,0,B|475:266|439:256|439:256|394:280|394:280|349:275|310:264,1,198.000006042481,6|8,0:0|0:0,0:0:0:0:
231,155,139511,1,2,3:2:0:0:
373,190,139678,1,0,3:2:0:0:
231,243,139844,1,0,3:2:0:0:
306,116,140011,1,10,0:0:0:0:
135,249,140178,1,0,3:2:0:0:
135,249,140261,1,0,3:2:0:0:
135,249,140344,6,0,P|120:179|111:106,1,135,2|0,3:2|0:0,0:0:0:0:
110,100,140678,2,0,P|155:81|199:70,1,90,10|0,0:0|3:2,0:0:0:0:
281,220,141011,2,0,P|245:193|213:161,1,90,2|0,3:2|3:2,0:0:0:0:
308,18,141344,2,0,P|302:62|290:106,1,90,10|0,0:0|3:2,0:0:0:0:
408,74,141678,5,2,3:2:0:0:
399,185,141844,2,0,P|449:176|504:168,1,90,0|8,3:2|0:0,0:0:0:0:
425,315,142178,2,0,P|380:308|336:300,1,90,2|0,3:2|3:2,0:0:0:0:
219,165,142511,1,0,3:2:0:0:
253,289,142678,1,10,0:0:0:0:
321,158,142844,1,0,3:2:0:0:
195,211,143011,6,0,P|191:163|184:111,1,90,2|0,3:2|3:2,0:0:0:0:
76,68,143344,2,0,P|81:112|86:157,1,90,10|0,0:0|3:2,0:0:0:0:
101,244,143678,2,0,P|56:239|11:233,1,90,2|0,3:2|3:2,0:0:0:0:
185,121,144011,2,0,P|229:116|274:110,1,90,10|0,0:0|3:2,0:0:0:0:
395,55,144344,5,6,0:0:0:0:
444,176,144511,2,0,P|400:171|355:165,1,90,0|8,3:2|0:0,0:0:0:0:
274,109,144844,2,0,P|268:153|262:198,1,90,2|0,3:2|3:2,0:0:0:0:
387,257,145178,1,0,3:2:0:0:
354,164,145344,1,10,0:0:0:0:
300,279,145511,1,0,3:2:0:0:
399,350,145678,6,0,P|459:338|512:326,1,90,0|0,3:2|3:2,0:0:0:0:
354,164,146011,2,0,P|338:222|326:276,1,90,10|0,0:0|3:2,0:0:0:0:
251,327,146344,1,2,3:2:0:0:
240,200,146511,1,0,3:2:0:0:
141,302,146678,2,0,P|96:294|52:285,1,90,10|0,0:0|3:2,0:0:0:0:
150,121,147011,5,2,3:2:0:0:
216,244,147178,1,0,3:2:0:0:
274,142,147344,1,8,0:0:0:0:
111,209,147511,6,0,P|56:134|92:46,1,180,2|0,3:2|3:2,0:0:0:0:
200,0,148011,1,10,0:0:0:0:
158,128,148178,1,2,3:2:0:0:
158,128,148261,1,0,3:2:0:0:
158,128,148344,6,0,P|204:126|256:122,1,90,2|2,0:0|3:2,0:0:0:0:
403,164,148678,1,10,0:0:0:0:
345,39,148844,1,0,3:2:0:0:
403,164,149011,6,0,P|375:177|341:189,1,45,2|0,3:2|0:0,0:0:0:0:
235,205,149178,2,0,P|266:207|301:214,1,45,2|0,3:2|0:0,0:0:0:0:
380,290,149344,2,0,P|354:273|328:250,1,45,2|0,3:2|0:0,0:0:0:0:
324,90,149511,2,0,P|310:108|300:128,1,45,2|0,3:2|0:0,0:0:0:0:
262,297,149678,5,0,3:2:0:0:
207,197,149844,1,0,3:2:0:0:
132,284,150011,2,0,P|91:279|50:273,1,80.9999975280763,8|0,0:0|3:2,0:0:0:0:
0,159,150344,2,0,P|41:154|81:148,1,80.9999975280763,2|0,0:0|3:2,0:0:0:0:
113,68,150678,1,10,0:0:0:0:
140,205,150844,6,0,B|165:179|165:179|166:110,1,80.9999975280763,2|0,3:2|0:0,0:0:0:0:
60,8,151178,2,0,B|35:34|35:34|34:78,1,80.9999975280763,2|8,3:2|0:0,0:0:0:0:
80,148,151511,2,0,P|172:134|261:133,1,161.999995056153,2|2,3:2|3:2,0:0:0:0:
410,178,152011,1,8,0:0:0:0:
320,255,152178,1,2,3:2:0:0:
320,255,152261,1,0,3:2:0:0:
320,255,152344,6,0,B|297:150|341:198|325:94,1,161.999995056153,2|10,3:2|0:0,0:0:0:0:
408,211,152844,2,0,P|458:219|507:224,1,80.9999975280763,2|0,3:2|3:2,0:0:0:0:
373,326,153178,2,0,P|323:334|274:339,1,80.9999975280763,2|8,3:2|0:0,0:0:0:0:
135,260,153511,6,0,P|175:255|215:248,1,80.9999975280763,2|0,3:2|3:2,0:0:0:0:
136,146,153844,1,0,3:2:0:0:
36,209,154011,2,0,P|29:248|24:289,1,80.9999975280763,8|0,0:0|3:2,0:0:0:0:
86,363,154344,2,0,P|136:328|204:341,1,121.499996292114,2|0,3:2|0:0,0:0:0:0:
209,347,154678,2,0,P|213:306|221:266,1,80.9999975280763,10|0,0:0|3:2,0:0:0:0:
317,223,155011,5,2,3:2:0:0:
377,302,155178,2,0,P|334:317|283:318,1,80.9999975280763,2|8,0:0|0:0,0:0:0:0:
182,192,155511,2,0,P|258:172|318:227,1,161.999995056153,2|0,3:2|3:2,0:0:0:0:
401,324,156011,2,0,P|418:241|426:162,1,161.999995056153,10|0,0:0|3:2,0:0:0:0:
316,222,156511,2,0,P|272:216|230:208,1,80.9999975280763,2|8,3:2|0:0,0:0:0:0:
264,125,156844,1,2,3:2:0:0:
165,279,157011,2,0,B|154:246|137:210|137:210|154:165|182:124,1,161.999995056153,2|10,3:2|0:0,0:0:0:0:
176,132,157511,1,2,3:2:0:0:
56,105,157678,5,0,3:2:0:0:
143,43,157844,1,2,3:2:0:0:
102,180,158011,2,0,P|187:171|262:160,1,161.999995056153,10|0,0:0|3:2,0:0:0:0:
324,57,158511,1,0,3:2:0:0:
234,76,158678,1,8,0:0:0:0:
349,148,158844,6,0,P|390:154|429:163,1,80.9999975280763,0|0,3:2|3:2,0:0:0:0:
446,66,159178,1,0,3:2:0:0:
512,141,159344,2,0,P|505:180|496:220,1,80.9999975280763,8|0,0:0|3:2,0:0:0:0:
425,315,159678,1,0,3:2:0:0:
383,214,159844,1,0,1:2:0:0:
425,315,160011,6,0,B|384:323|337:338|337:338|296:321|262:302,1,148.50000453186,0|0,1:2|0:0,0:0:0:0:
269,304,160344,5,4,3:2:0:0:
310,156,160511,1,0,3:2:0:0:
210,226,160678,2,0,P|202:186|196:146,1,80.9999975280763,8|0,0:0|3:2,0:0:0:0:
259,68,161011,2,0,P|320:117|397:100,1,161.999995056153,2|10,3:2|0:0,0:0:0:0:
509,36,161511,2,0,P|498:121|478:223,1,161.999995056153,2|0,3:2|3:2,0:0:0:0:
400,259,162011,6,0,P|353:250|293:247,1,80.9999975280763,10|0,0:0|3:2,0:0:0:0:
207,335,162344,2,0,P|247:331|286:323,1,80.9999975280763,2|0,3:2|3:2,0:0:0:0:
208,201,162678,1,10,0:0:0:0:
320,247,162844,1,0,3:2:0:0:
294,90,163011,6,0,P|290:134|284:188,1,80.9999975280763,2|0,3:2|3:2,0:0:0:0:
205,117,163344,1,10,0:0:0:0:
204,116,163511,2,0,P|208:76|212:36,1,80.9999975280763,2|0,3:2|3:2,0:0:0:0:
79,86,163844,1,2,3:2:0:0:
128,165,164011,2,0,P|132:205|136:245,1,80.9999975280763,10|0,0:0|3:2,0:0:0:0:
217,323,164344,5,0,3:2:0:0:
236,226,164511,1,0,3:2:0:0:
106,340,164678,2,0,P|151:333|204:324,1,80.9999975280763,8|0,0:0|3:2,0:0:0:0:
236,226,165011,2,0,P|205:180|232:102,1,121.499996292114,2|0,3:2|0:0,0:0:0:0:
230,107,165344,2,0,P|190:113|150:119,1,80.9999975280763,10|0,0:0|3:2,0:0:0:0:
31,51,165678,6,0,P|54:139|65:243,1,161.999995056153,2|8,3:2|0:0,0:0:0:0:
149,295,166178,2,0,B|109:311|74:333|74:333|34:319|-18:308,1,161.999995056153,2|0,3:2|3:2,0:0:0:0:
63,209,166678,1,10,0:0:0:0:
63,209,166844,2,0,P|108:201|149:196,1,80.9999975280763,2|0,3:2|3:2,0:0:0:0:
302,253,167178,1,2,3:2:0:0:
302,253,167344,2,0,P|257:245|216:240,1,80.9999975280763,10|0,0:0|3:2,0:0:0:0:
143,196,167678,6,0,P|151:151|156:110,1,80.9999975280763,2|0,3:2|3:2,0:0:0:0:
244,51,168011,2,0,P|251:91|257:132,1,80.9999975280763,10|2,0:0|3:2,0:0:0:0:
267,219,168344,5,2,3:2:0:0:
341,114,168511,1,0,3:2:0:0:
267,219,168678,2,0,P|307:213|347:206,1,80.9999975280763,8|0,0:0|3:2,0:0:0:0:
422,102,169011,2,0,P|382:108|342:114,1,80.9999975280763,0|0,3:2|3:2,0:0:0:0:
441,2,169344,1,8,0:0:0:0:
512,74,169511,6,0,P|508:113|502:154,1,80.9999975280763,0|0,3:2|3:2,0:0:0:0:
448,226,169844,1,0,3:2:0:0:
381,109,170011,1,8,0:0:0:0:
501,154,170178,1,0,1:2:0:0:
371,258,170344,1,0,3:2:0:0:
367,238,170427,1,0,3:2:0:0:
364,218,170510,1,0,3:2:0:0:
361,198,170594,1,0,3:2:0:0:
359,177,170677,2,0,B|297:190|297:190|268:177|242:165,1,121.499996292114,0|0,3:2|0:0,0:0:0:0:
209,80,171011,6,0,B|185:188|235:140|209:263,1,180,14|2,3:2|3:2,0:0:0:0:
105,109,171511,1,8,0:0:0:0:
41,196,171678,2,0,P|85:203|130:208,1,90,2|0,3:2|3:2,0:0:0:0:
261,289,172011,2,0,P|216:296|171:301,1,90,10|0,0:0|3:2,0:0:0:0:
130,208,172344,2,0,P|122:163|117:118,1,90,2|0,0:0|3:2,0:0:0:0:
226,57,172678,5,2,3:2:0:0:
228,79,172761,1,0,3:2:0:0:
231,101,172844,1,0,3:2:0:0:
234,123,172928,1,0,3:2:0:0:
238,146,173011,2,0,P|285:158|341:169,1,90,8|0,0:0|0:0,0:0:0:0:
392,258,173344,2,0,L|436:208,3,45,0|0|0|0,3:2|3:2|3:2|3:2,0:0:0:0:
448,319,173678,6,0,B|397:279|320:287|320:287|338:312|368:333,1,180,14|2,0:0|3:2,0:0:0:0:
350,319,174178,1,8,0:0:0:0:
246,341,174344,2,0,P|236:288|229:233,1,90,2|0,0:0|3:2,0:0:0:0:
124,177,174678,2,0,P|115:221|109:265,1,90,10|0,0:0|3:2,0:0:0:0:
295,187,175011,5,2,3:2:0:0:
276,174,175094,1,0,3:2:0:0:
255,166,175177,1,0,3:2:0:0:
233,163,175261,1,0,3:2:0:0:
210,165,175344,2,0,P|206:139|201:100,3,45,2|0|0|0,3:2|3:2|3:2|3:2,0:0:0:0:
302,57,175678,6,0,P|313:138|325:210,1,135,8|0,0:0|3:2,0:0:0:0:
310,210,176011,2,0,P|339:215|374:221,3,45,0|0|0|0,3:2|3:2|3:2|3:2,0:0:0:0:
387,307,176344,5,14,0:0:0:0:
448,187,176511,1,0,3:2:0:0:
497,270,176678,1,2,3:2:0:0:
387,307,176844,2,0,L|273:285,2,90,8|2|0,0:0|3:2|3:2,0:0:0:0:
199,233,177344,5,10,0:0:0:0:
203,254,177427,1,0,3:2:0:0:
208,276,177510,1,0,3:2:0:0:
213,298,177594,1,0,3:2:0:0:
217,321,177677,1,2,3:2:0:0:
101,294,177844,1,8,0:0:0:0:
194,205,178011,6,0,P|238:197|283:191,1,90,2|0,3:2|3:2,0:0:0:0:
385,111,178344,1,8,0:0:0:0:
395,253,178511,1,0,3:2:0:0:
395,253,178594,1,0,3:2:0:0:
395,253,178678,2,0,P|387:221|378:184,3,45,0|0|0|0,3:2|3:2|3:2|3:2,0:0:0:0:
287,301,179011,6,0,P|255:293|218:284,1,45,14|0,0:0|0:0,0:0:0:0:
240,196,179178,2,0,P|218:201|196:206,3,45,0|0|2|0,0:0|0:0|3:2|3:2,0:0:0:0:
136,333,179511,6,0,P|141:311|146:289,1,45,8|0,0:0|3:2,0:0:0:0:
107,160,179678,2,0,P|101:181|96:203,3,45,10|0|0|0,0:0|3:2|3:2|3:2,0:0:0:0:
7,290,180011,6,0,L|68:282,1,45,10|0,0:0|3:2,0:0:0:0:
261,331,180178,1,8,0:0:0:0:
241,304,180261,1,0,3:2:0:0:
213,286,180345,1,2,3:2:0:0:
180,281,180428,1,0,3:2:0:0:
145,289,180511,1,0,3:2:0:0:
245,175,180678,6,0,P|292:225|357:215,1,135,2|0,3:2|3:2,0:0:0:0:
394,134,181011,6,0,B|383:172|379:208|379:208|397:244|397:244|395:286|381:332,1,180,0|0,3:2|3:2,0:0:0:0:
367,325,181428,1,0,3:2:0:0:
343,338,181511,1,0,3:2:0:0:
316,341,181594,1,0,3:2:0:0:
289,334,181678,6,0,B|251:342|206:358|206:358|171:344|139:327,1,148.50000453186,6|0,3:2|0:0,0:0:0:0:
127,343,182011,2,0,P|119:294|109:233,1,99.0000030212403,10|0,0:0|0:0,0:0:0:0:
194,169,182344,2,0,P|202:217|209:266,1,99.0000030212403,0|0,3:2|0:0,0:0:0:0:
332,111,182678,1,8,0:0:0:0:
293,201,182844,1,0,0:0:0:0:
227,76,183011,2,0,P|178:83|129:91,1,99.0000030212403,0|0,3:2|0:0,0:0:0:0:
293,201,183344,2,0,P|341:208|390:216,1,99.0000030212403,8|0,0:0|0:0,0:0:0:0:
492,103,183678,6,0,B|450:102|413:77|413:77|380:89|349:109,1,148.50000453186,2|2,3:2|3:2,0:0:0:0:
339,116,184011,1,8,0:0:0:0:
479,21,184178,1,10,0:0:0:0:
411,181,184344,6,0,P|316:210|244:138,1,180,2|10,3:2|0:0,0:0:0:0:
256,166,184844,1,2,0:0:0:0:
352,27,185011,2,0,P|343:76|338:116,1,90,0|0,3:2|0:0,0:0:0:0:
480,237,185344,2,0,P|445:208|410:180,1,90,8|0,0:0|0:0,0:0:0:0:
236,243,185678,2,0,P|283:224|320:210,1,90,0|0,3:2|0:0,0:0:0:0:
343,72,186011,2,0,P|296:91|259:105,1,90,8|0,0:0|0:0,0:0:0:0:
163,169,186344,5,2,3:2:0:0:
319,210,186510,1,2,0:0:0:0:
170,258,186677,1,10,0:0:0:0:
324,296,186844,1,10,0:0:0:0:
240,201,187011,6,0,P|229:120|226:25,1,148.50000453186,6|0,0:0|0:0,0:0:0:0:
229,33,187344,1,8,0:0:0:0:
325,118,187511,2,0,B|361:115|401:106|401:106|443:134|443:134|488:131|535:119,1,198.000006042481,2|0,0:0|0:0,0:0:0:0:
383,287,188011,6,0,P|378:242|375:197,1,90,8|0,0:0|0:0,0:0:0:0:
292,252,188344,2,0,P|295:296|299:341,1,90,0|2,3:2|0:0,0:0:0:0:
299,341,188594,1,0,0:0:0:0:
299,341,188678,1,10,0:0:0:0:
194,208,188844,1,2,0:0:0:0:
84,330,189011,5,2,3:2:0:0:
84,330,189094,2,0,P|133:323|193:319,1,90,0|0,3:2|3:2,0:0:0:0:
192,332,189344,2,0,L|187:271,1,45,10|0,0:0|0:0,0:0:0:0:
70,234,189511,2,0,L|67:190,1,45,10|0,0:0|0:0,0:0:0:0:
19,97,189678,6,0,B|52:89|88:88|88:88|126:109|126:109|165:106|201:100,1,180,2|10,3:2|0:0,0:0:0:0:
192,101,190178,1,0,0:0:0:0:
299,0,190344,2,0,P|292:54|286:109,1,90,2|0,3:2|0:0,0:0:0:0:
362,226,190678,2,0,P|367:181|372:136,1,90,10|0,0:0|0:0,0:0:0:0:
187,167,191011,2,0,P|231:174|277:185,1,90,2|0,3:2|0:0,0:0:0:0:
420,290,191344,2,0,P|376:300|331:307,1,90,10|0,0:0|0:0,0:0:0:0:
275,184,191678,1,2,1:2:0:0:
223,372,191844,5,0,1:2:0:0:
223,372,191928,1,0,1:2:0:0:
223,372,192011,2,0,P|229:325|245:259,1,90,0|0,0:0|1:2,0:0:0:0:
246,266,192261,1,2,0:0:0:0:
246,266,192344,2,0,P|204:244|152:226,1,90,6|0,0:0|0:0,0:0:0:0:
79,105,192678,6,0,B|88:136|90:173|90:173|71:211|71:211|73:245|82:278,1,180,10|0,0:0|3:2,0:0:0:0:
185,361,193178,1,2,0:0:0:0:
185,361,193261,1,2,0:0:0:0:
185,361,193344,2,0,L|197:260,1,90,10|0,0:0|3:2,0:0:0:0:
261,174,193678,2,0,P|318:214|400:193,1,135,0|0,3:2|0:0,0:0:0:0:
403,220,194011,2,0,P|407:172|412:130,1,90,8|0,0:0|0:0,0:0:0:0:
512,324,194344,6,0,B|472:336|472:336|418:322,1,90,2|0,3:2|0:0,0:0:0:0:
425,323,194594,1,10,0:0:0:0:
425,323,194678,1,10,0:0:0:0:
249,200,194844,1,2,3:2:0:0:
316,357,195011,6,0,B|338:298|329:232|329:232|308:261|283:286,1,180,2|8,3:2|0:0,0:0:0:0:
241,338,195511,1,0,0:0:0:0:
249,200,195678,1,0,3:2:0:0:
138,309,195844,1,2,0:0:0:0:
138,309,195928,1,2,0:0:0:0:
138,309,196011,2,0,P|85:302|23:293,1,90,10|0,0:0|3:2,0:0:0:0:
208,235,196344,2,0,P|261:228|323:219,1,90,0|0,3:2|0:0,0:0:0:0:
158,146,196678,2,0,P|105:139|43:130,1,90,8|0,0:0|0:0,0:0:0:0:
203,43,197011,5,0,3:2:0:0:
250,135,197178,1,8,0:0:0:0:
331,41,197344,1,0,3:2:0:0:
242,146,197511,1,10,0:0:0:0:
339,31,197678,6,0,P|332:120|325:210,1,180,6|10,3:2|0:0,0:0:0:0:
359,303,198178,1,0,0:0:0:0:
359,303,198344,2,0,P|309:294|267:289,1,90,2|0,3:2|0:0,0:0:0:0:
142,220,198678,2,0,P|192:211|234:206,1,90,8|0,0:0|3:2,0:0:0:0:
338,121,199011,2,0,P|329:165|324:209,1,90,0|0,3:2|0:0,0:0:0:0:
238,116,199344,2,0,P|229:71|224:27,1,90,8|0,0:0|0:0,0:0:0:0:
125,110,199678,1,0,3:2:0:0:
78,4,199844,1,0,0:0:0:0:
50,144,200011,5,10,0:0:0:0:
68,171,200094,1,2,0:0:0:0:
96,189,200177,1,2,0:0:0:0:
129,195,200261,1,2,0:0:0:0:
162,186,200344,6,0,L|148:325,1,135,2|0,3:2|0:0,0:0:0:0:
136,339,200678,2,0,P|183:348|235:359,1,90,10|0,0:0|0:0,0:0:0:0:
337,280,201011,2,0,P|292:270|248:262,1,90,2|0,3:2|0:0,0:0:0:0:
113,193,201344,2,0,P|157:183|201:175,1,90,10|0,0:0|0:0,0:0:0:0:
325,97,201678,2,0,P|317:141|309:186,1,90,2|4,3:2|0:0,0:0:0:0:
419,63,202011,5,10,0:0:0:0:
512,115,202178,1,4,0:0:0:0:
411,152,202344,1,10,0:0:0:0:
501,30,202511,1,2,3:2:0:0:
280,44,202678,2,0,P|339:83|416:63,1,135,10|0,0:0|0:0,0:0:0:0:
419,63,203011,6,0,L|412:152,1,90,6|0,0:0|0:0,0:0:0:0:
309,186,203344,2,0,L|302:275,1,90,10|0,0:0|0:0,0:0:0:0:
408,238,203678,1,2,3:2:0:0:
325,97,203844,1,0,3:2:0:0:
408,238,204011,2,0,P|463:233|519:225,1,90,10|0,0:0|0:0,0:0:0:0:
421,344,204344,2,0,B|343:319|343:319|290:351,1,135,2|0,3:2|0:0,0:0:0:0:
290,367,204678,2,0,P|235:362|179:354,1,90,10|0,0:0|0:0,0:0:0:0:
88,196,205011,5,2,3:2:0:0:
88,196,205094,1,0,3:2:0:0:
88,196,205178,2,0,L|92:240,1,45,2|0,3:2|3:2,0:0:0:0:
181,271,205344,2,0,L|176:226,1,45,10|0,0:0|3:2,0:0:0:0:
161,132,205511,1,2,3:2:0:0:
161,132,205594,1,0,3:2:0:0:
161,132,205679,6,0,B|199:140|241:153|241:153|291:130,1,135,2|0,3:2|0:0,0:0:0:0:
303,109,206011,2,0,L|315:224,1,90,10|0,0:0|0:0,0:0:0:0:
442,260,206344,1,2,3:2:0:0:
403,143,206511,1,0,3:2:0:0:
317,281,206678,2,0,P|269:277|218:273,1,90,10|0,0:0|0:0,0:0:0:0:
403,341,207011,2,0,P|451:337|502:333,1,90,2|0,3:2|0:0,0:0:0:0:
325,191,207344,2,0,P|321:235|317:280,1,90,10|0,0:0|0:0,0:0:0:0:
401,147,207678,5,2,3:2:0:0:
377,123,207761,1,0,3:2:0:0:
346,109,207844,1,2,3:2:0:0:
313,106,207928,1,0,3:2:0:0:
281,116,208011,2,0,L|286:45,3,45,2|0|2|0,3:2|3:2|3:2|0:0,0:0:0:0:
199,24,208344,6,0,B|176:39|136:55|136:55|90:46|46:34,1,135,6|0,0:0|0:0,0:0:0:0:
53,22,208678,2,0,L|71:134,1,90,10|0,0:0|0:0,0:0:0:0:
186,205,209011,2,0,L|200:116,1,90,2|0,3:2|3:2,0:0:0:0:
87,206,209344,1,10,0:0:0:0:
189,304,209511,5,2,0:0:0:0:
189,304,209594,1,2,0:0:0:0:
189,304,209678,2,0,P|238:299|280:294,1,90,2|0,3:2|0:0,0:0:0:0:
305,201,210011,1,10,0:0:0:0:
364,354,210178,2,0,L|378:265,1,90,0|2,3:2|3:2,0:0:0:0:
472,136,210511,1,2,3:2:0:0:
305,201,210678,2,0,P|349:175|412:179,1,90,8|2,0:0|0:0,0:0:0:0:
460,313,211011,6,0,B|441:188|485:253|470:117,1,180,2|10,3:2|0:0,0:0:0:0:
417,47,211511,1,0,0:0:0:0:
417,47,211678,2,0,P|469:41|534:33,1,90,2|10,3:2|0:0,0:0:0:0:
372,138,212011,2,0,P|320:132|255:124,1,90,2|0,3:2|0:0,0:0:0:0:
417,231,212344,2,0,P|461:236|506:241,1,90,2|0,3:2|0:0,0:0:0:0:
506,241,212678,1,10,0:0:0:0:
282,127,213011,5,0,1:2:0:0:
227,223,213178,1,0,3:2:0:0:
227,223,213261,1,0,1:2:0:0:
227,223,213344,1,0,0:0:0:0:
209,73,213511,1,0,1:2:0:0:
343,195,213678,5,6,0:0:0:0:
201,162,223678,5,0,1:0:0:0:
64,137,223845,1,0,1:0:0:0:
147,229,224012,1,0,1:0:0:0:
130,85,224178,1,0,1:0:0:0:
59,281,224344,6,0,P|153:265|243:261,1,180,6|2,3:2|0:0,0:0:0:0:
340,142,224844,1,8,0:0:0:0:
340,142,225011,2,0,P|335:190|330:245,1,90,2|0,0:0|3:2,0:0:0:0:
433,192,225344,2,0,P|437:147|441:102,1,90,10|0,0:0|3:2,0:0:0:0:
291,54,225678,1,2,0:0:0:0:
432,0,225844,1,8,0:0:0:0:
340,142,226011,5,2,0:0:0:0:
308,153,226094,1,0,3:2:0:0:
274,153,226177,1,0,3:2:0:0:
243,141,226261,1,0,3:2:0:0:
217,119,226344,2,0,P|220:192|229:291,1,135,8|0,0:0|0:0,0:0:0:0:
208,275,226678,2,0,L|262:282,3,45,0|0|0|0,3:2|3:2|3:2|3:2,0:0:0:0:
342,337,227011,6,0,P|346:292|350:247,1,90,10|0,0:0|3:2,0:0:0:0:
430,192,227344,1,2,0:0:0:0:
260,148,227511,5,0,3:2:0:0:
259,148,227678,2,0,P|304:144|349:140,1,90,2|0,0:0|3:2,0:0:0:0:
153,76,228011,2,0,P|108:80|63:84,1,90,10|0,0:0|3:2,0:0:0:0:
0,220,228344,2,0,P|74:212|162:209,1,135,6|0,0:0|0:0,0:0:0:0:
152,189,228678,2,0,L|163:248,3,45,2|0|0|0,0:0|3:2|3:2|3:2,0:0:0:0:
259,148,229011,2,0,L|267:103,3,45,4|0|0|0,0:0|3:2|3:2|3:2,0:0:0:0:
362,248,229344,1,0,3:2:0:0:
334,238,229427,1,0,3:2:0:0:
304,238,229510,1,0,3:2:0:0:
275,249,229594,1,0,3:2:0:0:
252,268,229678,6,0,B|219:260|183:259|183:259|145:280|145:280|106:277|70:271,1,180,6|2,0:0|0:0,0:0:0:0:
33,184,230178,1,8,0:0:0:0:
33,184,230344,2,0,L|138:197,1,90,2|0,0:0|3:2,0:0:0:0:
231,76,230678,1,10,0:0:0:0:
231,76,230761,1,0,3:2:0:0:
231,76,230844,2,0,L|171:82,1,45,0|0,3:2|3:2,0:0:0:0:
89,93,231011,1,2,0:0:0:0:
215,175,231178,5,8,0:0:0:0:
79,221,231344,2,0,P|74:270|70:324,1,90,2|0,0:0|3:2,0:0:0:0:
151,370,231678,1,14,0:0:0:0:
173,345,231761,1,0,3:2:0:0:
203,330,231844,1,0,3:2:0:0:
236,326,231928,1,0,3:2:0:0:
269,334,232011,2,0,L|264:268,3,45,2|0|0|0,0:0|3:2|0:0|3:2,0:0:0:0:
277,129,232344,5,12,0:0:0:0:
161,258,232511,1,8,0:0:0:0:
359,222,232678,1,0,3:2:0:0:
359,222,232761,1,0,3:2:0:0:
359,222,232844,2,0,L|362:270,3,45,8|0|0|0,0:0|3:2|3:2|3:2,0:0:0:0:
349,366,233178,1,0,3:2:0:0:
349,366,233261,1,0,3:2:0:0:
349,366,233344,2,0,P|378:366|411:356,1,45,8|0,0:0|0:0,0:0:0:0:
501,289,233511,2,0,P|478:285|456:285,1,45,8|0,0:0|0:0,0:0:0:0:
265,252,233678,5,14,0:0:0:0:
448,160,234011,1,10,0:0:0:0:
448,160,234344,6,0,P|384:151|330:212,1,148.50000453186,2|0,0:0|0:0,0:0:0:0:
396,260,234678,2,0,P|324:245|250:235,1,148.50000453186,2|0,0:0|0:0,0:0:0:0:
209,137,235011,6,0,B|179:253|241:204|215:330,1,198.000006042481,6|8,3:2|0:0,0:0:0:0:
127,279,235511,1,0,0:0:0:0:
294,184,235678,1,2,3:2:0:0:
320,331,235844,1,2,0:0:0:0:
320,331,235928,1,2,0:0:0:0:
320,331,236011,2,0,P|371:335|419:340,1,99.0000030212403,10|0,0:0|0:0,0:0:0:0:
430,349,236261,1,2,0:0:0:0:
441,358,236344,6,0,P|461:255|469:151,1,198.000006042481,2|8,3:2|0:0,0:0:0:0:
415,62,236844,1,0,0:0:0:0:
322,169,237011,2,0,P|312:121|306:72,1,99.0000030212403,2|0,3:2|0:0,0:0:0:0:
303,51,237261,1,2,0:0:0:0:
303,51,237344,2,0,P|254:40|205:32,1,99.0000030212403,10|0,0:0|0:0,0:0:0:0:
38,112,237678,6,0,P|134:125|236:145,1,198.000006042481,6|8,3:2|0:0,0:0:0:0:
334,101,238178,1,0,0:0:0:0:
248,236,238344,1,2,3:2:0:0:
191,58,238511,1,0,0:0:0:0:
343,185,238678,2,0,L|442:176,1,99.0000030212403,10|0,0:0|0:0,0:0:0:0:
454,184,238928,1,2,0:0:0:0:
465,193,239011,6,0,P|405:117|451:18,1,198.000006042481,2|8,3:2|0:0,0:0:0:0:
499,103,239511,1,0,0:0:0:0:
355,217,239678,1,2,3:2:0:0:
499,103,239844,1,0,3:2:0:0:
301,129,240011,2,0,P|247:121|193:112,1,99.0000030212403,10|0,0:0|0:0,0:0:0:0:
153,12,240344,6,0,P|165:115|177:237,1,198.000006042481,6|8,3:2|0:0,0:0:0:0:
286,294,240844,1,0,3:2:0:0:
286,294,240928,1,0,3:2:0:0:
286,294,241011,2,0,P|279:239|266:158,1,99.0000030212403,2|0,3:2|0:0,0:0:0:0:
65,131,241344,2,0,P|72:186|85:267,1,99.0000030212403,10|0,0:0|0:0,0:0:0:0:
96,358,241678,6,0,P|152:313|238:333,1,148.50000453186,2|0,3:2|0:0,0:0:0:0:
242,339,242011,2,0,L|346:326,1,99.0000030212403,10|0,0:0|0:0,0:0:0:0:
288,224,242344,1,2,3:2:0:0:
457,296,242511,1,0,3:2:0:0:
410,156,242678,1,10,0:0:0:0:
340,326,242844,1,0,3:2:0:0:
216,147,243011,6,0,B|336:124|288:181|412:155,1,198.000006042481,2|8,3:2|0:0,0:0:0:0:
358,65,243511,1,0,0:0:0:0:
500,217,243678,2,0,L|513:117,1,99.0000030212403,0|0,3:2|0:0,0:0:0:0:
340,197,244011,2,0,L|352:295,1,99.0000030212403,8|0,0:0|3:2,0:0:0:0:
120,251,244344,6,0,P|170:261|235:270,1,99.0000030212403,2|2,0:0|0:0,0:0:0:0:
232,264,244594,1,2,0:0:0:0:
246,259,244678,1,10,0:0:0:0:
187,146,244844,1,0,0:0:0:0:
340,197,245011,2,0,L|345:146,1,49.5000015106202,2|0,3:2|0:0,0:0:0:0:
264,20,245178,1,8,0:0:0:0:
264,20,245261,1,8,0:0:0:0:
264,20,245344,1,2,3:2:0:0:
148,92,245510,1,0,3:2:0:0:
259,162,245678,6,0,B|203:174|148:196|148:196|102:181|66:163,1,198.000006042481,6|8,0:0|0:0,0:0:0:0:
195,298,246178,1,2,0:0:0:0:
195,298,246261,1,2,0:0:0:0:
195,298,246344,2,0,P|251:277|295:265,1,99.0000030212403,2|0,3:2|0:0,0:0:0:0:
348,107,246678,1,10,0:0:0:0:
213,195,246844,1,0,0:0:0:0:
370,356,247011,6,0,P|391:270|398:192,1,148.50000453186,2|0,3:2|0:0,0:0:0:0:
380,192,247344,2,0,P|431:184|480:177,1,99.0000030212403,10|0,0:0|0:0,0:0:0:0:
270,160,247677,1,2,3:2:0:0:
411,67,247844,1,0,3:2:0:0:
285,258,248011,2,0,P|277:209|270:160,1,99.0000030212403,10|0,0:0|0:0,0:0:0:0:
75,86,248344,6,0,B|127:94|174:109|174:109|212:76|251:51,1,198.000006042481,6|8,0:0|0:0,0:0:0:0:
367,0,248844,1,0,0:0:0:0:
367,0,249011,2,0,P|359:49|352:97,1,99.0000030212403,0|0,3:2|0:0,0:0:0:0:
311,222,249344,2,0,B|361:213|403:200|403:200|462:239,1,148.50000453186,10|0,0:0|0:0,0:0:0:0:
452,253,249678,6,0,P|459:204|466:155,1,99.0000030212403,2|0,3:2|0:0,0:0:0:0:
351,97,250011,1,10,0:0:0:0:
468,48,250178,1,0,0:0:0:0:
364,187,250344,1,2,3:2:0:0:
295,27,250511,1,0,3:2:0:0:
452,253,250678,2,0,B|406:267|364:281|364:281|330:270|288:252,1,148.50000453186,10|0,0:0|0:0,0:0:0:0:
276,167,251011,6,0,B|246:283|308:234|282:360,1,198.000006042481,6|8,0:0|0:0,0:0:0:0:
194,312,251511,1,0,0:0:0:0:
378,260,251678,1,0,3:2:0:0:
189,183,251844,1,0,0:0:0:0:
341,357,252011,2,0,P|390:353|439:349,1,99.0000030212403,10|0,0:0|0:0,0:0:0:0:
452,356,252261,1,0,3:2:0:0:
464,363,252344,6,0,B|498:299|486:230|486:230|434:280,1,198.000006042481,2|10,3:2|0:0,0:0:0:0:
330,337,252844,1,0,3:2:0:0:
404,188,253011,1,2,3:2:0:0:
263,282,253178,1,0,3:2:0:0:
233,126,253345,1,10,0:0:0:0:
342,246,253511,1,0,3:2:0:0:
183,320,253678,6,0,P|104:311|33:299,1,148.50000453186,2|0,3:2|0:0,0:0:0:0:
16,314,254011,2,0,P|5:256|-2:189,1,99.0000030212403,8|0,0:0|0:0,0:0:0:0:
145,105,254344,2,0,P|135:153|129:202,1,99.0000030212403,0|0,3:2|0:0,0:0:0:0:
68,52,254678,1,8,0:0:0:0:
229,167,254844,2,0,B|355:188|295:132|428:154,1,198.000006042481,0|0,3:2|3:2,0:0:0:0:
278,76,255344,5,8,0:0:0:0:
377,247,255511,1,0,3:2:0:0:
380,40,255678,5,2,3:2:0:0:
284,196,255844,1,0,3:2:0:0:
167,63,256011,1,2,3:2:0:0:
191,80,256094,1,0,3:2:0:0:
220,89,256177,1,0,3:2:0:0:
250,88,256261,1,0,3:2:0:0:
278,76,256344,6,0,P|267:156|262:249,1,148.50000453186,6|0,0:0|0:0,0:0:0:0:
265,248,256678,1,8,0:0:0:0:
404,150,256844,1,0,3:2:0:0:
412,303,257011,1,2,3:2:0:0:
298,156,257178,1,0,3:2:0:0:
298,156,257261,1,0,3:2:0:0:
298,156,257344,2,0,P|244:151|183:146,1,99.0000030212403,10|0,0:0|0:0,0:0:0:0:
85,300,257678,6,0,P|147:248|235:265,1,148.50000453186,10|0,0:0|0:0,0:0:0:0:
231,264,258011,1,8,0:0:0:0:
104,170,258178,1,0,3:2:0:0:
197,353,258344,2,0,P|260:347|309:337,1,99.0000030212403,2|0,3:2|0:0,0:0:0:0:
321,333,258594,1,0,3:2:0:0:
321,333,258678,2,0,P|334:285|342:236,1,99.0000030212403,2|0,3:2|0:0,0:0:0:0:
454,101,259011,6,0,B|425:116|399:138|399:138|353:134|296:117,1,148.50000453186,14|0,0:0|0:0,0:0:0:0:
295,114,259344,1,8,0:0:0:0:
445,22,259511,1,0,3:2:0:0:
472,185,259678,1,10,0:0:0:0:
346,26,259844,1,0,3:2:0:0:
335,204,260011,2,0,P|286:211|236:217,1,99.0000030212403,10|0,0:0|0:0,0:0:0:0:
104,195,260344,6,0,P|144:124|123:52,1,148.50000453186,10|0,0:0|0:0,0:0:0:0:
115,41,260678,1,8,0:0:0:0:
12,169,260844,1,0,3:2:0:0:
203,215,261011,2,0,P|259:212|316:201,1,99.0000030212403,10|0,0:0|0:0,0:0:0:0:
322,189,261261,1,0,3:2:0:0:
322,189,261344,2,0,P|354:233|377:286,1,99.0000030212403,2|0,3:2|0:0,0:0:0:0:
512,353,261678,6,0,B|475:350|439:340|439:340|394:364|394:364|349:359|310:348,1,198.000006042481,14|8,0:0|0:0,0:0:0:0:
179,215,262178,1,0,3:2:0:0:
229,368,262344,1,10,0:0:0:0:
303,188,262511,1,0,3:2:0:0:
303,188,262594,1,0,3:2:0:0:
303,188,262678,1,10,0:0:0:0:
94,305,262844,1,0,3:2:0:0:
94,305,262928,1,0,3:2:0:0:
94,305,263011,6,0,L|228:294,1,99.0000030212403,10|0,0:0|3:2,0:0:0:0:
377,228,263344,2,0,L|243:217,1,99.0000030212403,10|0,0:0|3:2,0:0:0:0:
168,142,263678,1,2,3:2:0:0:
183,175,263761,1,0,3:2:0:0:
183,211,263844,1,0,3:2:0:0:
168,246,263927,1,0,3:2:0:0:
142,271,264011,2,0,L|69:278,3,49.5000015106202,10|0|0|0,0:0|3:2|3:2|3:2,0:0:0:0:
253,364,264344,6,0,P|260:313|270:258,1,99.0000030212403,14|0,0:0|3:2,0:0:0:0:
412,191,264678,2,0,P|420:239|427:288,1,99.0000030212403,8|0,0:0|3:2,0:0:0:0:
298,160,265011,5,8,0:0:0:0:
481,93,265178,1,0,0:0:0:0:
284,150,265344,5,8,0:0:0:0:
481,76,265511,1,0,3:2:0:0:
487,255,265678,2,0,P|437:250|388:244,1,99.0000030212403,10|0,0:0|0:0,0:0:0:0:
196,172,266011,2,0,P|245:167|294:161,1,99.0000030212403,10|0,0:0|3:2,0:0:0:0:
440,102,266344,1,10,0:0:0:0:
388,244,266511,1,0,0:0:0:0:
316,51,266678,1,10,0:0:0:0:
512,149,266844,1,2,0:0:0:0:
512,149,266928,1,2,0:0:0:0:
512,149,267011,6,0,P|430:144|346:137,1,148.50000453186,6|0,0:0|0:0,0:0:0:0:
334,133,267344,1,8,0:0:0:0:
235,67,267511,1,0,3:2:0:0:
316,235,267678,1,8,0:0:0:0:
369,34,267844,1,0,3:2:0:0:
195,166,268011,2,0,P|120:154|63:144,1,99.0000030212403,10|0,0:0|3:2,0:0:0:0:
259,281,268344,2,0,P|307:289|356:296,1,99.0000030212403,10|0,0:0|3:2,0:0:0:0:
475,144,268678,1,10,0:0:0:0:
323,195,268844,1,0,3:2:0:0:
471,290,269011,5,10,0:0:0:0:
439,272,269094,1,0,3:2:0:0:
402,266,269177,1,0,3:2:0:0:
366,273,269260,1,0,3:2:0:0:
336,294,269344,2,0,P|259:286|237:207,1,148.50000453186,10|0,0:0|0:0,0:0:0:0:
323,195,269678,6,0,B|285:193|247:182|247:182|208:202|208:202|167:197|132:186,1,198.000006042481,14|8,0:0|0:0,0:0:0:0:
47,123,270178,1,0,0:0:0:0:
91,285,270344,1,8,0:0:0:0:
193,110,270511,1,0,3:2:0:0:
178,313,270678,2,0,P|231:308|287:302,1,99.0000030212403,10|0,0:0|3:2,0:0:0:0:
421,204,271011,2,0,P|371:198|322:194,1,99.0000030212403,10|0,0:0|3:2,0:0:0:0:
250,31,271344,1,10,0:0:0:0:
380,106,271511,1,0,3:2:0:0:
218,219,271678,2,0,L|209:120,1,99.0000030212403,10|0,0:0|0:0,0:0:0:0:
367,49,272011,5,10,0:0:0:0:
363,85,272095,1,0,3:2:0:0:
359,122,272178,1,0,3:2:0:0:
355,159,272261,1,0,3:2:0:0:
352,196,272344,6,0,B|296:234|218:219|218:219|255:184|305:172,1,198.000006042481,14|8,0:0|0:0,0:0:0:0:
338,42,272844,1,0,3:2:0:0:
192,130,273011,1,8,0:0:0:0:
380,246,273178,1,0,3:2:0:0:
380,246,273262,1,0,3:2:0:0:
380,246,273344,2,0,L|389:147,1,99.0000030212403,10|0,0:0|3:2,0:0:0:0:
408,139,273594,1,0,3:2:0:0:
408,139,273678,6,0,P|364:115|318:96,1,99.0000030212403,10|0,0:0|3:2,0:0:0:0:
183,31,274011,2,0,P|188:83|196:132,1,99.0000030212403,10|0,0:0|3:2,0:0:0:0:
318,96,274344,1,10,0:0:0:0:
216,230,274511,1,0,3:2:0:0:
216,230,274594,1,0,3:2:0:0:
216,230,274678,2,0,P|164:226|117:221,1,99.0000030212403,10|0,0:0|3:2,0:0:0:0:
8,126,275011,5,10,0:0:0:0:
50,293,275178,1,0,3:2:0:0:
50,293,275261,1,0,3:2:0:0:
50,293,275344,1,8,0:0:0:0:
174,131,275511,1,0,3:2:0:0:
0,216,275678,1,8,0:0:0:0:
186,126,275844,1,0,3:2:0:0:
147,307,276011,2,0,P|97:300|41:291,1,99.0000030212403,8|0,0:0|3:2,0:0:0:0:
201,203,276344,5,0,3:2:0:0:
263,360,276511,1,0,3:2:0:0:
338,173,276678,1,8,0:0:0:0:
147,307,276844,1,0,3:2:0:0:
362,327,277011,5,8,0:0:0:0:
362,327,277094,1,0,3:2:0:0:
362,327,277178,2,0,P|375:294|383:251,1,49.5000015106202,0|0,3:2|3:2,0:0:0:0:
419,197,277344,2,0,P|394:191|370:188,1,49.5000015106202,8|0,0:0|0:0,0:0:0:0:
240,279,277511,2,0,P|264:273|288:270,1,49.5000015106202,8|0,0:0|0:0,0:0:0:0:
468,269,277678,5,4,0:0:0:0:
