osu file format v14

[General]
AudioFilename: audio.mp3
AudioLeadIn: 0
PreviewTime: 106261
Countdown: 0
SampleSet: Soft
StackLeniency: 0.3
Mode: 0
LetterboxInBreaks: 0
WidescreenStoryboard: 0

[Editor]
Bookmarks: 194011
DistanceSpacing: 0.3
BeatDivisor: 4
GridSize: 32
TimelineZoom: 2.400001

[Metadata]
Title:KIZUNA
TitleUnicode:KIZUNA
Artist:angela
ArtistUnicode:angela
Creator:dahkjdas
Version:Extra
Source:K RETURN OF KINGS
Tags:japanese full version pop anime ed ending jpop j-pop rock jrock j-rock kuuti LandoriK Ayesha Altugle Shizuku- Kazato Asa Shikibe Mayu Kyuuchie Amateurre
BeatmapID:3712294
BeatmapSetID:1809920

[Difficulty]
HPDrainRate:6
CircleSize:4
OverallDifficulty:8.5
ApproachRate:9.1
SliderMultiplier:1.9
SliderTickRate:1

[Events]
//Background and Video events
0,0,"bg.jpg",0,0
//Break Periods
2,32544,42078
2,128544,135744
2,213878,223078
//Storyboard Layer 0 (Background)
//Storyboard Layer 1 (Fail)
//Storyboard Layer 2 (Pass)
//Storyboard Layer 3 (Foreground)
//Storyboard Layer 4 (Overlay)
//Storyboard Sound Samples

[TimingPoints]
345,333.333333333333,4,2,1,30,1,0
345,-166.666666666667,4,2,1,30,0,0
10344,-100,4,2,1,60,0,0
11011,-100,4,2,1,70,0,0
13011,-166.666666666667,4,2,1,50,0,0
13678,-100,4,2,1,70,0,0
15678,-166.666666666667,4,2,1,50,0,0
16344,-100,4,2,1,70,0,0
18344,-166.666666666667,4,2,1,50,0,0
19011,-100,4,2,1,70,0,0
21344,-83.3333333333333,4,2,1,70,0,0
21678,-90.9090909090909,4,2,1,70,0,0
32344,-200,4,2,1,30,0,0
42678,-133.333333333333,4,2,1,40,0,0
43011,-166.666666666667,4,2,1,40,0,0
53678,-100,4,2,1,70,0,0
64344,-133.333333333333,4,2,1,50,0,0
74344,-200,4,2,1,50,0,0
74678,-83.3333333333333,4,2,1,60,0,0
75011,-111.111111111111,4,2,1,50,0,0
85678,-100,4,2,1,70,0,0
96344,-100,4,2,1,70,0,0
105678,-90.9090909090909,4,2,1,80,0,0
106344,-111.111111111111,4,2,1,60,0,0
107011,-90.9090909090909,4,2,1,80,0,1
128344,-100,4,2,1,70,0,0
139011,-90.9090909090909,4,2,1,70,0,0
149678,-111.111111111111,4,2,1,50,0,0
171011,-100,4,2,1,70,0,0
181678,-90.9090909090909,4,2,1,80,0,0
213678,-133.333333333333,4,2,1,30,0,0
223678,-100,4,2,1,40,0,0
224344,-100,4,2,1,70,0,0
233678,-90.9090909090909,4,2,1,80,0,0
234344,-111.111111111111,4,2,1,60,0,0
235011,-90.9090909090909,4,2,1,80,0,1
277678,-90.9090909090909,4,2,1,40,0,0
280344,342.857142857143,4,2,1,100,1,0
281715,352.941176470588,4,2,1,100,1,0
283017,400,4,2,1,100,1,0
283817,461.538461538462,4,2,1,100,1,0
284278,705.882352941176,4,2,1,100,1,0
285689,909.090909090909,4,2,1,100,1,0

[Colours]
Combo1 : 212,212,212
Combo2 : 255,128,128
Combo3 : 0,128,192
Combo4 : 255,255,128
Combo5 : 128,255,128

[HitObjects]
256,192,8345,12,0,10011,0:0:0:0:
72,118,10344,5,0,1:0:0:0:
178,153,10511,1,0,1:0:0:0:
107,189,10678,1,0,1:0:0:0:
141,89,10844,1,0,1:0:0:0:
255,176,11011,6,0,B|314:153|392:154|392:154|348:202,1,190,14|0,0:0|3:2,0:0:0:0:
321,334,11511,1,10,0:0:0:0:
321,334,11678,2,0,P|264:340|204:350,1,95,0|0,3:2|3:2,0:0:0:0:
205,265,12011,2,0,P|251:257|299:253,1,95,10|0,0:0|3:2,0:0:0:0:
483,307,12344,5,2,0:0:0:0:
423,151,12511,1,8,0:0:0:0:
404,266,12678,1,0,3:2:0:0:
404,266,12761,1,0,3:2:0:0:
404,266,12844,1,0,3:2:0:0:
404,266,12928,1,0,3:2:0:0:
404,266,13011,2,0,P|392:314|378:384,1,113.999996520996,0|0,3:2|3:2,0:0:0:0:
469,217,13678,6,0,P|409:184|324:272,1,190,14|0,0:0|3:2,0:0:0:0:
244,119,14178,1,10,0:0:0:0:
240,196,14344,2,0,L|235:252,2,47.5,0|0|0,3:2|3:2|3:2,0:0:0:0:
326,141,14678,2,0,P|322:85|287:45,1,95,10|0,0:0|3:2,0:0:0:0:
146,167,15011,6,0,P|148:195|160:220,3,47.5,2|0|0|0,0:0|3:2|3:2|3:2,0:0:0:0:
114,272,15344,2,0,P|137:286|162:290,3,47.5,0|0|0|0,3:2|3:2|3:2|3:2,0:0:0:0:
222,333,15678,2,0,P|196:336|100:358,1,113.999996520996,0|0,3:2|3:2,0:0:0:0:
44,227,16344,6,0,B|180:253|106:214|233:237,1,190,14|0,0:0|3:2,0:0:0:0:
318,268,16844,2,0,P|375:259|424:253,1,95,10|0,0:0|3:2,0:0:0:0:
411,254,17094,1,0,3:2:0:0:
411,254,17178,1,0,3:2:0:0:
415,122,17344,2,0,P|402:151|393:179,3,47.5,10|0|0|0,0:0|0:0|3:2|3:2,0:0:0:0:
397,166,17678,6,0,P|349:172|303:179,1,95,2|8,0:0|0:0,0:0:0:0:
163,141,18011,1,2,3:2:0:0:
211,56,18178,1,0,3:2:0:0:
243,127,18344,1,0,3:2:0:0:
84,45,18678,1,0,3:2:0:0:
84,45,19011,6,0,P|76:114|68:158,1,95,14|8,0:0|0:0,0:0:0:0:
71,139,19261,1,0,3:2:0:0:
71,139,19344,1,0,3:2:0:0:
243,217,19511,2,0,P|251:148|259:104,1,95,8|0,0:0|3:2,0:0:0:0:
255,122,19761,1,0,3:2:0:0:
255,122,19844,1,0,3:2:0:0:
133,275,20011,1,8,0:0:0:0:
168,150,20178,1,0,3:2:0:0:
314,265,20344,1,0,3:2:0:0:
314,265,20511,6,0,B|340:267|340:267|375:283,1,47.5,2|0,0:0|0:0,0:0:0:0:
233,322,20678,2,0,B|218:343|218:343|186:365,1,47.5,2|0,3:2|3:2,0:0:0:0:
218,231,20844,2,0,B|206:207|206:207|203:169,1,47.5,2|0,0:0|0:0,0:0:0:0:
34,298,21011,1,2,3:2:0:0:
57,295,21094,1,0,3:2:0:0:
80,292,21178,1,2,3:2:0:0:
103,289,21261,1,0,3:2:0:0:
126,286,21344,2,0,B|90:309|90:309|16:268|53:185,1,170.999994781494,14|0,0:0|0:0,0:0:0:0:
102,140,21678,6,0,P|174:162|243:110,1,156.750004783631,6|0,0:0|0:0,0:0:0:0:
237,119,22011,2,0,L|228:252,1,104.500003189087,8|2,0:0|3:2,0:0:0:0:
474,251,22344,1,0,3:2:0:0:
314,190,22511,1,0,3:2:0:0:
431,110,22678,1,10,0:0:0:0:
401,204,22844,1,0,3:2:0:0:
330,106,23011,6,0,P|338:29|342:-5,1,104.500003189087,2|0,3:2|3:2,0:0:0:0:
174,74,23344,2,0,P|168:125|162:177,1,104.500003189087,10|0,0:0|3:2,0:0:0:0:
238,222,23678,1,2,3:2:0:0:
253,39,23844,1,0,3:2:0:0:
238,222,24011,1,10,0:0:0:0:
92,116,24178,1,0,3:2:0:0:
307,176,24344,5,2,3:2:0:0:
390,170,24511,1,0,3:2:0:0:
473,164,24678,1,8,0:0:0:0:
229,303,24844,5,2,3:2:0:0:
146,297,25011,1,0,3:2:0:0:
63,291,25178,1,0,3:2:0:0:
295,242,25344,5,10,0:0:0:0:
285,371,25511,1,0,3:2:0:0:
189,227,25678,6,0,P|181:157|171:98,1,104.500003189087,2|0,3:2|3:2,0:0:0:0:
314,37,26011,2,0,P|322:107|332:166,1,104.500003189087,10|0,0:0|3:2,0:0:0:0:
321,284,26344,1,2,3:2:0:0:
413,213,26511,1,0,3:2:0:0:
262,192,26678,1,10,0:0:0:0:
398,290,26844,1,0,3:2:0:0:
258,336,27011,6,0,P|198:329|142:288,1,104.500003189087,6|0,0:0|3:2,0:0:0:0:
155,227,27344,1,8,0:0:0:0:
30,355,27511,2,0,P|55:300|111:259,1,104.500003189087,2|0,3:2|3:2,0:0:0:0:
230,253,27844,1,0,3:2:0:0:
201,62,28011,1,10,0:0:0:0:
70,168,28178,1,0,3:2:0:0:
214,143,28344,6,0,P|290:136|359:130,1,104.500003189087,0|0,3:2|3:2,0:0:0:0:
493,190,28678,2,0,P|417:197|348:203,1,104.500003189087,10|0,0:0|3:2,0:0:0:0:
270,309,29011,1,2,3:2:0:0:
313,214,29178,1,0,3:2:0:0:
357,350,29344,1,10,0:0:0:0:
235,236,29511,1,0,3:2:0:0:
162,362,29678,5,2,3:2:0:0:
81,340,29844,1,0,3:2:0:0:
55,260,30011,1,8,0:0:0:0:
128,134,30178,5,2,3:2:0:0:
209,156,30344,1,0,3:2:0:0:
235,236,30511,1,0,3:2:0:0:
143,247,30678,5,10,0:0:0:0:
265,81,30844,1,2,3:2:0:0:
361,271,31011,5,2,0:0:0:0:
361,271,31094,2,0,L|469:262,1,104.500003189087,2|0,0:0|3:2,0:0:0:0:
465,262,31344,1,2,0:0:0:0:
465,262,31511,1,2,3:2:0:0:
228,309,31678,6,0,L|154:305,1,52.2500015945435,2|0,0:0|3:2,0:0:0:0:
358,189,31844,2,0,P|332:195|309:208,1,52.2500015945435,2|0,0:0|0:0,0:0:0:0:
359,352,32011,2,0,P|333:346|300:324,1,52.2500015945435,2|0,0:0|0:0,0:0:0:0:
227,226,32177,2,0,L|174:228,1,52.2500015945435,2|0,0:0|0:0,0:0:0:0:
361,271,32344,1,2,3:2:0:0:
200,213,42678,6,0,P|193:180|127:169,1,106.875004076958,2|0,0:1|0:0,0:0:0:0:
130,168,43011,6,0,P|178:181|239:136,1,113.999996520996,0|0,3:2|0:0,0:0:0:0:
257,38,43511,1,0,0:0:0:0:
420,117,43678,2,0,P|369:113|289:106,1,113.999996520996,2|2,0:0|0:0,0:0:0:0:
306,107,44178,6,0,L|312:174,1,56.9999982604981,2|0,0:0|0:0,0:0:0:0:
264,287,44511,2,0,L|255:208,1,56.9999982604981,2|0,0:0|0:0,0:0:0:0:
345,243,44844,2,0,L|416:251,1,56.9999982604981,2|0,0:0|0:0,0:0:0:0:
424,338,45178,1,2,0:0:0:0:
424,338,45344,2,0,L|367:331,1,56.9999982604981,0|2,0:0|0:0,0:0:0:0:
210,361,45678,6,0,L|135:351,1,56.9999982604981,2|0,0:0|0:0,0:0:0:0:
153,353,46011,1,2,0:0:0:0:
264,287,46178,2,0,P|257:226|247:152,1,113.999996520996,2|2,0:0|0:0,0:0:0:0:
250,173,46678,1,0,0:0:0:0:
70,264,46844,6,0,L|191:278,1,113.999996520996,2|0,0:0|0:0,0:0:0:0:
183,277,47344,2,0,L|178:205,1,56.9999982604981
137,70,47678,2,0,P|178:96|241:90,1,113.999996520996,2|2,0:0|0:0,0:0:0:0:
404,77,48344,5,2,0:0:0:0:
404,77,48511,2,0,P|364:73|327:68,1,56.9999982604981,2|0,0:0|0:0,0:0:0:0:
379,232,48844,1,2,0:0:0:0:
379,232,49011,2,0,P|339:236|302:241,1,56.9999982604981,2|0,0:0|0:0,0:0:0:0:
334,158,49344,1,2,0:0:0:0:
334,158,49511,6,0,B|261:151|295:180|223:173,1,113.999996520996,2|2,0:0|0:0,0:0:0:0:
76,129,50011,1,0,0:0:0:0:
76,129,50178,1,2,0:0:0:0:
36,205,50344,2,0,P|80:217|148:178,1,113.999996520996,2|2,0:0|0:0,0:0:0:0:
139,189,50844,6,0,P|149:243|154:320,1,113.999996520996,2|2,0:0|0:0,0:0:0:0:
68,363,51344,1,2,0:0:0:0:
256,192,51428,12,0,52678,0:0:0:0:
170,117,53011,6,0,L|174:163,3,28.4999991302491,2|2|2|2,0:0|0:0|0:0|0:0,0:0:0:0:
93,175,53344,1,2,0:0:0:0:
118,208,53427,1,2,0:0:0:0:
157,225,53510,1,2,0:0:0:0:
199,222,53594,1,2,0:0:0:0:
234,196,53678,6,0,B|299:190|299:190|337:206|337:206|421:198,1,190,14|0,0:0|3:2,0:0:0:0:
379,28,54178,1,10,0:0:0:0:
475,117,54344,2,0,L|377:111,1,95,0|0,3:2|3:2,0:0:0:0:
473,22,54678,2,0,L|378:27,1,95,10|0,0:0|3:2,0:0:0:0:
251,186,55011,5,2,0:0:0:0:
214,0,55178,1,8,0:0:0:0:
295,116,55344,1,0,3:2:0:0:
295,116,55428,1,0,3:2:0:0:
295,116,55511,1,0,3:2:0:0:
295,116,55594,1,0,3:2:0:0:
295,116,55678,2,0,P|299:49|303:4,1,95,8|0,3:2|3:2,0:0:0:0:
171,153,56011,2,0,P|167:184|162:208,3,47.5,0|0|0|0,3:2|3:2|3:2|3:2,0:0:0:0:
153,216,56344,5,14,0:0:0:0:
325,259,56511,2,0,P|261:250|213:241,1,95,0|0,3:2|3:2,0:0:0:0:
90,274,56844,1,10,0:0:0:0:
171,374,57011,2,0,P|175:343|180:319,3,47.5,0|0|0|0,3:2|3:2|3:2|3:2,0:0:0:0:
173,307,57344,1,10,0:0:0:0:
328,371,57511,1,0,3:2:0:0:
318,165,57678,6,0,P|330:192|352:213,3,47.5,6|0|0|0,0:0|3:2|3:2|3:2,0:0:0:0:
391,266,58011,2,0,P|369:285|355:313,1,47.5,0|0,3:2|3:2,0:0:0:0:
328,371,58178,2,0,P|302:356|272:352,1,47.5,0|0,3:2|3:2,0:0:0:0:
189,283,58344,2,0,P|251:274|317:263,1,95,4|0,3:2|3:2,0:0:0:0:
429,171,58678,1,0,3:2:0:0:
429,171,58761,1,0,3:2:0:0:
429,171,58844,1,0,3:2:0:0:
429,171,58928,1,0,3:2:0:0:
429,171,59011,5,14,0:0:0:0:
448,252,59178,2,0,P|398:251|346:196,1,95,0|0,3:2|3:2,0:0:0:0:
222,125,59511,1,10,0:0:0:0:
203,206,59678,2,0,P|253:205|305:150,1,95,0|0,3:2|3:2,0:0:0:0:
373,50,60011,2,0,P|365:112|360:164,1,95,10|0,0:0|3:2,0:0:0:0:
361,144,60261,1,0,3:2:0:0:
361,144,60344,5,2,0:0:0:0:
182,118,60511,1,8,0:0:0:0:
288,66,60678,1,2,3:2:0:0:
265,206,60844,1,0,3:2:0:0:
103,169,61011,2,0,P|95:97|87:45,1,95,12|0,3:2|0:0,0:0:0:0:
265,206,61344,2,0,L|256:275,3,47.5,0|0|0|0,3:2|3:2|3:2|3:2,0:0:0:0:
267,270,61678,5,14,0:0:0:0:
81,257,61844,2,0,P|152:244|218:238,1,95,8|0,0:0|3:2,0:0:0:0:
349,297,62178,1,8,0:0:0:0:
393,121,62344,1,0,3:2:0:0:
279,248,62511,1,0,3:2:0:0:
279,248,62594,1,0,3:2:0:0:
279,248,62678,1,8,0:0:0:0:
427,311,62844,2,0,P|424:274|398:231,1,47.5,8|0,3:2|3:2,0:0:0:0:
357,221,63011,1,0,3:2:0:0:
200,286,63178,6,0,P|166:281|131:262,1,47.5,2|0,0:0|0:0,0:0:0:0:
261,164,63344,2,0,P|275:133|305:105,1,47.5,2|0,3:2|3:2,0:0:0:0:
199,209,63511,1,2,0:0:0:0:
199,209,63678,6,0,P|182:179|177:139,1,47.5,2|0,3:2|3:2,0:0:0:0:
336,185,63844,2,0,P|369:178|408:186,1,47.5,2|0,3:2|3:2,0:0:0:0:
261,164,64011,2,0,P|275:133|305:105,1,47.5,10|0,0:0|0:0,0:0:0:0:
360,260,64177,2,0,P|384:283|401:319,1,47.5,2|0,0:0|0:0,0:0:0:0:
459,166,64344,6,0,P|465:119|471:77,1,71.2500027179719,4|0,0:0|0:0,0:0:0:0:
393,0,64678,2,0,P|387:47|381:89,1,71.2500027179719,0|0,3:2|0:0,0:0:0:0:
367,157,65011,2,0,P|308:163|203:177,1,142.500005435944,2|2,3:2|3:2,0:0:0:0:
46,227,65511,6,0,P|90:244|139:244,1,71.2500027179719,2|0,0:0|3:2,0:0:0:0:
123,110,65844,2,0,P|135:155|163:195,1,71.2500027179719,2|0,0:0|3:2,0:0:0:0:
270,281,66178,2,0,P|233:302|191:315,1,71.2500027179719,2|0,0:0|3:2,0:0:0:0:
147,176,66511,1,2,0:0:0:0:
205,229,66678,1,2,3:2:0:0:
224,150,66844,1,2,0:0:0:0:
283,208,67011,6,0,P|328:211|451:222,1,142.500005435944,2|2,3:2|3:2,0:0:0:0:
425,219,67511,2,0,P|443:157|451:132,1,71.2500027179719,2|0,0:0|3:2,0:0:0:0:
283,208,67844,2,0,P|265:270|257:295,1,71.2500027179719,2|0,0:0|3:2,0:0:0:0:
363,134,68178,6,0,P|318:130|195:120,1,142.500005435944,2|0,0:0|0:0,0:0:0:0:
220,122,68678,2,0,P|217:82|212:26,1,71.2500027179719,0|0,3:2|0:0,0:0:0:0:
71,135,69011,2,0,P|116:138|151:140,1,71.2500027179719,2|0,3:2|0:0,0:0:0:0:
112,57,69344,2,0,P|76:54|40:52,1,71.2500027179719,2|0,3:2|0:0,0:0:0:0:
11,196,69678,5,2,3:2:0:0:
11,196,69844,2,0,P|5:249|1:289,1,71.2500027179719,2|0,0:0|3:2,0:0:0:0:
96,302,70178,1,2,0:0:0:0:
96,302,70344,2,0,P|90:355|86:395,1,71.2500027179719,2|0,3:2|0:0,0:0:0:0:
180,179,70678,1,2,3:2:0:0:
180,179,70844,2,0,P|174:232|170:272,1,71.2500027179719,2|0,0:0|3:2,0:0:0:0:
234,320,71178,5,2,0:0:0:0:
310,306,71344,1,2,3:2:0:0:
258,248,71511,1,2,0:0:0:0:
355,136,71678,2,0,P|383:181|370:283,1,142.500005435944,2|2,3:2|3:2,0:0:0:0:
497,348,72178,1,2,0:0:0:0:
497,348,72344,6,0,P|445:336|402:307,1,71.2500027179719,0|2,3:2|0:0,0:0:0:0:
429,327,72594,1,2,0:0:0:0:
434,335,72678,2,0,P|377:349|349:349,1,71.2500027179719,2|0,3:2|0:0,0:0:0:0:
282,355,73011,2,0,P|251:305|242:279,1,71.2500027179719,0|0,3:2|0:0,0:0:0:0:
210,219,73344,2,0,P|247:174|270:158,1,71.2500027179719,0|0,3:2|0:0,0:0:0:0:
368,220,73678,6,0,P|323:234|278:237,1,71.2500027179719,0|0,3:2|0:0,0:0:0:0:
204,98,74011,2,0,P|249:84|294:81,1,71.2500027179719,0|0,3:2|0:0,0:0:0:0:
469,144,74344,6,0,P|428:140|402:112,1,71.25,4|0,3:2|0:0,0:0:0:0:
461,69,74678,6,0,P|446:153|434:258,1,170.999994781494,2|0,1:1|0:0,0:0:0:0:
435,238,75011,6,0,P|383:245|320:255,1,85.4999973907472,4|0,3:2|0:0,0:0:0:0:
275,175,75344,2,0,P|327:168|390:158,1,85.4999973907472,8|0,0:0|0:0,0:0:0:0:
268,260,75678,1,2,3:2:0:0:
268,260,75844,1,0,0:0:0:0:
199,118,76011,2,0,P|191:181|185:235,1,85.4999973907472,10|2,0:0|0:0,0:0:0:0:
30,321,76344,6,0,P|88:277|196:310,1,170.999994781494,0|10,3:2|0:0,0:0:0:0:
179,294,76844,1,0,0:0:0:0:
262,337,77011,2,0,P|324:329|385:323,1,85.4999973907472,2|0,3:2|0:0,0:0:0:0:
341,240,77344,2,0,P|298:244|256:250,1,85.4999973907472,10|0,0:0|0:0,0:0:0:0:
176,206,77678,6,0,B|128:174|128:174|108:126|115:48,1,170.999994781494,2|10,3:2|0:0,0:0:0:0:
194,118,78178,2,0,P|204:53|211:21,1,85.4999973907472,2|0,0:0|3:2,0:0:0:0:
208,33,78511,1,2,0:0:0:0:
31,95,78678,2,0,P|20:160|13:192,1,85.4999973907472,10|0,0:0|0:0,0:0:0:0:
117,212,79011,6,0,P|192:206|299:195,1,170.999994781494,0|8,3:2|0:0,0:0:0:0:
419,66,79511,1,0,0:0:0:0:
454,153,79678,2,0,P|387:147|341:134,1,85.4999973907472,2|0,3:2|0:0,0:0:0:0:
369,142,80011,1,10,0:0:0:0:
256,279,80178,1,0,0:0:0:0:
421,353,80344,5,2,3:2:0:0:
421,353,80511,2,0,P|430:296|443:241,1,85.4999973907472,2|8,0:0|0:0,0:0:0:0:
351,252,80844,1,2,0:0:0:0:
351,252,81011,2,0,P|342:293|336:336,1,85.4999973907472,2|0,3:2|0:0,0:0:0:0:
80,319,81344,5,10,0:0:0:0:
80,319,81511,2,0,P|71:262|58:207,1,85.4999973907472,2|0,0:0|3:2,0:0:0:0:
150,218,81844,1,2,0:0:0:0:
150,218,82011,2,0,P|158:259|164:302,1,85.4999973907472,10|0,0:0|0:0,0:0:0:0:
294,160,82344,2,0,P|299:94|305:40,1,85.4999973907472,2|0,3:2|0:0,0:0:0:0:
217,115,82678,1,10,0:0:0:0:
272,248,82844,1,2,0:0:0:0:
272,248,82928,1,2,0:0:0:0:
272,248,83011,6,0,P|316:241|391:232,1,85.4999973907472,0|0,3:2|0:0,0:0:0:0:
500,187,83344,2,0,P|456:180|381:171,1,85.4999973907472,8|0,0:0|0:0,0:0:0:0:
250,164,83678,2,0,P|294:157|369:148,1,85.4999973907472,0|0,3:2|0:0,0:0:0:0:
500,99,84011,2,0,P|456:92|381:83,1,85.4999973907472,8|0,0:0|0:0,0:0:0:0:
206,54,84344,5,0,3:2:0:0:
301,179,84511,1,8,0:0:0:0:
285,44,84678,2,0,P|281:73|278:113,1,42.7499986953736,2|2,0:0|3:2,0:0:0:0:
222,191,84844,2,0,P|226:162|229:122,1,42.7499986953736,2|2,0:0|0:0,0:0:0:0:
352,116,85011,6,0,P|398:113|469:105,1,85.4999973907472,10|2,0:0|0:0,0:0:0:0:
149,159,85344,2,0,P|103:156|32:148,1,85.4999973907472,10|2,0:0|0:0,0:0:0:0:
367,274,85678,5,6,3:2:0:0:
263,311,85844,2,0,P|219:275|206:226,1,95,0|2,3:2|0:0,0:0:0:0:
279,201,86178,5,8,0:0:0:0:
367,274,86344,2,0,P|357:330|321:365,1,95,2|0,0:0|3:2,0:0:0:0:
263,311,86678,5,10,0:0:0:0:
279,201,86844,2,0,P|332:180|381:194,1,95,0|2,3:2|0:0,0:0:0:0:
487,230,87178,5,8,0:0:0:0:
487,230,87344,2,0,L|498:152,1,47.5,2|2,0:0|3:2,0:0:0:0:
436,79,87511,2,0,L|425:157,1,47.5,0|2,3:2|3:2,0:0:0:0:
405,202,87678,2,0,L|238:217,1,142.5,8|0,0:0|0:0,0:0:0:0:
191,244,88011,5,0,3:2:0:0:
186,243,88094,1,0,3:2:0:0:
181,242,88178,1,0,3:2:0:0:
176,241,88261,1,0,3:2:0:0:
171,240,88344,5,10,0:0:0:0:
76,187,88511,2,0,P|74:130|102:88,1,95,0|2,3:2|0:0,0:0:0:0:
168,126,88845,5,0,3:2:0:0:
171,240,89011,2,0,P|122:269|72:266,1,95,2|0,0:0|3:2,0:0:0:0:
76,187,89345,5,10,0:0:0:0:
168,126,89511,2,0,P|218:152|240:198,1,95,0|6,3:2|0:0,0:0:0:0:
383,111,89844,5,8,0:0:0:0:
318,204,90011,2,0,L|312:118,1,47.5,2|2,0:0|3:2,0:0:0:0:
307,78,90178,2,0,L|301:-8,1,47.5,0|2,3:2|3:2,0:0:0:0:
466,95,90344,6,0,L|460:161,3,47.5,8|0|0|0,0:0|3:2|3:2|3:2,0:0:0:0:
486,215,90678,1,0,3:2:0:0:
485,219,90761,1,0,3:2:0:0:
484,223,90844,1,0,3:2:0:0:
483,227,90928,1,0,3:2:0:0:
482,231,91011,5,6,0:0:0:0:
390,253,91178,2,0,P|338:249|286:222,1,95,0|2,3:2|0:0,0:0:0:0:
224,80,91511,5,8,0:0:0:0:
324,147,91678,2,0,P|272:151|220:178,1,95,2|0,0:0|3:2,0:0:0:0:
108,213,92011,6,0,L|40:220,3,47.5,10|0|0|0,0:0|3:2|3:2|3:2,0:0:0:0:
48,212,92344,5,2,0:0:0:0:
183,235,92511,1,8,0:0:0:0:
107,78,92678,2,0,P|177:70|218:65,1,95,2|0,0:0|3:2,0:0:0:0:
256,142,93011,2,0,P|186:150|145:155,1,95,10|0,0:0|3:2,0:0:0:0:
161,152,93261,1,2,3:2:0:0:
161,152,93344,1,2,0:0:0:0:
88,282,93511,1,2,0:0:0:0:
177,248,93678,5,12,0:0:0:0:
49,201,93844,1,2,0:0:0:0:
49,201,93928,1,2,0:0:0:0:
49,201,94011,1,2,0:0:0:0:
4,327,94178,1,12,0:0:0:0:
257,356,94344,5,0,3:2:0:0:
222,331,94427,1,0,0:0:0:0:
179,326,94510,1,0,3:2:0:0:
140,343,94593,1,0,0:0:0:0:
115,376,94678,2,0,L|51:367,1,47.5,12|0,0:0|0:0,0:0:0:0:
236,254,94844,2,0,L|300:263,2,47.5,0|0|0,3:2|3:2|3:2,0:0:0:0:
154,252,95178,5,2,3:2:0:0:
360,177,95344,1,2,3:2:0:0:
183,83,95511,1,2,3:2:0:0:
183,83,95594,1,2,3:2:0:0:
183,83,95678,2,0,P|189:142|194:204,1,95,2|2,3:2|3:2,0:0:0:0:
308,262,96011,1,2,3:2:0:0:
331,265,96094,1,0,3:2:0:0:
354,269,96178,1,2,3:2:0:0:
377,273,96261,1,0,3:2:0:0:
400,277,96344,6,0,B|452:236|452:236|454:177|442:88,1,190,6|10,3:2|0:0,0:0:0:0:
445,112,96844,1,0,0:0:0:0:
363,191,97011,2,0,P|312:186|245:180,1,95,2|0,3:2|0:0,0:0:0:0:
248,23,97344,2,0,P|295:27|342:31,1,95,10|0,0:0|0:0,0:0:0:0:
322,107,97678,6,0,L|174:93,1,142.5,2|0,3:2|0:0,0:0:0:0:
180,93,98011,2,0,P|167:28|159:-10,1,95,10|0,0:0|0:0,0:0:0:0:
55,236,98344,1,0,3:2:0:0:
55,236,98428,1,0,3:2:0:0:
55,236,98511,1,0,3:2:0:0:
55,236,98594,1,0,3:2:0:0:
55,236,98678,2,0,L|130:242,1,47.5,10|0,0:0|0:0,0:0:0:0:
196,174,98844,2,0,L|121:168,1,47.5,8|0,0:0|0:0,0:0:0:0:
150,314,99011,6,0,P|198:268|322:310,1,190,2|10,3:2|0:0,0:0:0:0:
309,292,99511,1,0,0:0:0:0:
477,306,99678,2,0,P|485:239|495:181,1,95,2|0,3:2|3:2,0:0:0:0:
408,166,100011,2,0,P|400:212|395:260,1,95,10|0,0:0|0:0,0:0:0:0:
281,380,100344,6,0,B|241:350|241:350|225:300|233:232,1,142.5,2|0,3:2|0:0,0:0:0:0:
230,258,100678,2,0,P|173:252|92:238,1,95,10|0,0:0|0:0,0:0:0:0:
89,160,101011,1,0,3:2:0:0:
89,160,101094,2,0,P|145:165|226:179,1,95,0|0,3:2|3:2,0:0:0:0:
183,170,101344,2,0,L|191:108,1,47.5,8|0,0:0|0:0,0:0:0:0:
327,110,101511,2,0,L|334:47,1,47.5,8|0,0:0|0:0,0:0:0:0:
280,231,101678,6,0,P|329:195|418:219,1,142.5,2|0,3:2|0:0,0:0:0:0:
405,208,102011,2,0,P|421:132|431:83,1,95,10|0,0:0|0:0,0:0:0:0:
354,281,102344,1,2,3:2:0:0:
354,281,102511,1,0,0:0:0:0:
232,153,102678,6,0,P|183:189|94:164,1,142.5,10|0,0:0|0:0,0:0:0:0:
106,175,103011,2,0,P|91:252|81:301,1,95,2|0,3:2|0:0,0:0:0:0:
158,103,103344,1,10,0:0:0:0:
158,103,103511,1,0,0:0:0:0:
207,284,103678,5,2,3:2:0:0:
207,284,103761,2,0,P|261:278|322:273,1,95,0|0,3:2|3:2,0:0:0:0:
301,274,104011,2,0,L|307:208,1,47.5,10|0,0:0|0:0,0:0:0:0:
232,153,104178,2,0,L|220:242,1,47.5,8|0,0:0|0:0,0:0:0:0:
209,363,104344,5,2,3:2:0:0:
209,363,104511,1,0,0:0:0:0:
386,263,104678,1,8,0:0:0:0:
386,263,104844,1,0,0:0:0:0:
146,167,105011,5,0,3:2:0:0:
146,167,105178,1,0,0:0:0:0:
323,66,105345,1,8,0:0:0:0:
323,66,105511,1,0,0:0:0:0:
146,167,105678,5,14,0:0:0:0:
386,263,105844,1,8,0:0:0:0:
326,49,106011,1,10,0:0:0:0:
216,215,106344,6,0,B|294:206|250:177|331:167,1,128.249996086121,2|0,0:0|0:0,0:0:0:0:
331,166,106678,2,0,B|253:157|297:128|216:118,1,128.249996086121,2|0,0:2|0:0,0:0:0:0:
130,136,107011,6,0,P|85:193|97:285,1,156.750004783631,6|0,1:2|0:0,0:0:0:0:
90,273,107344,1,8,0:0:0:0:
270,304,107511,1,0,3:2:0:0:
194,361,107678,2,0,P|179:316|190:250,1,104.500003189087,2|0,1:2|3:2,0:0:0:0:
329,140,108011,2,0,P|344:185|333:251,1,104.500003189087,10|0,0:0|3:2,0:0:0:0:
337,240,108261,1,2,0:0:0:0:
337,240,108344,5,2,1:2:0:0:
508,294,108511,1,0,3:2:0:0:
448,203,108678,1,8,0:0:0:0:
403,338,108844,1,0,3:2:0:0:
262,266,109011,2,0,P|191:275|133:285,1,104.500003189087,2|0,1:2|0:0,0:0:0:0:
158,280,109261,1,0,3:2:0:0:
158,280,109344,1,10,0:0:0:0:
233,84,109511,1,0,0:0:0:0:
152,138,109678,6,0,B|210:173|210:173|313:158,1,156.750004783631,2|0,1:2|0:0,0:0:0:0:
298,160,110011,1,8,0:0:0:0:
107,213,110178,1,0,3:2:0:0:
263,352,110344,2,0,P|269:279|276:226,1,104.500003189087,2|0,1:2|3:2,0:0:0:0:
180,271,110678,2,0,P|174:322|169:374,1,104.500003189087,10|0,0:0|3:2,0:0:0:0:
169,374,110928,1,2,0:0:0:0:
169,374,111011,5,2,1:2:0:0:
351,332,111178,1,0,3:2:0:0:
198,164,111344,5,8,0:0:0:0:
263,352,111511,1,0,3:2:0:0:
438,249,111678,5,2,1:2:0:0:
438,249,111761,2,0,P|364:239|311:221,1,104.500003189087,0|0,3:2|3:2,0:0:0:0:
335,230,112011,2,0,L|327:157,1,52.2500015945435,10|0,0:0|3:2,0:0:0:0:
411,104,112178,2,0,L|416:174,1,52.2500015945435,0|0,3:2|0:0,0:0:0:0:
252,225,112344,6,0,B|207:175|207:175|213:121|220:58,1,156.750004783631,6|0,1:2|0:0,0:0:0:0:
216,86,112678,1,8,0:0:0:0:
29,166,112844,1,0,3:2:0:0:
155,271,113011,2,0,P|76:285|28:295,1,104.500003189087,2|0,1:2|3:2,0:0:0:0:
52,289,113261,1,2,0:0:0:0:
52,289,113344,1,10,0:0:0:0:
92,59,113511,1,0,0:0:0:0:
255,152,113678,5,2,1:2:0:0:
89,189,113844,1,0,0:0:0:0:
180,99,114011,1,10,0:0:0:0:
213,235,114178,1,0,3:2:0:0:
330,99,114345,5,2,1:2:0:0:
297,235,114511,1,0,0:0:0:0:
421,189,114677,1,10,0:0:0:0:
255,152,114844,1,0,0:0:0:0:
310,318,115011,6,0,P|252:323|188:331,1,104.500003189087,2|0,1:2|3:2,0:0:0:0:
202,66,115344,2,0,P|260:61|324:53,1,104.500003189087,8|0,0:0|3:2,0:0:0:0:
120,250,115678,6,0,P|114:187|106:118,1,104.500003189087,0|0,1:2|3:2,0:0:0:0:
391,133,116011,2,0,P|397:196|405:265,1,104.500003189087,8|0,0:0|3:2,0:0:0:0:
200,178,116344,5,2,1:2:0:0:
313,201,116511,1,0,3:2:0:0:
245,244,116678,1,10,0:0:0:0:
265,134,116844,1,0,3:2:0:0:
182,329,117011,6,0,P|271:321|361:313,1,156.750004783631,2|0,3:2|3:2,0:0:0:0:
338,315,117344,1,10,0:0:0:0:
389,125,117511,1,0,0:0:0:0:
474,208,117678,6,0,P|385:216|295:224,1,156.750004783631,14|0,0:0|0:0,0:0:0:0:
317,221,118011,2,0,P|314:161|266:105,1,104.500003189087,8|0,0:0|3:2,0:0:0:0:
155,232,118344,2,0,P|158:292|206:348,1,104.500003189087,8|0,0:0|3:2,0:0:0:0:
234,192,118678,1,10,0:0:0:0:
91,167,118844,1,2,0:0:0:0:
91,167,118928,1,2,0:0:0:0:
91,167,119011,5,10,0:0:0:0:
149,3,119178,1,0,3:2:0:0:
165,136,119344,1,10,0:0:0:0:
307,76,119511,1,0,3:2:0:0:
326,212,119678,2,0,P|392:203|452:197,1,104.500003189087,10|0,0:0|0:0,0:0:0:0:
429,198,119928,1,0,3:2:0:0:
429,198,120011,1,10,0:0:0:0:
261,149,120178,1,0,0:0:0:0:
283,287,120344,6,0,P|217:272|149:333,1,156.750004783631,10|0,0:0|0:0,0:0:0:0:
151,324,120678,2,0,P|83:312|33:306,1,104.500003189087,8|0,0:0|3:2,0:0:0:0:
9,129,121011,2,0,P|77:141|127:147,1,104.500003189087,8|0,0:0|3:2,0:0:0:0:
46,219,121344,1,10,0:0:0:0:
201,88,121511,1,0,3:2:0:0:
201,88,121594,1,0,3:2:0:0:
201,88,121678,6,0,P|197:151|235:220,1,104.500003189087,10|0,0:0|0:0,0:0:0:0:
278,320,122011,2,0,P|278:256|310:194,1,104.500003189087,10|0,0:0|3:2,0:0:0:0:
281,128,122344,1,10,0:0:0:0:
147,243,122511,1,0,0:0:0:0:
363,285,122678,2,0,P|432:278|496:274,1,104.500003189087,10|0,0:0|0:0,0:0:0:0:
484,116,123011,6,0,P|425:130|342:57,1,156.750004783631,10|0,0:0|0:0,0:0:0:0:
349,78,123344,1,8,0:0:0:0:
175,126,123511,1,0,3:2:0:0:
265,44,123678,2,0,P|261:130|261:193,1,104.500003189087,8|0,0:0|3:2,0:0:0:0:
87,207,124011,2,0,B|88:154|91:102,1,104.500003189087,10|0,0:0|0:0,0:0:0:0:
91,102,124261,1,0,3:2:0:0:
91,102,124344,5,10,0:0:0:0:
213,244,124511,1,0,3:2:0:0:
57,303,124678,1,10,0:0:0:0:
174,162,124844,1,0,3:2:0:0:
256,322,125011,2,0,P|346:312|432:304,1,156.750004783631,10|0,0:0|3:2,0:0:0:0:
411,305,125344,2,0,P|420:242|426:193,1,104.500003189087,10|0,0:0|0:0,0:0:0:0:
431,90,125678,5,10,0:0:0:0:
235,210,125844,1,0,3:2:0:0:
197,26,126011,1,8,0:0:0:0:
294,157,126178,1,0,3:2:0:0:
78,208,126344,5,8,0:0:0:0:
272,82,126510,1,0,3:2:0:0:
312,272,126677,1,8,0:0:0:0:
214,136,126844,1,0,3:2:0:0:
161,343,127011,5,10,0:0:0:0:
161,343,127178,2,0,P|194:337|233:334,1,52.2500015945435,6|0,0:0|0:0,0:0:0:0:
435,377,127344,2,0,P|386:341|278:356,1,156.750004783631,2|0,0:0|0:0,0:0:0:0:
293,346,127678,6,0,P|290:315|274:266,1,52.2500015945435,2|0,1:2|3:2,0:0:0:0:
366,114,127844,2,0,P|360:139|358:165,1,52.2500015945435,2|0,3:2|3:2,0:0:0:0:
220,246,128011,1,10,0:0:0:0:
258,219,128094,1,0,3:2:0:0:
304,218,128177,1,2,0:0:0:0:
343,242,128260,1,0,0:0:0:0:
363,284,128344,1,14,0:0:0:0:
256,192,136344,12,2,138678,3:2:0:0:
452,309,139011,6,0,P|376:300|291:293,1,156.750004783631,6|0,0:0|0:0,0:0:0:0:
296,293,139344,2,0,P|286:232|277:157,1,104.500003189087,8|2,0:0|3:2,0:0:0:0:
208,287,139678,1,0,3:2:0:0:
368,209,139844,1,0,3:2:0:0:
237,112,140011,2,0,P|175:106|94:91,1,104.500003189087,10|0,0:0|3:2,0:0:0:0:
43,199,140344,5,2,3:2:0:0:
43,199,140511,1,0,3:2:0:0:
208,287,140678,2,0,P|146:293|65:308,1,104.500003189087,10|0,0:0|3:2,0:0:0:0:
141,207,141011,1,2,3:2:0:0:
293,315,141178,1,0,3:2:0:0:
160,371,141344,1,10,0:0:0:0:
274,228,141511,1,0,3:2:0:0:
370,369,141678,5,2,3:2:0:0:
378,286,141844,1,0,3:2:0:0:
387,202,142011,1,8,0:0:0:0:
291,35,142178,5,2,3:2:0:0:
283,118,142344,1,0,3:2:0:0:
274,202,142511,1,0,3:2:0:0:
466,95,142678,6,0,P|412:91|348:82,1,104.500003189087,10|0,0:0|3:2,0:0:0:0:
202,155,143011,5,2,3:2:0:0:
202,155,143178,1,0,3:2:0:0:
61,34,143344,1,10,0:0:0:0:
119,197,143511,1,0,3:2:0:0:
287,117,143678,2,0,P|280:200|279:259,1,104.500003189087,2|0,3:2|3:2,0:0:0:0:
197,379,144011,2,0,P|190:296|189:237,1,104.500003189087,10|0,0:0|3:2,0:0:0:0:
189,274,144261,1,2,0:0:0:0:
189,274,144344,5,6,0:0:0:0:
31,241,144511,2,0,P|61:289|125:307,1,104.500003189087,0|8,3:2|0:0,0:0:0:0:
213,186,144844,1,2,3:2:0:0:
213,186,145011,2,0,P|156:187|108:234,1,104.500003189087,0|0,3:2|3:2,0:0:0:0:
284,313,145344,2,0,P|347:318|424:329,1,104.500003189087,10|0,0:0|3:2,0:0:0:0:
500,160,145678,5,0,3:2:0:0:
343,233,145844,1,0,3:2:0:0:
346,76,146011,1,10,0:0:0:0:
415,174,146178,1,0,3:2:0:0:
258,202,146344,2,0,P|195:193|126:185,1,104.500003189087,2|0,3:2|3:2,0:0:0:0:
39,53,146678,2,0,P|102:62|171:70,1,104.500003189087,10|0,0:0|3:2,0:0:0:0:
271,123,147011,5,2,3:2:0:0:
352,139,147178,1,0,3:2:0:0:
409,79,147344,1,8,0:0:0:0:
241,244,147511,5,2,3:2:0:0:
159,260,147678,1,0,3:2:0:0:
102,200,147844,1,0,3:2:0:0:
156,28,148011,5,10,0:0:0:0:
181,180,148178,1,2,3:2:0:0:
232,110,148344,5,2,0:0:0:0:
233,94,148428,1,2,0:0:0:0:
234,78,148511,1,2,3:2:0:0:
118,118,148678,1,10,0:0:0:0:
261,204,148844,1,0,3:2:0:0:
90,282,149011,6,0,L|161:276,1,52.2500015945435,2|0,0:0|0:0,0:0:0:0:
125,200,149178,2,0,L|196:194,1,52.2500015945435,2|0,0:0|0:0,0:0:0:0:
214,312,149344,2,0,L|285:306,1,52.2500015945435,2|0,3:2|0:0,0:0:0:0:
249,230,149511,2,0,L|320:224,1,52.2500015945435,2|0,0:0|0:0,0:0:0:0:
341,332,149678,6,0,P|421:325|537:319,1,170.999994781494,0|8,3:2|0:0,0:0:0:0:
511,319,150178,1,0,3:2:0:0:
500,162,150344,2,0,P|441:166|385:167,1,85.4999973907472,2|0,0:0|3:2,0:0:0:0:
461,241,150678,1,10,0:0:0:0:
350,217,150844,6,0,B|333:183|333:183|340:112,1,85.4999973907472,2|0,3:2|0:0,0:0:0:0:
394,7,151178,2,0,B|411:41|411:41|404:112,1,85.4999973907472,2|8,3:2|0:0,0:0:0:0:
254,191,151511,2,0,P|183:188|76:182,1,170.999994781494,2|2,3:2|3:2,0:0:0:0:
90,11,152011,1,8,0:0:0:0:
23,77,152178,1,2,3:2:0:0:
23,77,152261,1,2,0:0:0:0:
23,77,152344,6,0,B|74:95|106:99|106:99|136:83|187:43,1,170.999994781494,2|10,3:2|0:0,0:0:0:0:
176,51,152844,2,0,L|181:153,1,85.4999973907472,2|0,3:2|3:2,0:0:0:0:
255,1,153178,1,2,3:2:0:0:
180,136,153344,1,8,0:0:0:0:
345,100,153511,6,0,P|293:98|243:88,1,85.4999973907472,2|0,3:2|3:2,0:0:0:0:
260,92,153844,1,0,3:2:0:0:
158,221,154011,1,8,0:0:0:0:
158,221,154178,1,0,3:2:0:0:
315,267,154344,2,0,P|323:190|327:158,1,85.4999973907472,2|0,3:2|3:2,0:0:0:0:
239,201,154678,2,0,P|234:243|230:286,1,85.4999973907472,10|0,0:0|3:2,0:0:0:0:
395,281,155011,5,2,3:2:0:0:
341,345,155178,2,0,P|289:366|250:359,1,85.4999973907472,2|8,0:0|0:0,0:0:0:0:
315,267,155511,5,2,3:2:0:0:
395,281,155678,2,0,P|438:314|452:351,1,85.4999973907472,2|0,3:2|3:2,0:0:0:0:
341,345,156011,5,10,0:0:0:0:
315,267,156178,2,0,P|322:212|347:181,1,85.4999973907472,2|0,3:2|3:2,0:0:0:0:
471,74,156511,5,2,3:2:0:0:
460,155,156678,1,8,0:0:0:0:
460,155,156844,1,2,3:2:0:0:
393,101,157011,5,2,3:2:0:0:
265,169,157178,1,2,3:2:0:0:
263,25,157344,1,10,0:0:0:0:
351,184,157511,6,0,P|273:191|165:203,1,170.999994781494,2|2,3:2|3:2,0:0:0:0:
111,247,158011,2,0,P|58:241|17:235,1,85.4999973907472,10|0,0:0|3:2,0:0:0:0:
22,154,158344,2,0,P|64:159|106:164,1,85.4999973907472,0|0,3:2|3:2,0:0:0:0:
255,78,158678,1,8,0:0:0:0:
255,78,158844,1,0,3:2:0:0:
180,119,159011,6,0,P|169:70|185:20,1,85.4999973907472,0|0,3:2|3:2,0:0:0:0:
328,37,159344,2,0,P|339:86|323:136,1,85.4999973907472,8|0,0:0|3:2,0:0:0:0:
437,250,159678,1,0,3:2:0:0:
282,221,159844,1,0,1:2:0:0:
408,171,160011,1,0,1:2:0:0:
386,316,160178,1,8,0:0:0:0:
386,316,160261,1,8,0:0:0:0:
386,316,160344,6,0,P|342:312|271:304,1,85.4999973907472,4|0,3:2|3:2,0:0:0:0:
128,341,160678,2,0,P|171:345|214:349,1,85.4999973907472,8|0,0:0|3:2,0:0:0:0:
348,232,161011,1,2,3:2:0:0:
174,266,161178,1,0,3:2:0:0:
232,141,161344,1,10,0:0:0:0:
266,232,161511,1,2,3:2:0:0:
120,103,161678,6,0,P|66:97|13:94,1,85.4999973907472,0|0,3:2|3:2,0:0:0:0:
42,181,162011,2,0,P|84:184|127:189,1,85.4999973907472,10|0,0:0|3:2,0:0:0:0:
201,60,162344,2,0,P|248:92|295:90,1,85.4999973907472,2|0,3:2|3:2,0:0:0:0:
378,45,162678,1,10,0:0:0:0:
378,45,162844,1,0,3:2:0:0:
338,213,163011,6,0,P|394:207|451:202,1,85.4999973907472,2|0,3:2|3:2,0:0:0:0:
444,119,163344,1,10,0:0:0:0:
444,119,163511,2,0,P|401:123|358:127,1,85.4999973907472,2|0,3:2|3:2,0:0:0:0:
233,271,163844,1,2,3:2:0:0:
255,190,164011,1,10,0:0:0:0:
172,209,164178,6,0,L|77:200,1,85.4999973907472,0|0,3:2|3:2,0:0:0:0:
86,200,164511,1,0,3:2:0:0:
33,268,164678,2,0,P|72:288|128:279,1,85.4999973907472,8|0,0:0|3:2,0:0:0:0:
149,130,165011,2,0,P|191:128|228:147,1,85.4999973907472,2|0,3:2|3:2,0:0:0:0:
245,264,165344,2,0,P|293:265|341:232,1,85.4999973907472,10|0,0:0|3:2,0:0:0:0:
429,86,165678,5,2,3:2:0:0:
429,86,165844,2,0,P|417:155|413:201,1,85.4999973907472,2|8,3:2|0:0,0:0:0:0:
328,148,166178,1,2,3:2:0:0:
328,148,166344,2,0,P|333:105|341:63,1,85.4999973907472,2|0,3:2|3:2,0:0:0:0:
94,120,166678,5,10,0:0:0:0:
94,120,166844,2,0,P|106:189|110:235,1,85.4999973907472,2|0,3:2|3:2,0:0:0:0:
195,182,167178,1,2,3:2:0:0:
195,182,167344,2,0,P|189:139|181:97,1,85.4999973907472,10|0,0:0|3:2,0:0:0:0:
303,239,167678,5,2,3:2:0:0:
303,239,167844,1,0,3:2:0:0:
233,301,168011,1,10,0:0:0:0:
273,161,168178,1,2,3:2:0:0:
383,278,168344,6,0,P|432:270|480:263,1,85.4999973907472,2|0,3:2|3:2,0:0:0:0:
481,80,168678,1,8,0:0:0:0:
417,193,168844,1,0,3:2:0:0:
374,40,169011,5,0,3:2:0:0:
400,191,169178,1,0,3:2:0:0:
280,101,169344,5,8,0:0:0:0:
384,188,169511,1,0,3:2:0:0:
374,40,169678,5,0,3:2:0:0:
302,181,169844,1,0,3:2:0:0:
195,78,170011,6,0,L|152:75,1,42.7499986953736,8|0,0:0|0:0,0:0:0:0:
175,151,170178,2,0,L|124:148,1,42.7499986953736,0|0,1:2|0:0,0:0:0:0:
33,269,170344,5,0,3:2:0:0:
33,269,170428,2,0,P|72:251|124:264,1,85.4999973907472,0|0,3:2|3:2,0:0:0:0:
112,257,170678,1,0,3:2:0:0:
17,181,170844,1,0,0:0:0:0:
197,231,171011,6,0,B|234:239|269:254|269:254|330:241|379:218,1,190,14|2,3:2|3:2,0:0:0:0:
377,218,171511,1,8,0:0:0:0:
324,24,171678,1,2,3:2:0:0:
279,168,171844,1,0,3:2:0:0:
437,121,172011,2,0,P|387:117|329:109,1,95,10|0,0:0|3:2,0:0:0:0:
123,280,172344,6,0,P|162:248|264:271,1,142.5,2|0,0:0|0:0,0:0:0:0:
264,252,172678,2,0,L|272:327,3,47.5,2|0|0|0,3:2|3:2|3:2|3:2,0:0:0:0:
340,345,173011,2,0,P|398:340|452:335,1,95,8|0,0:0|0:0,0:0:0:0:
489,224,173344,1,0,3:2:0:0:
489,224,173428,1,0,3:2:0:0:
489,224,173511,1,0,3:2:0:0:
489,224,173594,1,0,3:2:0:0:
489,224,173678,6,0,B|451:232|417:247|417:247|356:234|307:211,1,190,14|2,0:0|3:2,0:0:0:0:
194,103,174178,1,8,0:0:0:0:
225,258,174344,2,0,P|160:264|102:273,1,95,2|0,0:0|3:2,0:0:0:0:
84,192,174678,2,0,P|131:185|178:181,1,95,10|0,0:0|3:2,0:0:0:0:
271,58,175011,6,0,B|323:93|323:93|384:86|433:74,1,142.5,2|0,3:2|3:2,0:0:0:0:
401,80,175344,2,0,L|411:12,3,47.5,2|0|0|0,3:2|3:2|3:2|3:2,0:0:0:0:
510,175,175678,2,0,P|457:154|382:199,1,142.5,8|0,0:0|3:2,0:0:0:0:
430,278,176011,1,0,3:2:0:0:
430,278,176094,1,0,3:2:0:0:
430,278,176178,1,0,3:2:0:0:
430,278,176261,1,0,3:2:0:0:
430,278,176344,6,0,P|358:286|236:299,1,190,14|2,0:0|3:2,0:0:0:0:
146,153,176844,1,8,0:0:0:0:
91,220,177011,2,0,P|145:239|212:216,1,95,2|0,3:2|3:2,0:0:0:0:
158,370,177344,2,0,P|162:336|171:296,3,47.5,10|0|0|0,0:0|3:2|3:2|3:2,0:0:0:0:
164,322,177678,5,2,3:2:0:0:
268,221,177844,1,8,0:0:0:0:
146,152,178011,1,2,3:2:0:0:
241,298,178178,1,0,3:2:0:0:
316,141,178344,2,0,P|282:136|245:116,3,47.5,8|0|0|0,0:0|0:0|3:2|3:2,0:0:0:0:
269,131,178678,2,0,L|266:72,1,47.5,0|0,3:2|3:2,0:0:0:0:
341,18,178844,2,0,L|344:65,1,47.5,0|0,3:2|3:2,0:0:0:0:
330,234,179011,6,0,P|371:212|443:228,1,95,14|0,0:0|0:0,0:0:0:0:
419,215,179261,1,2,0:0:0:0:
426,222,179344,2,0,P|436:162|439:97,1,95,2|8,3:2|0:0,0:0:0:0:
248,209,179678,2,0,P|227:279|235:374,1,142.5,10|0,0:0|3:2,0:0:0:0:
228,347,180011,2,0,L|165:355,3,47.5,10|0|8|0,0:0|3:2|0:0|3:2,0:0:0:0:
62,322,180344,5,2,3:2:0:0:
62,322,180428,1,0,3:2:0:0:
62,322,180511,2,0,L|132:331,1,47.5,0|0,3:2|0:0,0:0:0:0:
215,268,180678,1,2,3:2:0:0:
215,268,180761,1,0,3:2:0:0:
215,268,180844,2,0,L|152:276,1,47.5,0|0,3:2|3:2,0:0:0:0:
16,224,181011,1,0,3:2:0:0:
46,236,181094,1,0,3:2:0:0:
79,233,181177,1,0,3:2:0:0:
107,217,181261,1,0,3:2:0:0:
125,186,181344,2,0,L|130:134,3,47.5,0|0|0|0,3:2|3:2|3:2|3:2,0:0:0:0:
152,61,181678,6,0,P|197:78|188:153,1,104.500003189087,4|0,3:2|0:0,0:0:0:0:
54,239,182011,2,0,P|125:229|244:212,1,156.750004783631,8|0,0:0|0:0,0:0:0:0:
209,217,182344,1,0,3:2:0:0:
373,284,182511,1,0,0:0:0:0:
317,111,182678,2,0,P|310:197|303:245,1,104.500003189087,8|0,0:0|0:0,0:0:0:0:
455,352,183011,6,0,P|462:266|469:217,1,104.500003189087,0|0,3:2|0:0,0:0:0:0:
495,120,183344,2,0,P|455:159|397:147,1,104.500003189087,8|0,0:0|0:0,0:0:0:0:
322,90,183594,5,2,0:0:0:0:
322,90,183678,2,0,P|373:84|445:70,1,104.500003189087,2|0,3:2|0:0,0:0:0:0:
332,168,183928,2,0,P|280:177|228:183,1,104.500003189087,2|0,3:2|0:0,0:0:0:0:
162,138,184178,1,2,0:0:0:0:
162,138,184261,1,2,0:0:0:0:
162,138,184344,6,0,B|94:159|59:154|59:154|29:127|2:67,1,209.000006378174,2|8,3:2|0:0,0:0:0:0:
251,102,184844,2,0,P|238:182|229:235,1,104.500003189087,2|0,0:0|3:2,0:0:0:0:
325,168,185178,1,0,0:0:0:0:
268,291,185344,2,0,P|195:276|123:258,1,104.500003189087,8|0,0:0|0:0,0:0:0:0:
165,269,185594,1,0,3:2:0:0:
171,277,185678,6,0,P|95:291|36:297,1,104.500003189087,2|0,3:2|0:0,0:0:0:0:
64,382,186011,2,0,P|115:374|166:363,1,104.500003189087,8|0,0:0|0:0,0:0:0:0:
347,218,186344,5,2,3:2:0:0:
286,340,186511,1,2,0:0:0:0:
249,121,186678,5,10,0:0:0:0:
373,308,186844,1,10,0:0:0:0:
385,317,186928,1,2,0:0:0:0:
397,326,187011,6,0,B|430:294|457:275|457:275|457:212|444:138,1,209.000006378174,6|8,0:0|0:0,0:0:0:0:
285,194,187511,1,2,0:0:0:0:
285,194,187678,2,0,P|316:224|391:212,1,104.500003189087,0|0,3:2|0:0,0:0:0:0:
478,75,188011,2,0,P|436:64|377:112,1,104.500003189087,8|0,0:0|0:0,0:0:0:0:
385,94,188344,1,0,3:2:0:0:
170,30,188511,5,2,0:0:0:0:
227,246,188677,1,10,0:0:0:0:
302,107,188844,1,2,0:0:0:0:
106,176,189011,5,2,3:2:0:0:
106,176,189094,2,0,P|187:163|243:153,1,104.500003189087,0|0,3:2|3:2,0:0:0:0:
209,159,189344,2,0,L|217:87,1,52.2500015945435,10|0,0:0|0:0,0:0:0:0:
308,236,189511,2,0,L|299:307,1,52.2500015945435,10|0,0:0|0:0,0:0:0:0:
230,342,189678,5,2,3:2:0:0:
390,281,189844,1,2,0:0:0:0:
230,342,190011,1,10,0:0:0:0:
441,378,190178,5,2,0:0:0:0:
361,182,190344,1,2,3:2:0:0:
319,333,190511,1,2,0:0:0:0:
452,192,190678,5,10,0:0:0:0:
452,192,190844,1,2,0:0:0:0:
246,27,191011,1,2,3:2:0:0:
141,258,191178,5,2,0:0:0:0:
238,225,191344,1,10,0:0:0:0:
158,159,191511,1,2,0:0:0:0:
125,357,191678,6,0,P|171:335|245:349,1,104.500003189087,2|0,1:2|0:0,0:0:0:0:
223,338,191928,1,2,1:2:0:0:
231,346,192011,2,0,L|299:339,1,52.2500015945435
369,182,192178,2,0,L|317:187,1,52.2500015945435,2|0,1:2|0:0,0:0:0:0:
251,257,192344,6,0,P|323:266|385:273,1,104.500003189087,4|0,0:0|0:0,0:0:0:0:
327,107,192678,2,0,P|239:96|163:87,1,156.750004783631,10|0,0:0|0:0,0:0:0:0:
171,88,193011,5,0,3:2:0:0:
65,201,193178,1,2,0:0:0:0:
98,37,193344,5,10,0:0:0:0:
141,260,193511,1,2,3:2:0:0:
303,189,193678,6,0,P|315:267|327:329,1,104.500003189087,0|0,3:2|0:0,0:0:0:0:
247,351,194011,2,0,P|237:299|230:247,1,104.500003189087,8|0,0:0|0:0,0:0:0:0:
295,109,194344,2,0,P|326:108|356:127,2,52.2500015945435,2|0|0,3:2|0:0|0:0,0:0:0:0:
476,68,194594,2,0,P|450:65|426:75,2,52.2500015945435,10|8|0,0:0|0:0|0:0,0:0:0:0:
417,156,194844,2,0,L|409:249,1,52.2500015945435,2|0,3:2|0:0,0:0:0:0:
496,236,195011,6,0,P|418:243|304:258,1,156.750004783631,2|0,3:2|0:0,0:0:0:0:
340,252,195344,1,8,0:0:0:0:
197,344,195511,2,0,P|241:355|289:303,1,104.500003189087,0|0,0:0|3:2,0:0:0:0:
164,150,195844,1,2,0:0:0:0:
220,267,196011,2,0,L|225:183,1,52.2500015945435,10|0,0:0|0:0,0:0:0:0:
142,229,196178,2,0,L|138:281,1,52.2500015945435,2|0,3:2|0:0,0:0:0:0:
247,128,196344,6,0,P|184:135|117:52,1,156.750004783631,0|0,3:2|0:0,0:0:0:0:
120,73,196678,2,0,L|114:158,1,52.2500015945435,10|0,0:0|0:0,0:0:0:0:
41,84,196844,2,0,L|34:168,1,52.2500015945435,2|0,0:0|0:0,0:0:0:0:
144,204,197011,6,0,L|150:288,1,52.2500015945435,2|0,3:2|0:0,0:0:0:0:
223,214,197177,2,0,L|229:298,1,52.2500015945435,10|0,0:0|0:0,0:0:0:0:
196,136,197344,1,2,3:2:0:0:
60,214,197511,5,10,0:0:0:0:
258,368,197678,1,6,3:2:0:0:
353,153,197844,1,2,0:0:0:0:
177,283,198011,6,0,P|239:275|318:266,1,104.500003189087,10|0,0:0|0:0,0:0:0:0:
353,153,198344,2,0,P|301:159|249:165,1,104.500003189087,0|0,3:2|0:0,0:0:0:0:
369,355,198678,2,0,P|375:303|381:251,1,104.500003189087,8|0,0:0|3:2,0:0:0:0:
234,80,199011,6,0,B|205:96|182:116|182:116|121:110|60:90,1,156.750004783631,0|0,3:2|0:0,0:0:0:0:
90,99,199344,2,0,P|66:149|62:209,1,104.500003189087,8|0,0:0|0:0,0:0:0:0:
208,308,199678,2,0,P|232:258|236:198,1,104.500003189087,0|0,3:2|0:0,0:0:0:0:
153,173,200011,1,10,0:0:0:0:
136,358,200178,1,8,0:0:0:0:
136,358,200261,1,0,0:0:0:0:
136,358,200344,6,0,P|216:350|322:341,1,156.750004783631,2|0,3:2|0:0,0:0:0:0:
292,343,200678,2,0,P|308:263|320:214,1,104.500003189087,8|2,0:0|0:0,0:0:0:0:
437,115,201011,2,0,P|425:165|415:217,1,104.500003189087,0|0,3:2|0:0,0:0:0:0:
489,288,201344,2,0,P|427:299|369:311,1,104.500003189087,10|0,0:0|0:0,0:0:0:0:
236,171,201678,6,0,P|298:160|356:148,1,104.500003189087,2|4,3:2|0:0,0:0:0:0:
338,151,201928,1,0,0:0:0:0:
338,151,202011,1,10,0:0:0:0:
135,47,202178,5,4,0:0:0:0:
99,270,202344,1,10,0:0:0:0:
149,201,202511,5,0,3:2:0:0:
15,262,202678,1,10,0:0:0:0:
137,344,202844,1,0,0:0:0:0:
338,166,203011,6,0,P|325:241|318:304,1,104.500003189087,6|0,0:0|0:0,0:0:0:0:
221,364,203344,2,0,P|228:312|237:260,1,104.500003189087,10|0,0:0|0:0,0:0:0:0:
405,249,203678,1,2,3:2:0:0:
247,176,203844,1,0,3:2:0:0:
365,340,204011,2,0,P|438:328|487:322,1,104.500003189087,10|0,0:0|0:0,0:0:0:0:
371,88,204344,5,0,3:2:0:0:
371,88,204511,1,0,0:0:0:0:
121,175,204678,1,8,0:0:0:0:
121,175,204844,1,0,0:0:0:0:
294,298,205011,6,0,L|301:227,1,52.2500015945435,2|0,3:2|3:2,0:0:0:0:
220,121,205178,2,0,L|214:172,1,52.2500015945435,2|0,3:2|3:2,0:0:0:0:
192,280,205344,1,10,0:0:0:0:
153,260,205428,1,0,3:2:0:0:
111,262,205511,1,2,3:2:0:0:
77,288,205594,1,0,3:2:0:0:
61,323,205678,6,0,P|53:245|43:177,1,104.500003189087,2|0,3:2|0:0,0:0:0:0:
277,238,206011,2,0,P|283:289|288:341,1,104.500003189087,10|0,0:0|0:0,0:0:0:0:
194,368,206344,1,2,3:2:0:0:
213,172,206511,1,0,3:2:0:0:
378,316,206678,2,0,P|441:308|504:300,1,104.500003189087,10|0,0:0|0:0,0:0:0:0:
395,81,207011,6,0,B|431:128|431:128|425:196|413:249,1,156.750004783631,2|0,3:2|0:0,0:0:0:0:
418,224,207344,2,0,P|378:230|315:238,1,104.500003189087,10|0,0:0|0:0,0:0:0:0:
106,265,207678,5,2,3:2:0:0:
76,244,207761,1,0,3:2:0:0:
61,211,207844,1,2,3:2:0:0:
64,175,207928,1,0,3:2:0:0:
85,146,208011,1,2,3:2:0:0:
117,131,208094,1,0,3:2:0:0:
153,134,208178,1,2,3:2:0:0:
183,155,208261,1,0,0:0:0:0:
197,187,208344,6,0,P|285:175|378:163,1,156.750004783631,6|0,0:0|0:0,0:0:0:0:
352,166,208678,2,0,P|364:85|373:38,1,104.500003189087,10|0,0:0|0:0,0:0:0:0:
509,18,209011,1,2,3:2:0:0:
278,87,209178,1,0,3:2:0:0:
433,233,209344,2,0,P|444:151|453:104,1,104.500003189087,10|0,0:0|0:0,0:0:0:0:
448,129,209594,1,2,0:0:0:0:
448,129,209678,5,2,3:2:0:0:
237,203,209844,1,0,0:0:0:0:
290,13,210011,1,10,0:0:0:0:
335,150,210178,1,0,3:2:0:0:
35,173,210344,5,2,3:2:0:0:
257,118,210511,1,2,3:2:0:0:
183,284,210678,1,10,0:0:0:0:
133,87,210844,1,2,0:0:0:0:
109,336,211011,6,0,P|199:323|293:313,1,156.750004783631,2|0,3:2|0:0,0:0:0:0:
264,315,211344,1,10,0:0:0:0:
398,194,211511,1,0,0:0:0:0:
140,252,211678,5,2,3:2:0:0:
212,50,211844,1,8,0:0:0:0:
261,226,212011,5,2,3:2:0:0:
96,79,212178,1,0,0:0:0:0:
310,144,212344,6,0,P|254:139|193:127,1,104.500003189087,2|0,3:2|0:0,0:0:0:0:
271,312,212678,2,0,P|327:317|388:329,1,104.500003189087,10|0,0:0|0:0,0:0:0:0:
463,121,213011,5,0,1:2:0:0:
391,175,213178,1,0,3:2:0:0:
386,189,213261,1,0,1:2:0:0:
386,204,213344,1,0,0:0:0:0:
451,262,213511,1,0,1:2:0:0:
382,92,213678,1,6,0:0:0:0:
272,190,223678,5,0,1:0:0:0:
217,129,223844,2,0,P|219:98|237:62,1,47.5,0|0,1:0|0:0,0:0:0:0:
349,171,224011,2,0,P|374:188|397:221,1,47.5,0|0,1:0|0:0,0:0:0:0:
248,264,224178,2,0,P|220:277|179:280,1,47.5,0|0,1:0|0:0,0:0:0:0:
6,229,224344,6,0,P|100:219|194:204,1,190,6|2,3:2|0:0,0:0:0:0:
303,325,224844,1,8,0:0:0:0:
236,366,225011,2,0,P|184:363|135:340,1,95,2|0,0:0|3:2,0:0:0:0:
272,243,225344,2,0,P|324:246|373:269,1,95,10|0,0:0|3:2,0:0:0:0:
148,191,225678,6,0,P|87:209|25:195,1,95,2|8,0:0|0:0,0:0:0:0:
176,65,226011,2,0,L|170:132,1,47.5,2|0,0:0|3:2,0:0:0:0:
92,129,226178,2,0,L|96:81,1,47.5,0|0,3:2|3:2,0:0:0:0:
230,173,226344,1,8,0:0:0:0:
230,173,226678,6,0,L|233:253,3,47.5,0|0|0|0,3:2|3:2|3:2|3:2,0:0:0:0:
176,284,227011,6,0,P|229:250|310:271,1,142.5,10|0,0:0|0:0,0:0:0:0:
303,265,227344,2,0,P|370:259|431:245,1,95,2|0,0:0|3:2,0:0:0:0:
408,86,227678,2,0,P|341:92|280:106,1,95,2|0,0:0|3:2,0:0:0:0:
355,176,228011,1,10,0:0:0:0:
355,176,228178,1,0,3:2:0:0:
146,199,228344,6,0,P|186:160|289:177,1,142.5,6|0,0:0|0:0,0:0:0:0:
268,161,228678,2,0,P|261:191|259:228,3,47.5,2|0|0|0,0:0|3:2|3:2|3:2,0:0:0:0:
190,124,229011,2,0,P|183:65|173:2,1,95,4|0,0:0|3:2,0:0:0:0:
353,223,229344,5,0,3:2:0:0:
353,223,229428,1,0,3:2:0:0:
353,223,229511,1,0,3:2:0:0:
353,223,229594,1,0,3:2:0:0:
353,223,229678,5,6,0:0:0:0:
261,290,229844,2,0,P|214:274|184:208,1,95,0|2,3:2|0:0,0:0:0:0:
243,92,230178,1,8,0:0:0:0:
82,168,230344,2,0,P|159:157|208:149,1,95,2|0,0:0|3:2,0:0:0:0:
353,223,230678,1,10,0:0:0:0:
334,208,230761,1,0,3:2:0:0:
312,199,230844,1,0,3:2:0:0:
288,198,230928,1,0,3:2:0:0:
266,205,231011,5,2,0:0:0:0:
409,156,231178,1,8,0:0:0:0:
319,23,231344,2,0,L|312:162,1,95,2|0,0:0|3:2,0:0:0:0:
191,242,231678,2,0,P|141:221|95:226,1,95,14|0,0:0|3:2,0:0:0:0:
101,224,231928,1,0,3:2:0:0:
107,231,232011,2,0,L|95:158,1,47.5,2|0,0:0|3:2,0:0:0:0:
165,103,232178,2,0,L|175:185,1,47.5,0|0,0:0|3:2,0:0:0:0:
188,239,232344,5,12,0:0:0:0:
393,223,232511,1,8,0:0:0:0:
272,223,232678,1,0,3:2:0:0:
271,237,232761,1,0,3:2:0:0:
270,251,232844,1,8,0:0:0:0:
365,149,233011,2,0,L|369:83,3,47.5,0|0|0|0,3:2|3:2|3:2|3:2,0:0:0:0:
366,21,233344,2,0,P|335:26|305:52,1,47.5,8|0,0:0|0:0,0:0:0:0:
246,95,233511,2,0,P|277:100|307:126,1,47.5,8|0,0:0|0:0,0:0:0:0:
425,209,233678,5,14,0:0:0:0:
107,147,234011,1,10,0:0:0:0:
301,227,234344,6,0,B|223:236|267:265|186:275,1,128.249996086121,2|0,0:0|0:0,0:0:0:0:
186,276,234678,2,0,B|264:285|220:314|301:324,1,128.249996086121,2|0,0:0|0:0,0:0:0:0:
377,347,235011,6,0,B|406:274|406:274|364:173,1,156.750004783631,6|0,3:2|0:0,0:0:0:0:
375,201,235344,1,8,0:0:0:0:
215,114,235511,1,0,0:0:0:0:
313,74,235678,2,0,P|300:162|294:210,1,104.500003189087,2|0,3:2|0:0,0:0:0:0:
136,291,236011,2,0,P|149:203|155:155,1,104.500003189087,10|0,0:0|0:0,0:0:0:0:
151,187,236261,1,2,0:0:0:0:
151,187,236344,5,2,3:2:0:0:
228,266,236511,1,0,0:0:0:0:
102,109,236678,1,8,0:0:0:0:
57,256,236844,1,0,0:0:0:0:
242,180,237011,2,0,P|309:174|366:167,1,104.500003189087,2|0,3:2|0:0,0:0:0:0:
345,169,237261,1,0,3:2:0:0:
345,169,237344,1,10,0:0:0:0:
395,344,237511,1,0,0:0:0:0:
475,291,237678,6,0,B|414:254|414:254|309:269,1,156.750004783631,6|0,3:2|0:0,0:0:0:0:
329,266,238011,2,0,P|318:328|309:382,1,104.500003189087,8|0,0:0|0:0,0:0:0:0:
151,220,238344,2,0,P|162:158|171:104,1,104.500003189087,2|0,3:2|0:0,0:0:0:0:
247,183,238678,1,10,0:0:0:0:
95,294,238844,1,2,0:0:0:0:
95,294,238928,1,2,0:0:0:0:
95,294,239011,6,0,P|136:261|238:284,1,156.750004783631,2|0,3:2|0:0,0:0:0:0:
232,278,239344,1,8,0:0:0:0:
328,132,239511,1,0,0:0:0:0:
399,215,239677,1,2,3:2:0:0:
225,174,239844,1,0,3:2:0:0:
340,310,240011,2,0,P|398:303|472:297,1,104.500003189087,10|0,0:0|0:0,0:0:0:0:
484,119,240344,6,0,P|396:124|297:136,1,156.750004783631,6|0,3:2|0:0,0:0:0:0:
327,131,240678,2,0,P|317:188|309:251,1,104.500003189087,8|0,0:0|3:2,0:0:0:0:
395,283,241011,1,2,3:2:0:0:
238,134,241178,1,0,0:0:0:0:
409,165,241344,1,10,0:0:0:0:
280,314,241511,1,2,0:0:0:0:
280,314,241594,1,2,0:0:0:0:
280,314,241678,6,0,B|239:287|239:287|230:259|225:209,1,104.500003189087,2|0,3:2|0:0,0:0:0:0:
328,133,242011,2,0,P|318:190|310:253,1,104.500003189087,10|0,0:0|0:0,0:0:0:0:
137,273,242344,2,0,P|147:216|155:153,1,104.500003189087,2|0,3:2|3:2,0:0:0:0:
258,43,242678,1,10,0:0:0:0:
258,43,242844,1,0,3:2:0:0:
388,149,243011,6,0,P|315:142|219:127,1,156.750004783631,2|0,3:2|0:0,0:0:0:0:
232,129,243344,1,8,0:0:0:0:
68,204,243511,1,0,0:0:0:0:
255,218,243678,2,0,P|207:218|153:173,1,104.500003189087,0|0,3:2|0:0,0:0:0:0:
93,125,244011,1,8,0:0:0:0:
179,296,244178,1,0,3:2:0:0:
40,335,244344,6,0,P|94:292|196:305,1,156.750004783631,2|0,0:0|0:0,0:0:0:0:
305,316,244678,2,0,P|240:290|201:195,1,156.750004783631,10|0,0:0|0:0,0:0:0:0:
131,127,245011,2,0,P|120:190|114:244,1,104.500003189087,2|8,3:2|0:0,0:0:0:0:
115,230,245261,1,8,0:0:0:0:
115,230,245344,1,2,3:2:0:0:
59,77,245511,1,0,3:2:0:0:
216,130,245678,6,0,B|270:104|357:97|357:97|308:148,1,209.000006378174,6|8,0:0|0:0,0:0:0:0:
258,205,246178,1,0,0:0:0:0:
437,314,246344,2,0,P|443:245|450:190,1,104.500003189087,0|0,3:2|0:0,0:0:0:0:
349,236,246678,2,0,P|343:287|338:339,1,104.500003189087,10|0,0:0|0:0,0:0:0:0:
240,325,247011,6,0,P|191:319|138:349,1,104.500003189087,2|0,3:2|0:0,0:0:0:0:
13,231,247344,2,0,P|62:225|115:255,1,104.500003189087,10|0,0:0|0:0,0:0:0:0:
48,310,247678,1,2,3:2:0:0:
48,310,247844,1,0,3:2:0:0:
193,238,248011,2,0,P|198:166|204:104,1,104.500003189087,10|0,0:0|0:0,0:0:0:0:
215,51,248344,6,0,B|247:65|277:84|277:84|339:76|395:63,1,156.750004783631,6|0,0:0|0:0,0:0:0:0:
362,70,248678,1,8,0:0:0:0:
485,197,248844,1,0,0:0:0:0:
309,265,249011,2,0,P|302:198|288:126,1,104.500003189087,0|0,3:2|0:0,0:0:0:0:
392,198,249344,2,0,P|400:249|405:301,1,104.500003189087,10|0,0:0|0:0,0:0:0:0:
412,310,249594,1,2,0:0:0:0:
412,310,249678,6,0,P|465:328|513:338,1,104.500003189087,2|0,3:2|0:0,0:0:0:0:
323,367,250011,2,0,P|269:348|221:338,1,104.500003189087,10|0,0:0|0:0,0:0:0:0:
29,367,250344,1,2,3:2:0:0:
125,220,250511,1,0,3:2:0:0:
125,220,250678,2,0,P|117:282|110:350,1,104.500003189087,10|0,0:0|0:0,0:0:0:0:
227,234,251011,6,0,P|213:148|202:40,1,156.750004783631,6|0,0:0|0:0,0:0:0:0:
205,78,251344,1,8,0:0:0:0:
89,135,251511,1,0,0:0:0:0:
310,191,251678,2,0,P|382:183|439:175,1,104.500003189087,0|0,3:2|0:0,0:0:0:0:
408,81,252011,2,0,P|356:87|304:93,1,104.500003189087,10|0,0:0|0:0,0:0:0:0:
309,100,252261,1,2,0:0:0:0:
309,100,252344,6,0,P|299:178|287:279,1,156.750004783631,2|0,3:2|0:0,0:0:0:0:
289,255,252678,1,10,0:0:0:0:
96,203,252844,1,0,3:2:0:0:
209,316,253011,5,2,3:2:0:0:
236,163,253178,1,0,3:2:0:0:
368,306,253344,5,10,0:0:0:0:
327,170,253511,1,0,3:2:0:0:
306,375,253678,6,0,B|356:342|356:342|410:348|464:360,1,156.750004783631,2|0,3:2|0:0,0:0:0:0:
451,357,254011,2,0,P|461:283|469:216,1,104.500003189087,8|0,0:0|0:0,0:0:0:0:
215,175,254344,1,0,3:2:0:0:
215,175,254511,1,0,0:0:0:0:
339,53,254678,1,8,0:0:0:0:
137,121,254844,1,0,3:2:0:0:
362,152,255011,5,0,0:0:0:0:
168,34,255178,1,0,3:2:0:0:
213,267,255344,2,0,P|262:250|337:266,1,104.500003189087,8|0,0:0|3:2,0:0:0:0:
490,192,255678,1,2,3:2:0:0:
490,192,255844,6,0,L|480:270,1,52.2500015945435,8|0,0:0|0:0,0:0:0:0:
448,374,256011,2,0,L|442:303,1,52.2500015945435,10|0,0:0|0:0,0:0:0:0:
405,194,256178,2,0,L|395:272,1,52.2500015945435,8|0,0:0|0:0,0:0:0:0:
362,321,256344,6,0,B|306:314|306:314|274:326|274:326|187:314,1,156.750004783631,6|0,0:0|0:0,0:0:0:0:
208,316,256678,1,8,0:0:0:0:
158,170,256844,1,0,3:2:0:0:
26,278,257011,2,0,P|97:272|168:260,1,104.500003189087,2|0,3:2|3:2,0:0:0:0:
129,267,257261,1,2,0:0:0:0:
136,273,257344,2,0,P|152:205|162:138,1,104.500003189087,10|0,0:0|0:0,0:0:0:0:
134,18,257678,5,10,0:0:0:0:
351,93,257844,1,0,3:2:0:0:
161,93,258011,5,8,0:0:0:0:
378,18,258177,1,0,3:2:0:0:
291,221,258344,5,2,3:2:0:0:
291,221,258428,2,0,B|265:179|265:179|274:77,1,104.500003189087,0|0,3:2|3:2,0:0:0:0:
269,124,258678,1,2,3:2:0:0:
116,294,258844,1,0,0:0:0:0:
373,252,259011,6,0,P|291:259|182:275,1,156.750004783631,14|0,0:0|0:0,0:0:0:0:
217,268,259344,1,8,0:0:0:0:
65,136,259511,1,0,3:2:0:0:
35,360,259678,5,10,0:0:0:0:
138,204,259844,1,0,3:2:0:0:
297,339,260011,6,0,P|305:254|310:208,1,104.500003189087,10|0,0:0|0:0,0:0:0:0:
307,234,260261,1,2,0:0:0:0:
307,234,260344,1,10,0:0:0:0:
185,71,260511,1,0,3:2:0:0:
217,268,260678,5,8,0:0:0:0:
393,164,260844,1,0,3:2:0:0:
490,361,261011,6,0,B|436:319|436:319|397:323|340:341,1,156.750004783631,10|0,0:0|3:2,0:0:0:0:
349,337,261344,2,0,P|335:266|327:195,1,104.500003189087,2|0,3:2|0:0,0:0:0:0:
472,91,261678,5,14,0:0:0:0:
277,163,261844,1,0,3:2:0:0:
484,87,262011,5,8,0:0:0:0:
268,165,262178,1,0,3:2:0:0:
397,22,262344,6,0,P|389:98|387:159,1,104.500003189087,10|0,0:0|0:0,0:0:0:0:
387,126,262594,1,0,3:2:0:0:
387,126,262678,1,10,0:0:0:0:
190,303,262844,1,0,0:0:0:0:
190,303,262928,1,0,3:2:0:0:
190,303,263011,5,10,0:0:0:0:
218,80,263178,1,0,3:2:0:0:
187,317,263344,5,10,0:0:0:0:
219,70,263511,1,0,3:2:0:0:
36,204,263678,6,0,P|78:161|179:192,1,156.750004783631,2|0,3:2|3:2,0:0:0:0:
166,176,264011,1,10,0:0:0:0:
336,95,264178,1,0,0:0:0:0:
362,299,264344,5,14,0:0:0:0:
277,156,264511,1,0,3:2:0:0:
410,183,264678,1,8,0:0:0:0:
227,274,264844,1,0,3:2:0:0:
227,38,265011,5,8,0:0:0:0:
142,181,265178,1,0,0:0:0:0:
94,65,265345,1,8,0:0:0:0:
277,156,265511,1,0,3:2:0:0:
123,286,265678,6,0,P|189:278|262:270,1,104.500003189087,10|0,0:0|0:0,0:0:0:0:
352,199,266011,1,10,0:0:0:0:
352,199,266178,1,0,3:2:0:0:
123,98,266344,2,0,P|189:106|262:114,1,104.500003189087,10|0,0:0|0:0,0:0:0:0:
404,195,266678,6,0,L|351:199,1,52.2500015945435,10|0,0:0|3:2,0:0:0:0:
203,198,266845,2,0,L|256:194,1,52.2500015945435,0|0,3:2|3:2,0:0:0:0:
310,120,267011,6,0,P|302:205|299:290,1,156.750004783631,6|0,0:0|0:0,0:0:0:0:
299,276,267344,1,8,0:0:0:0:
394,116,267511,1,0,3:2:0:0:
204,300,267678,1,8,0:0:0:0:
414,269,267844,1,0,3:2:0:0:
193,303,268011,1,10,0:0:0:0:
304,161,268178,1,0,3:2:0:0:
304,161,268261,1,0,3:2:0:0:
304,161,268344,5,10,0:0:0:0:
75,99,268511,1,0,3:2:0:0:
130,227,268678,2,0,P|202:218|273:206,1,104.500003189087,10|0,0:0|3:2,0:0:0:0:
389,295,269011,2,0,B|331:270|300:269|300:269|269:293|235:295,1,156.750004783631,10|0,0:0|3:2,0:0:0:0:
242,294,269344,1,10,0:0:0:0:
166,138,269511,1,0,0:0:0:0:
87,212,269678,6,0,B|145:237|176:238|176:238|207:214|241:212,1,156.750004783631,14|0,0:0|0:0,0:0:0:0:
233,212,270011,1,8,0:0:0:0:
79,120,270178,1,0,0:0:0:0:
287,61,270344,1,8,0:0:0:0:
242,294,270511,1,0,3:2:0:0:
192,116,270678,1,10,0:0:0:0:
117,358,270844,5,0,3:2:0:0:
117,358,270927,1,0,3:2:0:0:
117,358,271011,1,10,0:0:0:0:
272,183,271177,1,0,3:2:0:0:
357,353,271344,2,0,P|368:271|382:203,1,104.500003189087,10|0,0:0|3:2,0:0:0:0:
192,116,271678,2,0,P|181:198|167:266,1,104.500003189087,10|0,0:0|0:0,0:0:0:0:
380,165,272011,1,10,0:0:0:0:
262,298,272178,1,0,3:2:0:0:
262,298,272261,1,0,3:2:0:0:
262,298,272344,6,0,P|176:306|98:315,1,156.750004783631,14|0,0:0|0:0,0:0:0:0:
106,313,272678,1,8,0:0:0:0:
3,159,272844,1,0,3:2:0:0:
35,371,273011,1,8,0:0:0:0:
177,219,273178,1,0,3:2:0:0:
177,219,273261,1,0,3:2:0:0:
177,219,273344,2,0,P|166:135|157:66,1,104.500003189087,10|0,0:0|0:0,0:0:0:0:
334,17,273678,6,0,P|345:101|354:170,1,104.500003189087,10|0,0:0|3:2,0:0:0:0:
251,75,274011,1,10,0:0:0:0:
442,142,274178,1,0,3:2:0:0:
251,279,274344,1,10,0:0:0:0:
498,228,274511,1,0,3:2:0:0:
498,228,274594,1,0,3:2:0:0:
498,228,274678,2,0,L|367:237,1,104.500003189087,10|0,0:0|3:2,0:0:0:0:
78,77,275011,5,10,0:0:0:0:
305,199,275178,1,0,3:2:0:0:
67,156,275344,5,8,0:0:0:0:
307,178,275511,1,0,3:2:0:0:
56,231,275678,5,8,0:0:0:0:
309,157,275844,1,0,3:2:0:0:
46,307,276011,5,8,0:0:0:0:
311,136,276178,1,0,3:2:0:0:
210,267,276344,6,0,P|156:247|134:189,1,104.500003189087,0|0,3:2|3:2,0:0:0:0:
143,68,276678,1,8,0:0:0:0:
35,141,276844,1,0,3:2:0:0:
35,141,276928,1,0,3:2:0:0:
35,141,277011,6,0,L|111:133,1,52.2500015945435,8|0,0:0|3:2,0:0:0:0:
211,189,277178,2,0,L|287:181,1,52.2500015945435,0|0,3:2|3:2,0:0:0:0:
426,148,277344,2,0,L|419:199,1,52.2500015945435,8|0,0:0|0:0,0:0:0:0:
337,225,277511,2,0,L|346:157,1,52.2500015945435,8|0,0:0|0:0,0:0:0:0:
365,42,277678,1,4,0:0:0:0:
