osu file format v14

[General]
AudioFilename: COPPELION OP~3.mp3
AudioLeadIn: 0
PreviewTime: 67143
Countdown: 0
SampleSet: Soft
StackLeniency: 0.7
Mode: 0
LetterboxInBreaks: 0
WidescreenStoryboard: 1

[Editor]
Bookmarks: 38448,41708,51491,51654,51736,51817
DistanceSpacing: 0.5
BeatDivisor: 4
GridSize: 4
TimelineZoom: 1.500001

[Metadata]
Title:ANGEL
TitleUnicode:ANGEL
Artist:angela
ArtistUnicode:angela
Creator:- TiRaFiouS -
Version:Insane
Source:コッペリオン
Tags:COPPELION IamKwaN opening tv size
BeatmapID:831773
BeatmapSetID:178530

[Difficulty]
HPDrainRate:7
CircleSize:4.5
OverallDifficulty:8
ApproachRate:9.2
SliderMultiplier:1.6
SliderTickRate:2

[Events]
//Background and Video events
0,0,"38994774_p0.jpg",0,0
//Break Periods
//Storyboard Layer 0 (Background)
//Storyboard Layer 1 (Fail)
//Storyboard Layer 2 (Pass)
//Storyboard Layer 3 (Foreground)
//Storyboard Sound Samples

[TimingPoints]
622,326.086956521739,4,2,1,80,1,0
5676,-100,4,2,2,80,0,0
5696,-100,4,2,1,80,0,0
7306,-100,4,2,2,80,0,0
7327,-100,4,2,1,80,0,0
9589,-100,4,2,2,80,0,0
11382,-100,4,2,1,80,0,0
11403,-100,4,2,2,80,0,0
12035,-100,4,2,1,80,0,0
12055,-100,4,2,2,80,0,0
12687,-100,4,2,1,80,0,0
12707,-100,4,2,2,80,0,0
13339,-100,4,2,1,80,0,0
13359,-100,4,2,2,80,0,0
13991,-100,4,2,1,80,0,0
14011,-100,4,2,2,80,0,0
14643,-100,4,2,1,80,0,0
14664,-100,4,2,2,80,0,0
15295,-100,4,2,1,80,0,0
15316,-100,4,2,2,80,0,0
15621,-100,4,2,1,80,0,0
15642,-100,4,2,2,80,0,0
15948,-100,4,2,2,50,0,0
16274,-100,4,2,1,50,0,0
16437,-100,4,2,1,30,0,0
17089,-200,4,2,1,20,0,0
17578,-133.333333333333,4,2,2,40,0,0
18067,-133.333333333333,4,2,3,40,0,0
18088,-133.333333333333,4,2,2,40,0,0
18230,-133.333333333333,4,2,1,40,0,0
18251,-133.333333333333,4,2,2,40,0,0
19371,-133.333333333333,4,2,3,40,0,0
19535,-133.333333333333,4,2,2,40,0,0
19698,-133.333333333333,4,2,1,40,0,0
19718,-133.333333333333,4,2,2,40,0,0
20839,-133.333333333333,4,2,1,40,0,0
20859,-133.333333333333,4,2,2,40,0,0
21980,-133.333333333333,4,2,2,40,0,0
22225,-133.333333333333,4,2,2,20,0,0
22795,-133.333333333333,4,2,2,40,0,0
23448,-133.333333333333,4,2,1,40,0,0
23468,-133.333333333333,4,2,2,40,0,0
24915,-133.333333333333,4,2,1,40,0,0
24935,-133.333333333333,4,2,2,40,0,0
26056,-133.333333333333,4,2,1,40,0,0
26077,-133.333333333333,4,2,2,40,0,0
26871,-133.333333333333,4,2,2,30,0,0
27035,-133.333333333333,4,2,1,30,0,0
27055,-133.333333333333,4,2,2,30,0,0
27361,-133.333333333333,4,2,1,40,0,0
27381,-133.333333333333,4,2,2,40,0,0
27687,-133.333333333333,4,2,1,50,0,0
27707,-133.333333333333,4,2,2,50,0,0
28013,-100,4,2,2,50,0,0
28339,-100,4,2,1,50,0,0
28359,-100,4,2,2,50,0,0
29154,-100,4,2,1,50,0,0
29174,-100,4,2,2,50,0,0
29643,-100,4,2,1,50,0,0
29664,-100,4,2,2,50,0,0
30295,-100,4,2,1,50,0,0
30316,-100,4,2,2,50,0,0
30948,-100,4,2,1,50,0,0
30968,-100,4,2,2,50,0,0
31763,-100,4,2,1,50,0,0
31783,-100,4,2,2,50,0,0
32252,-100,4,2,1,50,0,0
32272,-100,4,2,2,50,0,0
32904,-100,4,2,1,50,0,0
32924,-100,4,2,2,50,0,0
33556,-100,4,2,1,50,0,0
33577,-100,4,2,2,50,0,0
34371,-100,4,2,1,50,0,0
34392,-100,4,2,2,50,0,0
34861,-100,4,2,1,50,0,0
34881,-100,4,2,2,50,0,0
35513,-100,4,2,1,50,0,0
35533,-100,4,2,2,50,0,0
36328,-100,4,2,1,50,0,0
36348,-100,4,2,2,50,0,0
36817,-100,4,2,1,50,0,0
36838,-100,4,2,2,50,0,0
37469,-100,4,2,1,50,0,0
37816,-100,4,2,2,50,0,0
38448,-100,4,2,2,60,0,0
38774,-100,4,2,1,60,0,0
38794,-100,4,2,2,60,0,0
39589,-100,4,2,1,60,0,0
39609,-100,4,2,2,60,0,0
40078,-100,4,2,1,60,0,0
40098,-100,4,2,2,60,0,0
40730,-100,4,2,1,60,0,0
40751,-100,4,2,2,60,0,0
41057,-100,4,2,1,60,0,0
41077,-100,4,2,2,60,0,0
41382,-100,4,2,1,60,0,0
41403,-100,4,2,2,60,0,0
42035,-100,4,2,1,60,0,0
42055,-100,4,2,2,60,0,0
42687,-100,4,2,1,60,0,0
42707,-100,4,2,2,60,0,0
43339,-100,4,2,1,60,0,0
43359,-100,4,2,2,60,0,0
43665,-100,4,2,1,70,0,0
43848,-100,4,2,2,70,0,0
44969,-100,4,2,1,70,0,0
44990,-100,4,2,2,70,0,0
46274,-100,4,2,1,70,0,0
46294,-100,4,2,2,70,0,0
47415,-100,4,2,3,70,0,0
47435,-100,4,2,2,70,0,0
47578,-100,4,2,1,70,0,0
47598,-100,4,2,2,60,0,0
48230,-100,4,2,1,60,0,0
48251,-100,4,2,2,60,0,0
48556,-100,4,2,1,60,0,0
48577,-100,4,2,2,60,0,0
49208,-100,4,2,1,60,0,0
49229,-100,4,2,2,60,0,0
50024,-100,4,2,1,60,0,0
50044,-100,4,2,2,60,0,0
51491,-100,4,2,1,60,0,0
51511,-100,4,2,2,60,0,0
52632,-100,4,2,1,60,0,0
52653,-100,4,2,2,60,0,0
53121,-100,4,2,1,60,0,0
53142,-100,4,2,2,60,0,0
53774,-100,4,2,1,60,0,0
53794,-100,4,2,2,60,0,0
54426,-100,4,2,1,60,0,0
54446,-100,4,2,2,60,0,0
55078,-100,4,2,1,60,0,0
55098,-100,4,2,2,60,0,0
55567,-100,4,2,3,60,0,0
55730,-100,4,2,1,60,0,0
55751,-100,4,2,2,60,0,0
56382,-100,4,2,1,60,0,0
56403,-100,4,2,2,60,0,0
56871,-100,4,2,3,60,0,0
57035,-100,4,2,1,60,0,0
57055,-100,4,2,2,60,0,0
57524,-100,4,2,1,60,0,0
57707,-100,4,2,2,60,0,0
58013,-100,4,2,1,60,0,0
58033,-100,4,2,2,60,0,0
58339,-100,4,2,1,60,0,0
58359,-100,4,2,2,60,0,0
59317,-100,4,2,2,40,0,0
59643,-100,4,2,1,40,0,0
59664,-100,4,2,2,50,0,0
60295,-100,4,2,1,50,0,0
60316,-100,4,2,2,60,0,0
60785,-100,4,2,2,70,0,0
60948,-100,4,2,1,70,0,0
60968,-100,4,2,2,70,0,0
61600,-100,4,2,1,50,0,0
61620,-100,4,2,2,50,0,0
61926,-100,4,2,2,40,0,0
62252,-100,4,2,1,40,0,0
62272,-100,4,2,2,50,0,0
62904,-100,4,2,1,60,0,0
62924,-100,4,2,2,60,0,0
63230,-100,4,2,1,60,0,0
63251,-100,4,2,2,60,0,0
63556,-100,4,2,1,70,0,0
63577,-100,4,2,2,70,0,0
63719,-100,4,2,3,70,0,0
63740,-100,4,2,2,70,0,0
64535,-100,4,2,1,70,0,0
64555,-100,4,2,2,20,0,0
66491,-76.9230769230769,4,2,2,20,0,0
67143,-100,4,2,2,80,0,1
67469,-100,4,2,1,80,0,1
67490,-100,4,2,2,80,0,1
68121,-100,4,2,1,80,0,1
68142,-100,4,2,2,80,0,1
68774,-100,4,2,1,80,0,1
68794,-100,4,2,2,80,0,1
69426,-100,4,2,1,80,0,1
69446,-100,4,2,2,80,0,1
70078,-100,4,2,1,80,0,1
70098,-100,4,2,2,80,0,1
70730,-100,4,2,1,80,0,1
70751,-100,4,2,2,80,0,1
71382,-100,4,2,1,80,0,1
71403,-100,4,2,2,80,0,1
72035,-100,4,2,1,80,0,1
72055,-100,4,2,2,80,0,1
72687,-100,4,2,1,80,0,1
72707,-100,4,2,2,80,0,1
73339,-100,4,2,1,80,0,1
73359,-100,4,2,2,80,0,1
73991,-100,4,2,1,80,0,1
74011,-100,4,2,2,80,0,1
74643,-100,4,2,1,80,0,1
74664,-100,4,2,2,80,0,1
75295,-100,4,2,1,80,0,1
75316,-100,4,2,2,80,0,1
75621,-100,4,2,1,80,0,1
75968,-100,4,2,2,80,0,1
76600,-100,4,2,1,80,0,1
76620,-100,4,2,2,80,0,1
77089,-100,4,2,1,80,0,1
77435,-100,4,2,2,80,0,1
77904,-100,4,2,1,80,0,1
77924,-100,4,2,2,80,0,1
78556,-100,4,2,1,80,0,1
78577,-100,4,2,2,80,0,1
79208,-100,4,2,1,80,0,1
79229,-100,4,2,2,80,0,1
79861,-100,4,2,1,80,0,1
79881,-100,4,2,2,80,0,1
80513,-100,4,2,1,80,0,1
80533,-100,4,2,2,80,0,1
81165,-100,4,2,1,80,0,1
81185,-100,4,2,2,80,0,1
81491,-100,4,2,1,80,0,1
81511,-100,4,2,2,80,0,1
81817,-100,4,2,1,80,0,1
81838,-100,4,2,2,80,0,1
82143,-100,4,2,1,80,0,1
82164,-100,4,2,2,80,0,1
82469,-100,4,2,1,80,0,1
82490,-100,4,2,2,80,0,1
82795,-100,4,2,2,70,0,1
83448,-100,4,2,1,70,0,1
83468,-100,4,2,2,70,0,1
84752,-100,4,2,1,70,0,1
84772,-100,4,2,2,70,0,1
86708,-100,4,2,1,70,0,1
86729,-100,4,2,2,70,0,1
87035,-100,4,2,1,70,0,1
87055,-100,4,2,2,70,0,1
89480,-100,4,2,2,5,0,0

[Colours]
Combo1 : 2,204,158
Combo2 : 146,251,4
Combo3 : 0,57,57

[HitObjects]
76,208,5839,5,0,0:0:0:0:
32,120,6002,1,0,0:0:0:0:
32,120,6328,2,0,P|72:112|132:132,1,80
180,196,6654,2,0,P|228:204|276:192,1,80
348,148,6980,1,0,0:0:0:0:
432,340,7306,5,0,0:0:0:0:
432,340,7469,2,0,P|420:288|432:232,1,80
440,76,7795,2,0,L|388:84,1,40
385,161,7958,2,0,L|341:145,1,40
264,160,8121,1,0,0:0:0:0:
128,56,8448,5,0,0:0:0:0:
16,152,8611,1,0,0:0:0:0:
16,152,8937,2,0,P|56:144|116:164,1,80
164,228,9263,2,0,P|212:236|260:224,1,80
332,180,9589,1,0,0:0:0:0:
412,312,9752,6,0,L|392:260,3,40
284,160,10078,2,0,L|272:204,3,40
244,272,10404,2,0,L|408:216,1,160
395,220,11056,6,0,P|392:136|384:104,1,80
248,24,11382,2,0,P|244:64|248:112,1,80
392,140,11708,1,0,0:0:0:0:
320,68,11871,1,0,0:0:0:0:
192,148,12035,2,0,L|100:148,1,80
111,243,12361,6,0,L|32:236,1,80
180,324,12687,1,0,0:0:0:0:
244,192,12850,1,0,0:0:0:0:
244,192,13013,2,0,P|252:136|244:88,1,80
168,64,13339,2,0,L|88:60,1,80
276,268,13665,6,0,L|356:264,1,80
500,152,13991,2,0,L|421:137,1,80
336,80,14317,1,0,0:0:0:0:
408,280,14480,1,0,0:0:0:0:
512,176,14643,2,0,L|428:156,1,80
324,184,14969,6,0,P|300:216|292:280,1,80
372,252,15295,1,0,0:0:0:0:
336,80,15458,1,0,0:0:0:0:
192,120,15621,2,0,L|240:148,2,40
424,184,15948,2,0,L|388:160,2,40
324,248,16274,1,0,0:0:0:0:
324,248,16437,2,0,L|436:176,1,120
288,164,16763,6,0,B|248:192|248:192|228:228|240:284,1,120
368,124,17089,6,0,P|340:92|288:80,1,80
68,56,17578,6,0,L|8:88,1,60.0000022888184
152,56,18067,1,0,0:0:0:0:
152,56,18230,2,0,P|168:112|144:180,1,120.000004577637
44,340,18882,1,0,0:0:0:0:
124,296,19045,2,0,B|192:264|192:264|252:284,1,120.000004577637
408,232,19535,2,0,L|348:208,1,60.0000022888184
208,360,20024,1,0,0:0:0:0:
208,360,20187,6,0,L|280:348,1,60.0000022888184
348,336,20513,2,0,P|316:280|252:268,1,120.000004577637
184,276,21002,1,0,0:0:0:0:
408,80,21491,6,0,L|352:104,1,60.0000022888184
248,68,21817,1,0,0:0:0:0:
356,124,21980,6,0,L|280:156,1,60.0000022888184
156,148,22225,2,0,P|124:108|124:52,2,90.0000034332277
152,176,22795,6,0,L|80:212,1,60.0000022888184
224,360,23285,1,0,0:0:0:0:
224,360,23448,2,0,P|212:300|216:240,1,120.000004577637
380,96,24100,1,0,0:0:0:0:
380,96,24263,2,0,L|456:76,1,60.0000022888184
292,72,24589,2,0,L|324:20,1,60.0000022888184
308,160,24915,1,0,0:0:0:0:
108,276,25404,5,0,0:0:0:0:
108,276,25567,1,0,0:0:0:0:
136,200,25730,2,0,P|172:228|180:312,1,120.000004577637
152,368,26219,1,0,0:0:0:0:
152,368,26708,6,0,L|136:300,1,60.0000022888184
216,304,27035,2,0,L|200:240,1,60.0000022888184
248,104,27361,1,0,0:0:0:0:
128,216,27524,1,0,0:0:0:0:
128,216,27605,1,0,0:0:0:0:
128,216,27687,1,0,0:0:0:0:
280,264,27850,1,0,0:0:0:0:
176,56,28013,6,0,P|165:102|172:148,1,80
336,296,28339,1,0,0:0:0:0:
336,296,28665,2,0,L|320:204,1,80
360,120,28991,1,0,0:0:0:0:
232,240,29154,1,0,0:0:0:0:
424,304,29317,6,0,P|416:260|384:220,1,80
200,144,29643,1,0,0:0:0:0:
184,8,29969,1,0,0:0:0:0:
132,80,30132,1,0,0:0:0:0:
200,144,30295,2,0,L|280:140,1,80
368,144,30621,5,0,0:0:0:0:
472,248,30785,1,0,0:0:0:0:
320,336,30948,2,0,P|312:296|320:248,1,80
364,140,31274,1,0,0:0:0:0:
512,196,31437,2,0,B|472:200|472:200|408:192,1,80
288,48,31763,1,0,0:0:0:0:
288,48,32089,6,0,B|248:44|248:44|204:48,1,80
136,200,32415,1,0,0:0:0:0:
248,136,32578,1,0,0:0:0:0:
104,60,32741,1,0,0:0:0:0:
220,244,32904,1,0,0:0:0:0:
176,96,33067,1,0,0:0:0:0:
80,280,33230,6,0,P|124:288|159:281,1,80
324,180,33556,1,0,0:0:0:0:
324,180,33882,2,0,P|360:172|404:180,1,80
488,240,34208,1,0,0:0:0:0:
416,88,34371,1,0,0:0:0:0:
360,252,34535,6,0,L|380:344,1,80
432,132,34861,1,0,0:0:0:0:
432,132,35187,1,0,0:0:0:0:
360,252,35350,1,0,0:0:0:0:
432,132,35513,2,0,L|452:224,1,80
508,284,35839,5,0,0:0:0:0:
440,108,36002,1,0,0:0:0:0:
332,208,36165,2,0,P|368:208|416:212,1,80
340,44,36491,1,0,0:0:0:0:
236,128,36654,2,0,L|324:132,1,80
184,56,36980,1,0,0:0:0:0:
244,212,37143,2,0,B|292:208|312:168|312:168|344:160|344:160|376:128,2,160
212,184,37877,1,0,0:0:0:0:
176,168,37958,1,0,0:0:0:0:
136,172,38040,1,0,0:0:0:0:
100,188,38121,1,0,0:0:0:0:
64,360,38448,6,0,L|103:357,1,40
68,344,38611,2,0,L|120:340,1,40
72,328,38774,2,0,B|77:288|69:248,1,80
160,128,39100,2,0,L|248:124,1,80
412,188,39426,1,0,0:0:0:0:
328,316,39589,1,0,0:0:0:0:
412,188,39752,6,0,L|324:184,1,80
256,280,40078,2,0,B|248:320|248:320|264:384,1,80
456,248,40404,1,0,0:0:0:0:
328,152,40567,1,0,0:0:0:0:
192,288,40730,2,0,L|304:308,1,80
392,216,41056,5,0,0:0:0:0:
380,200,41138,1,0,0:0:0:0:
368,184,41219,1,0,0:0:0:0:
352,168,41301,1,0,0:0:0:0:
340,152,41382,1,0,0:0:0:0:
336,152,41708,2,0,L|252:148,1,80
180,88,42035,1,0,0:0:0:0:
280,260,42198,1,0,0:0:0:0:
372,172,42361,6,0,L|264:168,1,80
480,300,42687,2,0,L|388:260,1,80
296,208,43013,1,0,0:0:0:0:
444,116,43176,1,0,0:0:0:0:
376,36,43339,2,0,P|364:76|368:120,1,80
400,264,43665,5,0,0:0:0:0:
312,156,43828,1,0,0:0:0:0:
504,244,44154,1,0,0:0:0:0:
248,304,44480,1,0,0:0:0:0:
360,120,44806,1,0,0:0:0:0:
360,120,44969,5,0,0:0:0:0:
288,172,45132,1,0,0:0:0:0:
220,224,45295,1,0,0:0:0:0:
396,260,45458,1,0,0:0:0:0:
272,80,45621,1,0,0:0:0:0:
432,180,45785,1,0,0:0:0:0:
232,232,45948,2,0,P|192:236|153:246,1,80
40,344,46274,6,0,P|84:340|124:328,1,80
192,300,46600,1,0,0:0:0:0:
88,96,46763,2,0,P|88:140|100:184,1,80
136,244,47089,1,0,0:0:0:0:
312,80,47252,2,0,B|252:92|252:92|228:116|228:116|156:132,1,160
152,48,47741,5,0,0:0:0:0:
304,184,47904,1,0,0:0:0:0:
324,64,48067,1,0,0:0:0:0:
184,200,48230,2,0,P|180:264|192:300,1,80
352,264,48556,2,0,P|312:248|256:264,1,80
452,312,48882,6,0,L|496:332,1,40
464,300,49045,2,0,L|516:320,1,40
472,288,49208,2,0,P|476:232|472:196,1,80
332,36,49534,2,0,P|328:76|336:128,1,80
432,124,49861,1,0,0:0:0:0:
296,184,50024,1,0,0:0:0:0:
432,124,50187,6,0,L|400:228,1,80
320,256,50513,2,0,P|260:252|228:228,1,80
188,96,50839,1,0,0:0:0:0:
292,184,51002,1,0,0:0:0:0:
128,288,51165,2,0,L|120:200,1,80
224,36,51491,5,0,0:0:0:0:
56,200,51654,1,0,0:0:0:0:
68,184,51736,1,0,0:0:0:0:
80,168,51817,1,0,0:0:0:0:
296,76,52143,2,0,P|272:104|232:120,1,80
100,92,52469,1,0,0:0:0:0:
224,36,52632,1,0,0:0:0:0:
265,178,52795,6,0,L|361:186,1,80
220,300,53121,2,0,L|316:280,1,80
432,188,53448,1,0,0:0:0:0:
320,32,53611,1,0,0:0:0:0:
256,100,53774,2,0,P|255:142|276:196,1,80
384,260,54100,6,0,L|304:264,1,80
432,188,54426,1,0,0:0:0:0:
328,28,54589,1,0,0:0:0:0:
288,180,54752,1,0,0:0:0:0:
448,96,54915,1,0,0:0:0:0:
232,44,55078,1,0,0:0:0:0:
360,232,55241,1,0,0:0:0:0:
360,232,55404,6,0,P|364:148|300:92,1,160
76,232,55893,1,0,0:0:0:0:
284,232,56056,2,0,L|196:220,1,80
180,232,56301,1,0,0:0:0:0:
156,240,56382,2,0,L|72:232,1,80
32,144,56708,5,0,0:0:0:0:
224,68,56871,1,0,0:0:0:0:
120,200,57035,1,0,0:0:0:0:
112,56,57198,5,0,0:0:0:0:
160,120,57524,1,0,0:0:0:0:
208,184,57850,1,0,0:0:0:0:
32,144,58013,5,0,0:0:0:0:
252,120,58176,1,0,0:0:0:0:
92,292,58339,1,0,0:0:0:0:
160,120,58502,1,0,0:0:0:0:
160,120,58583,1,0,0:0:0:0:
160,120,58665,1,0,0:0:0:0:
252,304,58828,1,0,0:0:0:0:
128,216,58991,1,0,0:0:0:0:
252,120,59154,1,0,0:0:0:0:
452,272,59317,5,0,0:0:0:0:
452,272,59480,2,0,L|360:268,1,80
304,160,59806,1,0,0:0:0:0:
360,24,59969,2,0,P|360:84|340:124,1,80
256,220,60295,2,0,L|272:328,1,80
208,356,60621,5,0,0:0:0:0:
336,244,60785,1,0,0:0:0:0:
168,160,60948,1,0,0:0:0:0:
168,160,61274,2,0,L|268:152,1,80
428,72,61600,2,0,P|384:56|340:60,1,80
247,153,61926,5,0,0:0:0:0:
384,252,62089,1,0,0:0:0:0:
364,136,62252,1,0,0:0:0:0:
268,268,62415,1,0,0:0:0:0:
432,176,62578,5,0,0:0:0:0:
272,80,62741,1,0,0:0:0:0:
384,252,62904,1,0,0:0:0:0:
380,28,63067,1,0,0:0:0:0:
220,152,63230,5,0,0:0:0:0:
182,168,63312,1,0,0:0:0:0:
142,164,63393,1,0,0:0:0:0:
110,144,63475,1,0,0:0:0:0:
90,108,63556,1,0,0:0:0:0:
90,68,63638,1,0,0:0:0:0:
110,32,63719,1,0,0:0:0:0:
146,12,63801,1,0,0:0:0:0:
184,16,63882,6,0,L|176:80,3,40
258,124,64208,2,0,L|240:176,3,40
180,252,64535,5,0,0:0:0:0:
180,252,64861,5,0,0:0:0:0:
400,344,65187,1,0,0:0:0:0:
384,120,65513,1,0,0:0:0:0:
176,340,65839,1,0,0:0:0:0:
360,248,66165,1,0,0:0:0:0:
112,100,66491,2,0,B|120:176|192:188|192:188|188:236|228:264,1,207.999990478516
208,88,67143,5,0,0:0:0:0:
128,236,67306,1,0,0:0:0:0:
256,320,67469,2,0,B|260:280|260:280|248:224,1,80
168,152,67795,1,0,0:0:0:0:
168,296,67958,1,0,0:0:0:0:
312,172,68121,2,0,L|284:92,1,80
376,228,68448,5,0,0:0:0:0:
228,160,68611,1,0,0:0:0:0:
300,8,68774,2,0,P|332:28|356:80,1,80
300,172,69100,1,0,0:0:0:0:
468,324,69263,1,0,0:0:0:0:
388,216,69426,2,0,L|380:300,1,80
264,276,69752,6,0,L|284:376,1,80
498,236,70078,2,0,P|442:208|362:232,1,120
348,232,70404,1,0,0:0:0:0:
400,376,70567,2,0,L|416:272,1,80
344,152,70893,1,0,0:0:0:0:
189,181,71056,2,0,P|228:192|268:192,1,80
412,108,71382,1,0,0:0:0:0:
444,208,71545,2,0,L|432:320,1,80
512,164,71871,5,0,0:0:0:0:
364,336,72035,1,0,0:0:0:0:
256,188,72198,2,0,L|272:276,1,80
216,340,72524,5,0,0:0:0:0:
340,208,72687,1,0,0:0:0:0:
160,100,72850,2,0,L|144:192,1,80
12,232,73176,2,0,P|64:244|100:232,1,80
244,96,73502,1,0,0:0:0:0:
76,100,73665,5,0,0:0:0:0:
164,240,73828,1,0,0:0:0:0:
256,188,73991,2,0,L|340:208,1,80
484,160,74317,2,0,L|400:132,1,80
328,288,74643,2,0,P|372:280|412:248,1,80
334,52,74969,5,0,0:0:0:0:
332,72,75051,1,0,0:0:0:0:
330,89,75132,1,0,0:0:0:0:
328,107,75214,1,0,0:0:0:0:
326,125,75295,1,0,0:0:0:0:
240,4,75458,1,0,0:0:0:0:
408,134,75621,1,0,0:0:0:0:
224,180,75785,1,0,0:0:0:0:
416,160,75948,1,0,0:0:0:0:
164,128,76111,6,0,P|236:100|300:148,1,160
320,240,76600,1,0,0:0:0:0:
164,128,76763,2,0,L|180:44,1,80
320,240,77089,2,0,L|332:332,1,80
248,180,77415,1,0,0:0:0:0:
416,256,77578,5,0,0:0:0:0:
412,68,77741,1,0,0:0:0:0:
492,200,77904,1,0,0:0:0:0:
412,68,78067,2,0,P|372:56|324:72,1,80
252,144,78393,1,0,0:0:0:0:
264,232,78556,1,0,0:0:0:0:
336,176,78719,1,0,0:0:0:0:
312,72,78882,5,0,0:0:0:0:
176,92,79045,1,0,0:0:0:0:
324,84,79208,1,0,0:0:0:0:
196,232,79371,2,0,P|152:240|112:228,1,80
12,104,79698,1,0,0:0:0:0:
68,176,79861,2,0,L|84:328,1,120
84,328,80187,5,0,0:0:0:0:
212,188,80350,1,0,0:0:0:0:
268,348,80513,1,0,0:0:0:0:
144,144,80676,2,0,P|140:92|144:56,1,80
316,136,81002,2,0,P|320:188|316:232,1,80
176,288,81328,1,0,0:0:0:0:
360,192,81491,6,0,L|448:188,1,80
288,332,81817,2,0,P|284:272|296:244,1,80
416,116,82143,1,0,0:0:0:0:
356,296,82306,1,0,0:0:0:0:
228,168,82469,2,0,L|128:160,1,80
92,236,82795,5,0,0:0:0:0:
264,104,82958,1,0,0:0:0:0:
104,84,83121,1,0,0:0:0:0:
240,260,83285,1,0,0:0:0:0:
176,96,83448,5,0,0:0:0:0:
164,280,83611,1,0,0:0:0:0:
104,140,83774,1,0,0:0:0:0:
164,280,83937,1,0,0:0:0:0:
236,328,84100,5,0,0:0:0:0:
88,232,84263,1,0,0:0:0:0:
212,204,84426,1,0,0:0:0:0:
116,352,84589,1,0,0:0:0:0:
164,280,84752,2,0,P|248:264|328:288,1,160
256,192,85241,12,0,87850,0:0:0:0:
