osu file format v14

[General]
AudioFilename: the new new nisekoi groove by android52.mp3
AudioLeadIn: 0
PreviewTime: 0
Countdown: 0
SampleSet: Soft
StackLeniency: 0.2
Mode: 0
LetterboxInBreaks: 0
WidescreenStoryboard: 1

[Editor]
DistanceSpacing: 0.4
BeatDivisor: 6
GridSize: 4
TimelineZoom: 2.5

[Metadata]
Title:the new "new nisekoi groove"
TitleUnicode:the new "new nisekoi groove"
Artist:android52
ArtistUnicode:android52
Creator:pishifat
Version:Insane
Source:
Tags:
BeatmapID:1313204
BeatmapSetID:623007

[Difficulty]
HPDrainRate:6
CircleSize:5
OverallDifficulty:7
ApproachRate:9
SliderMultiplier:2
SliderTickRate:1

[Events]
//Background and Video events
0,0,"dA703PK.png",0,0
//Break Periods
//Storyboard Layer 0 (Background)
//Storyboard Layer 1 (Fail)
//Storyboard Layer 2 (Pass)
//Storyboard Layer 3 (Foreground)
//Storyboard Sound Samples

[TimingPoints]
263,483.870967741935,4,2,0,100,1,0
263,-200,4,2,0,30,0,0
8004,-133.333333333333,4,2,0,75,0,0
8488,-100,4,2,0,75,0,0
8972,-66.6666666666667,4,2,0,75,0,0
9456,-100,4,2,0,75,0,0
9940,-62.5,4,2,0,75,0,0
10061,-62.5,4,2,0,5,0,0
10182,-50,4,2,0,75,0,0
10303,-50,4,2,0,5,0,0
10424,-62.5,4,2,0,75,0,0
10545,-62.5,4,2,0,5,0,0
10666,-50,4,2,0,75,0,0
10787,-50,4,2,0,5,0,0
10908,-66.6666666666667,4,2,0,75,0,0
11392,-100,4,2,0,75,0,0
11674,-62.5,4,2,0,75,0,0
11875,-62.5,4,2,0,75,0,0
11996,-62.5,4,2,0,5,0,0
12117,-66.6666666666667,4,2,0,75,0,0
12238,-66.6666666666667,4,2,0,5,0,0
12359,-71.4285714285714,4,2,0,75,0,0
12480,-71.4285714285714,4,2,0,5,0,0
12601,-76.9230769230769,4,2,0,75,0,0
12722,-76.9230769230769,4,2,0,5,0,0
12843,-83.3333333333333,4,2,0,75,0,0
13327,-100,4,2,0,75,0,0
15746,-133.333333333333,4,2,0,75,0,0
16230,-100,4,2,0,75,0,0
16714,-66.6666666666667,4,2,0,75,0,0
17198,-100,4,2,0,75,0,0
17682,-62.5,4,2,0,75,0,0
17803,-62.5,4,2,0,5,0,0
17883,-50,4,2,0,75,0,0
18045,-50,4,2,0,5,0,0
18166,-62.5,4,2,0,75,0,0
18287,-62.5,4,2,0,5,0,0
18367,-50,4,2,0,75,0,0
18529,-50,4,2,0,5,0,0
18650,-66.6666666666667,4,2,0,75,0,0
19133,-100,4,2,0,75,0,0
19617,-62.5,4,2,0,75,0,0
19738,-62.5,4,2,0,5,0,0
19859,-66.6666666666667,4,2,0,75,0,0
19980,-66.6666666666667,4,2,0,5,0,0
20061,-71.4285714285714,4,2,0,75,0,0
20222,-71.4285714285714,4,2,0,5,0,0
20343,-76.9230769230769,4,2,0,75,0,0
20464,-76.9230769230769,4,2,0,5,0,0
20585,-71.4285714285714,4,2,0,75,0,0
21069,-62.5,4,2,0,75,0,0
23488,-100,4,2,0,75,0,0
23972,-66.6666666666667,4,2,0,75,0,0
24456,-50,4,2,0,75,0,0
24940,-66.6666666666667,4,2,0,75,0,0
25424,-50,4,2,0,75,0,0
25545,-50,4,2,0,5,0,0
25666,-40,4,2,0,75,0,0
25787,-40,4,2,0,5,0,0
25908,-50,4,2,0,75,0,0
26029,-50,4,2,0,5,0,0
26150,-40,4,2,0,75,0,0
26271,-40,4,2,0,5,0,0
26392,-50,4,2,0,75,0,0
26875,-66.6666666666667,4,2,0,75,0,0
27359,-50,4,2,0,75,0,0
27480,-50,4,2,0,5,0,0
27601,-52.6315789473684,4,2,0,75,0,0
27722,-52.6315789473684,4,2,0,5,0,0
27843,-55.5555555555556,4,2,0,75,0,0
27964,-55.5555555555556,4,2,0,5,0,0
28085,-58.8235294117647,4,2,0,75,0,0
28206,-58.8235294117647,4,2,0,5,0,0
28327,-62.5,4,2,0,75,0,0
28811,-76.9230769230769,4,2,0,75,0,0
31230,-100,4,2,0,75,0,0
31714,-66.6666666666667,4,2,0,75,0,0
32198,-50,4,2,0,75,0,0
32682,-66.6666666666667,4,2,0,75,0,0
33166,-50,4,2,0,75,0,0
33287,-50,4,2,0,5,0,0
33408,-40,4,2,0,75,0,0
33529,-40,4,2,0,5,0,0
33650,-50,4,2,0,75,0,0
33771,-50,4,2,0,5,0,0
33892,-40,4,2,0,75,0,0
34012,-40,4,2,0,5,0,0
34133,-50,4,2,0,75,0,0
34375,-66.6666666666667,4,2,0,75,0,0
35101,-50,4,2,0,75,0,0
35222,-50,4,2,0,5,0,0
35343,-52.6315789473684,4,2,0,75,0,0
35464,-52.6315789473684,4,2,0,5,0,0
35585,-55.5555555555556,4,2,0,75,0,0
35706,-55.5555555555556,4,2,0,5,0,0
35827,-58.8235294117647,4,2,0,75,0,0
35948,-58.8235294117647,4,2,0,5,0,0
36069,-50,4,2,0,75,0,0
36553,-40,4,2,0,75,0,0
38972,-133.333333333333,4,2,0,55,0,0
44779,-100,4,2,0,55,0,0
45263,-83.3333333333333,4,2,0,55,0,0

[Colours]
Combo1 : 255,189,145
Combo2 : 128,172,217
Combo3 : 75,165,91
Combo4 : 255,119,119

[HitObjects]
71,167,263,6,0,L|63:67,1,100,2|0,0:0|0:0,0:0:0:0:
63,67,1956,1,0,0:0:0:0:
155,174,2198,6,0,L|147:74,1,100,2|0,0:0|0:0,0:0:0:0:
441,167,4133,6,0,L|449:67,1,100,2|0,0:0|0:0,0:0:0:0:
449,67,5826,1,0,0:0:0:0:
357,174,6069,6,0,L|365:74,1,100,2|0,0:0|0:0,0:0:0:0:
274,21,7682,5,0,1:0:0:0:
274,21,7762,1,0,1:0:0:0:
365,75,8004,6,0,P|407:62|429:38,1,75.0000028610231,6|0,0:3|0:0,0:0:0:0:
245,120,8488,2,0,P|299:132|332:173,1,100,0|0,1:0|0:0,0:0:0:0:
121,156,8972,6,0,P|167:102|181:3,1,150.000005722046,4|0,0:3|0:0,0:0:0:0:
27,9,9335,1,2,0:0:0:0:
3,85,9456,2,0,P|67:80|100:46,1,100,0|0,1:0|0:0,0:0:0:0:
93,58,9940,6,0,P|99:117|136:171,1,106.666666666667,6|0,0:3|0:0,0:0:0:0:
86,224,10182,2,0,P|129:181|217:169,1,133.333333333333,2|0,0:2|0:0,0:0:0:0:
231,87,10424,2,0,P|277:112|348:100,1,106.666666666667,0|0,1:2|0:0,0:0:0:0:
361,37,10666,2,0,P|353:101|389:156,1,133.333333333333,2|0,0:0|0:0,0:0:0:0:
485,196,10908,6,0,P|413:181|346:226,1,150.000005722046,4|0,0:3|0:0,0:0:0:0:
331,384,11271,1,2,0:0:0:0:
406,349,11392,2,0,P|435:288|423:247,1,100,0|0,1:0|0:0,0:0:0:0:
429,259,11875,6,0,P|363:299|317:305,1,106.666666666667,6|0,0:3|0:0,0:0:0:0:
266,338,12117,2,0,P|217:310|155:305,1,100.000003814697,2|0,0:0|0:0,0:0:0:0:
103,331,12359,2,0,P|125:290|124:225,1,93.3333304850261,0|0,1:0|0:0,0:0:0:0:
167,174,12601,2,0,P|145:133|140:79,1,86.6666626993817,2|0,0:0|0:0,0:0:0:0:
320,66,12843,6,0,P|283:110|225:110,1,119.999996337891,4|0,0:3|0:0,0:0:0:0:
442,198,13327,2,0,P|407:166|351:163,1,100,0|0,1:0|0:0,0:0:0:0:
131,271,13811,5,4,0:3:0:0:
276,237,14053,1,4,0:3:0:0:
292,86,14295,1,0,1:0:0:0:
154,25,14537,1,4,0:3:0:0:
54,138,14779,1,4,0:3:0:0:
256,157,15263,5,0,1:0:0:0:
316,311,15746,6,0,P|358:329|394:331,1,75.0000028610231,6|0,0:3|0:0,0:0:0:0:
195,272,16230,2,0,P|233:320|232:365,1,100,0|0,1:0|0:0,0:0:0:0:
230,160,16714,6,0,P|290:227|362:215,1,150.000005722046,4|0,0:3|0:0,0:0:0:0:
398,38,17077,1,2,0:0:0:0:
323,58,17198,2,0,P|302:114|323:162,1,100,0|0,1:0|0:0,0:0:0:0:
313,150,17682,6,0,P|376:153|417:177,1,106.666666666667,6|0,0:3|0:0,0:0:0:0:
480,217,17924,2,0,P|409:224|362:282,1,133.333333333333,2|0,0:0|0:0,0:0:0:0:
337,338,18166,2,0,P|325:288|274:232,1,106.666666666667,0|0,1:0|0:0,0:0:0:0:
236,183,18408,2,0,P|246:247|212:303,1,133.333333333333,2|0,0:0|0:0,0:0:0:0:
54,163,18650,6,0,P|113:167|168:239,1,150.000005722046,4|0,0:3|0:0,0:0:0:0:
66,352,19013,1,2,0:0:0:0:
5,298,19133,2,0,P|36:277|105:282,1,100,0|0,1:0|0:0,0:0:0:0:
96,278,19617,6,0,P|160:312|195:309,1,106.666666666667,6|0,0:3|0:0,0:0:0:0:
255,357,19859,2,0,P|298:327|351:325,1,100.000003814697,2|0,0:0|0:0,0:0:0:0:
411,357,20101,2,0,P|390:293|392:251,1,93.3333304850261,0|0,1:0|0:0,0:0:0:0:
342,206,20343,2,0,P|358:154|357:121,1,86.6666626993817,2|0,0:0|0:0,0:0:0:0:
303,56,20585,6,0,P|247:97|172:102,1,139.999995727539,4|0,0:3|0:0,0:0:0:0:
512,121,21069,2,0,P|464:58|387:43,1,160,0|0,1:0|0:0,0:0:0:0:
89,208,21553,5,0,1:0:0:0:
236,372,21795,1,0,1:0:0:0:
438,284,22037,1,0,1:0:0:0:
415,63,22279,1,0,1:0:0:0:
202,12,22521,1,0,1:0:0:0:
320,309,23004,5,4,0:3:0:0:
320,309,23246,1,4,0:3:0:0:
404,250,23488,6,0,P|465:251|506:282,1,100,6|0,0:3|0:0,0:0:0:0:
302,189,23972,2,0,P|385:171|420:97,1,150.000005722046,0|0,1:0|0:0,0:0:0:0:
142,121,24456,6,0,P|221:204|217:303,1,200,4|0,0:3|0:0,0:0:0:0:
53,305,24819,1,2,0:0:0:0:
1,192,24940,2,0,P|91:186|142:224,1,150.000005722046,0|0,1:0|0:0,0:0:0:0:
138,219,25424,6,0,P|230:209|272:165,1,133.333333333333,6|0,0:3|0:0,0:0:0:0:
279,109,25666,2,0,P|282:190|336:252,1,166.666666666667,2|0,0:0|0:0,0:0:0:0:
267,297,25908,2,0,P|332:292|392:321,1,133.333333333333,0|0,1:0|0:0,0:0:0:0:
432,384,26150,2,0,P|435:302|496:228,1,166.666666666667,2|0,0:0|0:0,0:0:0:0:
498,73,26392,6,0,P|441:168|345:149,1,200,4|0,0:3|0:0,0:0:0:0:
279,61,26754,1,2,0:0:0:0:
400,27,26875,2,0,P|405:95|357:167,1,150.000005722046,0|0,1:0|0:0,0:0:0:0:
363,162,27359,6,0,P|294:160|227:201,1,133.333333333333,6|0,0:3|0:0,0:0:0:0:
182,130,27601,2,0,P|125:124|63:86,1,126.666663284302,2|0,0:0|0:0,0:0:0:0:
26,18,27843,2,0,P|12:104|-20:144,1,119.999996337891,0|0,1:0|0:0,0:0:0:0:
53,190,28085,2,0,P|67:276|99:316,1,113.333335494995,2|0,0:0|0:0,0:0:0:0:
125,378,28327,6,0,P|188:340|276:353,1,160,4|0,0:3|0:0,0:0:0:0:
53,190,28811,2,0,P|94:238|156:257,1,129.999994049073,0|0,1:0|0:0,0:0:0:0:
486,134,29295,5,4,0:3:0:0:
386,21,29537,1,4,0:3:0:0:
248,82,29779,1,0,1:3:0:0:
264,233,30021,1,4,0:3:0:0:
409,267,30263,1,4,0:3:0:0:
284,153,30747,5,0,1:0:0:0:
111,191,31230,6,0,P|52:192|13:161,1,100,6|0,0:3|0:0,0:0:0:0:
208,261,31714,2,0,P|137:268|77:330,1,150.000005722046,0|0,1:0|0:0,0:0:0:0:
377,274,32198,6,0,P|305:238|242:119,1,200,4|0,0:3|0:0,0:0:0:0:
442,67,32561,1,2,0:0:0:0:
489,195,32682,2,0,P|427:202|344:161,1,150.000005722046,0|0,1:0|0:0,0:0:0:0:
349,166,33166,6,0,P|284:178|232:220,1,133.333333333333,6|0,0:3|0:0,0:0:0:0:
194,285,33408,2,0,P|203:212|155:128,1,166.666666666667,2|0,0:0|0:0,0:0:0:0:
113,67,33650,2,0,P|172:94|239:95,1,133.333333333333,0|0,1:0|0:0,0:0:0:0:
304,42,33892,2,0,P|385:38|452:89,1,166.666666666667,2|0,0:0|0:0,0:0:0:0:
306,192,34133,6,0,P|355:108|450:86,1,200,4|0,0:3|0:0,0:0:0:0:
512,246,34496,1,2,0:0:0:0:
403,316,34617,2,0,P|382:245|403:174,1,150.000005722046,0|0,1:0|0:0,0:0:0:0:
403,174,35101,6,0,P|337:173|270:136,1,133.333333333333,6|0,0:3|0:0,0:0:0:0:
228,209,35343,2,0,P|165:218|111:250,1,126.666663284302,2|0,0:0|0:0,0:0:0:0:
43,299,35585,2,0,P|62:253|61:172,1,119.999996337891,0|0,1:0|0:0,0:0:0:0:
137,144,35827,2,0,P|147:85|187:30,1,113.333335494995,2|0,0:0|0:0,0:0:0:0:
254,12,36069,6,0,P|308:69|433:77,1,200,4|0,0:3|0:0,0:0:0:0:
111,250,36553,2,0,P|169:177|327:173,1,250,0|0,1:0|0:0,0:0:0:0:
42,291,37037,5,0,1:0:0:0:
49,70,37279,1,0,1:0:0:0:
260,8,37521,1,0,1:0:0:0:
384,192,37763,1,0,1:0:0:0:
254,368,38005,1,0,1:0:0:0:
468,37,38972,6,0,L|390:28,1,75.0000028610231,2|0,0:0|0:0,0:0:0:0:
382,40,39335,1,0,0:0:0:0:
373,52,39456,1,2,0:0:0:0:
364,64,39577,1,0,0:0:0:0:
461,188,39819,1,0,0:0:0:0:
455,174,39940,1,2,0:0:0:0:
450,159,40061,1,0,0:0:0:0:
443,145,40182,1,0,0:0:0:0:
438,131,40303,1,0,0:0:0:0:
292,163,40545,1,0,0:0:0:0:
307,164,40666,1,0,0:0:0:0:
322,167,40787,1,0,0:0:0:0:
338,168,40908,5,0,0:0:0:0:
438,131,41150,1,0,0:0:0:0:
364,64,41392,1,0,0:0:0:0:
148,320,41633,5,0,1:3:0:0:
205,240,41875,6,0,L|280:248,1,75.0000028610231
295,240,42238,1,0,0:0:0:0:
148,320,42601,37,0,1:0:0:0:
205,240,42843,5,0,0:0:0:0:
148,320,43085,37,0,1:0:0:0:
205,240,43327,5,0,0:0:0:0:
148,320,43569,37,0,1:0:0:0:
205,240,43811,5,0,0:0:0:0:
148,320,44053,37,0,1:0:0:0:
148,320,44295,1,0,1:0:0:0:
148,320,44537,1,0,1:0:0:0:
205,240,44779,5,4,0:3:0:0:
148,160,45021,1,2,0:0:0:0:
54,191,45263,1,4,0:3:0:0:
54,289,45504,1,2,0:0:0:0:
148,320,45746,5,4,0:3:0:0:
148,160,45988,1,4,0:3:0:0:
301,111,46230,1,4,0:3:0:0:
394,241,46472,1,4,0:3:0:0:
299,369,46714,1,4,0:3:0:0:
256,192,47138,12,4,47682,0:0:0:0:
