osu file format v14

[General]
AudioFilename: the new new nisekoi groove by android52.mp3
AudioLeadIn: 0
PreviewTime: 0
Countdown: 0
SampleSet: None
StackLeniency: 0.6
Mode: 0
LetterboxInBreaks: 0
WidescreenStoryboard: 1

[Editor]
DistanceSpacing: 1.2
BeatDivisor: 4
GridSize: 4
TimelineZoom: 2.5

[Metadata]
Title:the new "new nisekoi groove"
TitleUnicode:the new "new nisekoi groove"
Artist:android52
ArtistUnicode:android52
Creator:pishifat
Version:Hard
Source:
Tags:
BeatmapID:1539377
BeatmapSetID:623007

[Difficulty]
HPDrainRate:5
CircleSize:4
OverallDifficulty:6
ApproachRate:7
SliderMultiplier:0.999999999999999
SliderTickRate:1

[Events]
//Background and Video events
0,0,"dA703PK.png",0,0
//Break Periods
//Storyboard Layer 0 (Background)
//Storyboard Layer 1 (Fail)
//Storyboard Layer 2 (Pass)
//Storyboard Layer 3 (Foreground)
//Storyboard Sound Samples

[TimingPoints]
263,483.870967741935,4,2,0,100,1,0
263,-66.6666666666667,4,2,0,30,0,0
7682,-50,4,2,0,30,0,0
8004,-58.8235294117647,4,2,0,75,0,0
8488,-58.8235294117647,4,2,0,75,0,0
8972,-58.8235294117647,4,2,0,75,0,0
9456,-58.8235294117647,4,2,0,75,0,0
9940,-58.8235294117647,4,2,0,75,0,0
10061,-58.8235294117647,4,2,0,5,0,0
10182,-58.8235294117647,4,2,0,75,0,0
10303,-58.8235294117647,4,2,0,5,0,0
10424,-58.8235294117647,4,2,0,75,0,0
10545,-58.8235294117647,4,2,0,5,0,0
10666,-58.8235294117647,4,2,0,75,0,0
10787,-58.8235294117647,4,2,0,5,0,0
10908,-58.8235294117647,4,2,0,75,0,0
11392,-58.8235294117647,4,2,0,75,0,0
11674,-58.8235294117647,4,2,0,75,0,0
11875,-58.8235294117647,4,2,0,75,0,0
11996,-58.8235294117647,4,2,0,5,0,0
12117,-58.8235294117647,4,2,0,75,0,0
12238,-58.8235294117647,4,2,0,5,0,0
12359,-58.8235294117647,4,2,0,75,0,0
12480,-58.8235294117647,4,2,0,5,0,0
12601,-58.8235294117647,4,2,0,75,0,0
12722,-58.8235294117647,4,2,0,5,0,0
12843,-58.8235294117647,4,2,0,75,0,0
13327,-58.8235294117647,4,2,0,75,0,0
15746,-58.8235294117647,4,2,0,75,0,0
16230,-58.8235294117647,4,2,0,75,0,0
16714,-58.8235294117647,4,2,0,75,0,0
17198,-58.8235294117647,4,2,0,75,0,0
17682,-58.8235294117647,4,2,0,75,0,0
17803,-58.8235294117647,4,2,0,5,0,0
17883,-58.8235294117647,4,2,0,75,0,0
18045,-58.8235294117647,4,2,0,5,0,0
18166,-58.8235294117647,4,2,0,75,0,0
18287,-58.8235294117647,4,2,0,5,0,0
18367,-58.8235294117647,4,2,0,75,0,0
18529,-58.8235294117647,4,2,0,5,0,0
18650,-58.8235294117647,4,2,0,75,0,0
19133,-58.8235294117647,4,2,0,75,0,0
19617,-58.8235294117647,4,2,0,75,0,0
19738,-58.8235294117647,4,2,0,5,0,0
19859,-58.8235294117647,4,2,0,75,0,0
19980,-58.8235294117647,4,2,0,5,0,0
20061,-58.8235294117647,4,2,0,75,0,0
20222,-58.8235294117647,4,2,0,5,0,0
20343,-58.8235294117647,4,2,0,75,0,0
20464,-58.8235294117647,4,2,0,5,0,0
20585,-58.8235294117647,4,2,0,75,0,0
21069,-58.8235294117647,4,2,0,75,0,0
23004,-76.9230769230769,4,2,0,75,0,0
23488,-58.8235294117647,4,2,0,75,0,0
23972,-58.8235294117647,4,2,0,75,0,0
24456,-58.8235294117647,4,2,0,75,0,0
24940,-58.8235294117647,4,2,0,75,0,0
25424,-58.8235294117647,4,2,0,75,0,0
25545,-58.8235294117647,4,2,0,5,0,0
25666,-58.8235294117647,4,2,0,75,0,0
25787,-58.8235294117647,4,2,0,5,0,0
25908,-58.8235294117647,4,2,0,75,0,0
26029,-58.8235294117647,4,2,0,5,0,0
26150,-58.8235294117647,4,2,0,75,0,0
26271,-58.8235294117647,4,2,0,5,0,0
26392,-58.8235294117647,4,2,0,75,0,0
26875,-58.8235294117647,4,2,0,75,0,0
27359,-58.8235294117647,4,2,0,75,0,0
27480,-58.8235294117647,4,2,0,5,0,0
27601,-58.8235294117647,4,2,0,75,0,0
27722,-58.8235294117647,4,2,0,5,0,0
27843,-58.8235294117647,4,2,0,75,0,0
27964,-58.8235294117647,4,2,0,5,0,0
28085,-58.8235294117647,4,2,0,75,0,0
28206,-58.8235294117647,4,2,0,5,0,0
28327,-58.8235294117647,4,2,0,75,0,0
28811,-58.8235294117647,4,2,0,75,0,0
31230,-58.8235294117647,4,2,0,75,0,0
31714,-58.8235294117647,4,2,0,75,0,0
32198,-58.8235294117647,4,2,0,75,0,0
32682,-58.8235294117647,4,2,0,75,0,0
33166,-58.8235294117647,4,2,0,75,0,0
33287,-58.8235294117647,4,2,0,5,0,0
33408,-58.8235294117647,4,2,0,75,0,0
33529,-58.8235294117647,4,2,0,5,0,0
33650,-58.8235294117647,4,2,0,75,0,0
33771,-58.8235294117647,4,2,0,5,0,0
33892,-58.8235294117647,4,2,0,75,0,0
34012,-58.8235294117647,4,2,0,5,0,0
34133,-58.8235294117647,4,2,0,75,0,0
34375,-58.8235294117647,4,2,0,75,0,0
35101,-58.8235294117647,4,2,0,75,0,0
35222,-58.8235294117647,4,2,0,5,0,0
35343,-58.8235294117647,4,2,0,75,0,0
35464,-58.8235294117647,4,2,0,5,0,0
35585,-58.8235294117647,4,2,0,75,0,0
35706,-58.8235294117647,4,2,0,5,0,0
35827,-58.8235294117647,4,2,0,75,0,0
35948,-58.8235294117647,4,2,0,5,0,0
36069,-58.8235294117647,4,2,0,75,0,0
36553,-58.8235294117647,4,2,0,75,0,0
38972,-71.4285714285714,4,2,0,55,0,0
44779,-71.4285714285714,4,2,0,55,0,0
45262,-62.5,4,2,0,55,0,0
45746,-55.5555555555556,4,2,0,55,0,0
46230,-50,4,2,0,55,0,0

[Colours]
Combo1 : 255,189,145
Combo2 : 128,172,217
Combo3 : 75,165,91
Combo4 : 255,119,119

[HitObjects]
78,126,264,6,0,P|115:66|192:73,1,150.000005722046
72,209,1956,5,0,0:0:0:0:
78,126,2198,2,0,P|115:66|192:73,1,150.000005722046
433,126,4133,6,0,P|396:66|320:73,1,150.000005722046
440,209,5825,5,0,0:0:0:0:
433,126,6067,2,0,P|396:66|320:73,1,150.000005722046
244,121,6795,5,0,0:0:0:0:
244,121,7037,2,0,L|232:37,2,75.000002861023
258,207,7682,2,0,P|248:231|223:239,1,33.3333333333333
243,234,8004,6,0,P|193:236|154:267,1,85.0000016212463
61,235,8488,2,0,P|37:279|45:328,1,85.0000016212463
149,384,8972,2,0,L|255:370,1,85.0000016212463
263,369,9335,1,0,0:0:0:0:
292,365,9456,2,0,L|398:351,1,85.0000016212463
476,279,9940,5,0,0:0:0:0:
374,231,10182,1,0,0:0:0:0:
491,203,10424,1,0,0:0:0:0:
393,154,10666,1,0,0:0:0:0:
507,128,10908,2,0,P|483:62|443:39,1,85.0000016212463
446,40,11271,1,0,0:0:0:0:
418,28,11392,2,0,L|330:39,1,85.0000016212463
218,91,11875,5,0,0:0:0:0:
154,4,12117,1,0,0:0:0:0:
149,132,12359,1,0,0:0:0:0:
86,44,12601,1,0,0:0:0:0:
78,166,12843,2,0,L|91:268,1,85.0000016212463
185,313,13327,2,0,L|195:228,1,85.0000016212463
256,144,13811,5,0,0:0:0:0:
333,162,14053,1,0,0:0:0:0:
399,205,14295,1,0,0:0:0:0:
442,271,14537,1,0,0:0:0:0:
456,349,14779,1,0,0:0:0:0:
256,144,15262,1,0,0:0:0:0:
106,296,15746,6,0,P|61:298|10:266,1,85.0000016212463
142,220,16230,2,0,P|126:177|140:118,1,85.0000016212463
225,231,16714,2,0,L|327:244,1,85.0000016212463
320,269,17077,1,0,0:0:0:0:
332,295,17198,2,0,L|230:308,1,85.0000016212463
142,352,17682,5,0,0:0:0:0:
62,277,17924,1,0,0:0:0:0:
174,281,18166,1,0,0:0:0:0:
96,206,18408,1,0,0:0:0:0:
212,212,18650,2,0,P|271:193|299:157,1,85.0000016212463
301,152,19012,1,0,0:0:0:0:
311,124,19133,2,0,L|321:24,1,85.0000016212463
439,13,19617,5,0,0:0:0:0:
505,102,19859,1,0,0:0:0:0:
393,74,20101,1,0,0:0:0:0:
462,162,20343,1,0,0:0:0:0:
345,133,20585,2,0,L|242:148,1,85.0000016212463
179,210,21069,2,0,L|94:197,1,85.0000016212463
51,309,21553,5,0,0:0:0:0:
143,296,21795,1,0,0:0:0:0:
235,284,22037,1,0,0:0:0:0:
327,272,22279,1,0,0:0:0:0:
419,260,22521,1,0,0:0:0:0:
432,269,23004,6,0,L|445:356,1,64.9999970245362
498,202,23488,6,0,P|442:178|399:185,1,85.0000016212463
399,66,23972,2,0,P|356:68|320:88,1,85.0000016212463
202,52,24456,2,0,L|214:150,1,85.0000016212463
205,174,24819,1,0,0:0:0:0:
179,202,24940,2,0,L|66:191,1,85.0000016212463
41,336,25424,5,0,0:0:0:0:
132,294,25666,1,0,0:0:0:0:
47,349,25908,1,0,0:0:0:0:
125,282,26150,1,0,0:0:0:0:
221,317,26392,2,0,P|294:301|325:271,1,85.0000016212463
323,265,26754,1,0,0:0:0:0:
341,231,26875,2,0,P|408:250|435:288,1,85.0000016212463
388,352,27359,5,0,0:0:0:0:
481,346,27601,1,0,0:0:0:0:
385,366,27843,1,0,0:0:0:0:
484,332,28085,1,0,0:0:0:0:
417,259,28327,2,0,L|406:144,1,85.0000016212463
421,62,28811,2,0,P|365:95|319:97,1,85.0000016212463
256,44,29295,5,0,0:0:0:0:
171,37,29537,1,0,0:0:0:0:
93,72,29779,1,0,0:0:0:0:
55,148,30021,1,0,0:0:0:0:
66,231,30262,1,0,0:0:0:0:
256,44,30746,5,0,0:0:0:0:
66,231,31230,6,0,P|129:266|168:263,1,85.0000016212463
207,362,31714,2,0,P|248:352|281:326,1,85.0000016212463
408,360,32198,2,0,L|395:264,1,85.0000016212463
414,241,32561,1,0,0:0:0:0:
432,207,32682,2,0,L|443:111,1,85.0000016212463
359,30,33166,5,0,0:0:0:0:
346,126,33408,1,0,0:0:0:0:
352,17,33650,1,0,0:0:0:0:
354,138,33892,1,0,0:0:0:0:
253,66,34133,2,0,P|195:78|163:115,1,85.0000016212463
156,126,34496,1,0,0:0:0:0:
136,158,34617,2,0,P|91:154|41:119,1,85.0000016212463
14,224,35101,5,0,0:0:0:0:
88,285,35343,1,0,0:0:0:0:
0,232,35585,1,0,0:0:0:0:
103,279,35827,1,0,0:0:0:0:
205,327,36069,2,0,P|264:311|299:273,1,85.0000016212463
365,227,36553,2,0,L|351:119,1,85.0000016212463
459,54,37037,5,0,0:0:0:0:
357,44,37279,1,0,0:0:0:0:
255,34,37521,1,0,0:0:0:0:
153,25,37762,1,0,0:0:0:0:
51,16,38004,1,0,0:0:0:0:
114,169,38972,6,0,P|146:182|181:179,1,69.9999978637695
181,179,39335,1,0,0:0:0:0:
181,179,39456,2,0,L|193:245,1,34.9999989318848
311,246,39819,1,0,0:0:0:0:
311,246,39940,2,0,L|303:301,3,34.9999989318848
450,245,40545,1,0,0:0:0:0:
450,245,40666,2,0,L|441:193,1,34.9999989318848
450,168,40908,6,0,P|507:151|528:125,2,69.9999978637695
441,61,41633,1,0,0:0:0:0:
380,117,41875,6,0,P|345:112|283:60,1,104.999996795654
441,61,42601,1,0,0:0:0:0:
380,117,42843,5,0,0:0:0:0:
347,211,43085,1,0,0:0:0:0:
277,250,43327,5,0,0:0:0:0:
235,159,43569,1,0,0:0:0:0:
164,120,43811,5,0,0:0:0:0:
130,219,44053,1,0,0:0:0:0:
30,185,44295,1,0,0:0:0:0:
65,90,44537,1,0,0:0:0:0:
164,120,44779,6,0,P|201:113|234:89,1,69.9999978637695
323,126,45262,2,0,P|323:163|286:226,1,79.9999999999999
219,261,45746,6,0,P|175:257|135:237,1,89.999997253418
45,288,46230,2,0,P|55:336|85:376,1,99.9999999999999
46,188,46714,5,0,0:0:0:0:
466,188,47682,5,0,0:0:0:0:
