osu file format v14

[General]
AudioFilename: audio.mp3
AudioLeadIn: 0
PreviewTime: 19303
Countdown: 1
SampleSet: Soft
StackLeniency: 0.4
Mode: 0
LetterboxInBreaks: 0
WidescreenStoryboard: 0

[Editor]
DistanceSpacing: 1.2
BeatDivisor: 4
GridSize: 4
TimelineZoom: 1

[Metadata]
Title:the brand sparkling new anime groove 2.0
TitleUnicode:the brand sparkling new anime groove 2.0
Artist:android52
ArtistUnicode:android52
Creator:pishifat
Version:Insane
Source:ニセコイ
Tags:大切の作り方 remix nisekoi opening ending baq5 presents welcome new galaxy
BeatmapID:1314913
BeatmapSetID:623882

[Difficulty]
HPDrainRate:6
CircleSize:5
OverallDifficulty:7
ApproachRate:7
SliderMultiplier:2
SliderTickRate:1

[Events]
//Background and Video events
0,0,"BpmnoXh.png",0,0
//Break Periods
//Storyboard Layer 0 (Background)
//Storyboard Layer 1 (Fail)
//Storyboard Layer 2 (Pass)
//Storyboard Layer 3 (Foreground)
//Storyboard Sound Samples

[TimingPoints]
70,483.870967741935,4,2,0,5,1,0
2005,-100,4,2,0,33,0,0
2247,-200,4,2,0,50,0,0
2973,-200,4,2,0,60,0,0
3941,-125,4,2,0,90,0,0
18578,-125,4,2,0,70,0,0
18940,-125,4,2,0,90,0,0
19424,-166.666666666667,4,2,0,60,0,0
23295,-166.666666666667,4,2,0,40,0,0
23416,-166.666666666667,4,2,0,60,0,0
27166,-133.333333333333,4,2,0,70,0,0
38779,-166.666666666667,4,2,0,40,0,0
39142,-166.666666666667,4,2,0,70,0,0
39263,-133.333333333333,4,2,0,70,0,0
50029,-133.333333333333,4,2,0,55,0,0
50392,-133.333333333333,4,2,0,70,0,0
55231,-117.647058823529,4,2,0,70,0,0
56199,-153.846153846153,4,2,0,80,0,0
57287,-153.846153846153,4,2,0,60,0,0
57650,-153.846153846153,4,2,0,80,0,0
57771,-153.846153846153,4,2,0,60,0,0
58134,-100,4,2,0,100,0,1
71682,-80,4,2,0,100,0,1
73497,-80,4,2,0,100,0,0
73618,-153.846153846153,4,2,0,50,0,1
73739,-153.846153846153,4,2,0,100,0,1
74102,-100,4,2,0,100,0,1
87166,-133.333333333333,4,2,0,50,0,1
87287,-133.333333333333,4,2,0,100,0,1
88255,-133.333333333333,4,2,0,60,0,1
88618,-133.333333333333,4,2,0,100,0,1
88739,-133.333333333333,4,2,0,60,0,1
89102,-100,4,2,0,100,0,0
89586,-100,4,2,0,70,0,0
90553,-100,4,2,0,60,0,0
91037,-100,4,2,0,50,0,0
91279,-100,4,2,0,43,0,0
91521,-100,4,2,0,35,0,0
91763,-100,4,2,0,27,0,0
92005,-100,4,2,0,20,0,0
92247,-100,4,2,0,15,0,0
92489,-100,4,2,0,12,0,0
92973,-500,4,2,0,10,0,0
103618,-500,4,2,2,5,0,0
106521,-500,4,2,2,5,0,0

[Colours]
Combo1 : 197,145,255
Combo2 : 162,255,36
Combo3 : 243,140,255
Combo4 : 122,252,190

[HitObjects]
256,192,191,12,2,2005,0:0:0:0:
4,320,2247,6,0,P|53:318|103:310,1,100,4|4,0:3|0:3,0:0:0:0:
185,347,2973,1,0,1:0:0:0:
228,274,3215,1,4,0:3:0:0:
308,304,3457,1,0,1:0:0:0:
353,236,3699,1,4,0:3:0:0:
353,236,3819,1,4,0:3:0:0:
353,236,3941,6,0,B|391:214|391:214|516:246,1,160,4|0,0:1|1:0,0:0:0:0:
215,232,4666,1,0,3:3:0:0:
222,196,4787,1,2,0:0:0:0:
254,180,4908,2,0,L|353:159,1,80,4|0,0:3|3:0,0:0:0:0:
129,67,5392,2,0,L|207:83,1,80,0|0,1:0|3:0,0:0:0:0:
281,105,5755,1,2,0:0:0:0:
281,105,5876,5,4,0:3:0:0:
281,105,6118,1,0,3:0:0:0:
189,6,6360,1,0,1:0:0:0:
189,6,6602,1,0,3:0:0:0:
60,52,6844,2,0,L|76:130,1,80,4|0,0:3|3:0,0:0:0:0:
31,348,7328,2,0,L|47:269,1,80,0|0,1:0|3:3,0:0:0:0:
64,204,7690,1,2,0:0:0:0:
64,204,7811,5,6,0:3:0:0:
64,204,8053,1,0,3:0:0:0:
145,327,8295,1,0,1:0:0:0:
180,320,8416,1,2,0:0:0:0:
212,179,8658,1,2,0:0:0:0:
247,186,8779,2,0,L|349:202,1,80,4|0,0:3|3:0,0:0:0:0:
308,372,9263,2,0,L|387:359,1,80,0|0,1:0|3:0,0:0:0:0:
457,353,9626,1,2,0:0:0:0:
457,353,9747,5,4,0:3:0:0:
386,246,9989,1,2,0:0:0:0:
498,184,10231,1,0,1:0:0:0:
425,78,10473,1,2,0:0:0:0:
425,78,10594,1,2,0:0:0:0:
425,78,10715,2,0,L|438:175,1,80,4|0,0:3|3:0,0:0:0:0:
282,13,11199,2,0,L|269:110,1,80,0|0,1:0|3:3,0:0:0:0:
259,161,11561,1,2,0:0:0:0:
259,161,11682,6,0,B|212:144|212:144|81:191,1,160,4|0,0:1|1:0,0:0:0:0:
308,302,12408,1,0,3:0:0:0:
337,280,12529,1,2,0:0:0:0:
349,244,12650,2,0,L|264:232,1,80,4|0,0:3|3:0,0:0:0:0:
476,125,13134,2,0,L|396:136,1,80,0|0,1:0|3:0,0:0:0:0:
332,148,13497,1,2,0:0:0:0:
332,148,13618,5,4,0:3:0:0:
332,148,13860,1,0,3:0:0:0:
237,43,14102,1,0,1:0:0:0:
237,43,14344,1,0,3:0:0:0:
109,110,14586,2,0,L|97:30,1,80,4|0,0:3|3:0,0:0:0:0:
199,267,15070,2,0,L|211:187,1,80,0|0,1:0|3:0,0:0:0:0:
224,121,15432,1,2,0:0:0:0:
224,121,15553,6,0,B|274:135|274:135|388:86,1,160,4|0,0:3|1:0,0:0:0:0:
504,242,16279,1,0,3:3:0:0:
496,206,16400,1,2,0:0:0:0:
468,182,16521,2,0,L|376:159,1,80,4|0,0:3|3:0,0:0:0:0:
224,121,17005,1,0,1:0:0:0:
286,218,17247,1,0,3:0:0:0:
45,255,17489,5,0,1:0:0:0:
109,239,17731,1,2,0:0:0:0:
309,327,17973,5,0,1:0:0:0:
263,279,18215,1,2,0:0:0:0:
243,57,18457,5,0,1:0:0:0:
238,74,18578,1,8,0:3:0:0:
233,89,18699,1,4,0:3:0:0:
229,105,18820,1,4,0:3:0:0:
224,121,18940,1,0,1:0:0:0:
202,202,19182,1,2,0:0:0:0:
444,169,19424,5,4,0:3:0:0:
444,169,19908,1,0,1:0:0:0:
388,204,20150,1,0,0:0:0:0:
362,264,20392,2,0,P|364:296|379:329,1,59.9999981689454,4|0,0:3|0:0,0:0:0:0:
276,201,20876,2,0,P|302:183|323:153,1,59.9999981689454,0|0,1:0|0:0,0:0:0:0:
207,283,21360,6,0,P|237:288|264:302,1,59.9999981689454,4|0,0:3|0:0,0:0:0:0:
133,165,21844,2,0,P|135:197|150:230,1,59.9999981689454,0|0,1:0|0:0,0:0:0:0:
79,345,22328,2,0,P|105:327|126:297,1,59.9999981689454,4|0,0:3|0:0,0:0:0:0:
10,156,22811,1,2,1:2:0:0:
22,220,23053,1,0,0:0:0:0:
80,249,23295,5,2,0:3:0:0:
80,249,23779,1,0,1:0:0:0:
131,77,24263,1,4,0:3:0:0:
197,77,24505,1,0,0:0:0:0:
256,105,24747,1,0,1:0:0:0:
316,130,24989,1,0,0:0:0:0:
381,125,25231,6,0,L|392:48,1,59.9999981689454,4|0,0:3|0:0,0:0:0:0:
470,221,25715,2,0,L|461:161,1,59.9999981689454,0|0,1:0|0:0,0:0:0:0:
359,255,26199,2,0,L|370:178,1,59.9999981689454,4|0,0:3|0:0,0:0:0:0:
488,351,26683,2,0,L|479:291,1,59.9999981689454,0|0,1:0|0:0,0:0:0:0:
295,215,27166,6,0,P|240:226|225:241,1,75.0000028610231,4|0,0:0|3:0,0:0:0:0:
227,237,27529,1,0,0:0:0:0:
227,237,27650,1,0,1:0:0:0:
208,307,27892,1,0,3:0:0:0:
122,366,28134,2,0,P|67:355|50:338,1,75.0000028610231,4|0,0:3|3:0,0:0:0:0:
101,231,28618,1,0,1:0:0:0:
111,296,28860,1,0,3:0:0:0:
47,147,29102,5,4,0:3:0:0:
113,133,29344,1,0,3:0:0:0:
208,216,29586,1,0,1:0:0:0:
274,230,29828,1,0,3:0:0:0:
385,170,30070,2,0,P|440:181|457:198,1,75.0000028610231,4|2,0:3|3:2,0:0:0:0:
466,211,30432,1,2,0:0:0:0:
471,233,30553,1,2,1:2:0:0:
401,239,30795,1,0,3:0:0:0:
297,119,31037,6,0,P|334:76|357:70,1,75.0000028610231,4|0,0:0|3:0,0:0:0:0:
350,71,31400,1,0,0:0:0:0:
350,71,31521,1,0,1:0:0:0:
421,95,31763,1,0,3:0:0:0:
227,133,32005,2,0,P|209:79|215:56,1,75.0000028610231,4|0,0:3|3:0,0:0:0:0:
271,184,32489,1,0,1:0:0:0:
251,247,32731,1,0,3:0:0:0:
54,215,32973,6,0,P|93:192|143:202,1,75.0000028610231,4|0,0:0|3:0,0:0:0:0:
121,192,33336,1,0,0:0:0:0:
121,192,33457,1,0,1:0:0:0:
68,127,33699,1,0,3:0:0:0:
125,310,33940,1,4,0:3:0:0:
59,289,34182,1,0,3:0:0:0:
208,206,34424,1,0,1:0:0:0:
214,304,34666,1,0,1:0:0:0:
217,331,34787,1,0,1:0:0:0:
219,358,34908,6,0,P|283:347|303:326,1,75.0000028610231,4|0,1:2|3:0,0:0:0:0:
289,342,35271,1,0,0:0:0:0:
289,342,35392,1,0,1:0:0:0:
329,286,35634,1,0,3:0:0:0:
469,290,35876,2,0,P|405:279|385:258,1,75.0000028610231,4|0,0:3|3:0,0:0:0:0:
449,152,36360,2,0,P|407:201|379:208,1,75.0000028610231,0|0,1:0|3:3,0:0:0:0:
321,95,36844,6,0,P|343:155|335:183,1,75.0000028610231,4|0,0:3|3:0,0:0:0:0:
342,163,37207,1,0,0:0:0:0:
342,163,37328,1,0,1:0:0:0:
298,221,37570,1,0,3:0:0:0:
176,156,37811,2,0,P|138:157|107:177,1,75.0000028610231,4|0,0:3|3:0,0:0:0:0:
189,368,38295,1,2,1:2:0:0:
231,314,38537,1,0,3:0:0:0:
216,248,38779,6,0,P|184:228|153:225,1,59.9999981689454,2|0,0:3|3:0,0:0:0:0:
170,232,39142,1,0,0:0:0:0:
170,232,39263,2,0,P|117:255|79:245,1,75.0000028610231,0|0,1:0|3:0,0:0:0:0:
63,133,39747,1,4,0:3:0:0:
122,102,39989,1,0,3:0:0:0:
188,111,40231,1,0,1:0:0:0:
237,156,40473,1,0,3:0:0:0:
249,220,40715,6,0,L|349:234,1,75.0000028610231,4|0,0:3|3:0,0:0:0:0:
468,252,41199,2,0,L|393:241,1,75.0000028610231,0|0,1:0|3:0,0:0:0:0:
238,314,41682,6,0,L|312:303,1,75.0000028610231,4|0,0:3|3:0,0:0:0:0:
479,158,42166,2,0,L|404:168,1,75.0000028610231,0|0,1:0|3:3,0:0:0:0:
182,146,42650,6,0,P|162:88|183:46,1,75.0000028610231,4|0,0:0|3:0,0:0:0:0:
164,76,43013,1,0,0:0:0:0:
164,76,43134,1,0,1:0:0:0:
222,35,43376,1,0,3:0:0:0:
144,207,43618,2,0,P|83:195|57:156,1,75.0000028610231,4|0,0:3|3:0,0:0:0:0:
249,137,44102,1,0,1:0:0:0:
276,199,44344,1,0,3:0:0:0:
171,295,44586,6,0,P|211:248|258:245,1,75.0000028610231,4|0,0:3|3:0,0:0:0:0:
228,251,44949,1,0,0:0:0:0:
228,251,45070,2,0,P|292:268|319:254,1,75.0000028610231,0|0,1:0|3:0,0:0:0:0:
431,147,45553,2,0,P|376:158|359:175,1,75.0000028610231,4|2,0:3|3:2,0:0:0:0:
350,188,45915,1,2,0:0:0:0:
345,210,46036,1,2,1:2:0:0:
415,216,46278,1,0,3:3:0:0:
471,89,46521,6,0,P|433:46|410:40,1,75.0000028610231,4|0,0:0|3:0,0:0:0:0:
424,47,46884,1,0,0:0:0:0:
424,47,47005,2,0,P|361:69|331:57,1,75.0000028610231,0|0,1:0|3:0,0:0:0:0:
234,39,47489,2,0,P|284:82|289:114,1,75.0000028610231,4|0,0:3|3:0,0:0:0:0:
130,179,47973,1,0,1:0:0:0:
121,112,48215,1,0,3:0:0:0:
273,195,48457,5,4,0:0:0:0:
212,224,48699,1,0,3:0:0:0:
219,107,48940,2,0,P|275:118|304:156,1,75.0000028610231,0|0,1:0|3:0,0:0:0:0:
358,262,49424,1,4,0:3:0:0:
447,155,49666,1,0,3:0:0:0:
447,155,49787,1,0,3:0:0:0:
447,155,49908,5,0,1:0:0:0:
426,173,50028,1,8,0:3:0:0:
400,184,50149,1,4,0:3:0:0:
372,186,50270,1,4,0:3:0:0:
345,177,50391,5,4,0:0:0:0:
383,118,50634,1,0,3:0:0:0:
383,118,50755,1,0,0:0:0:0:
383,118,50876,1,0,1:0:0:0:
349,55,51118,1,0,3:0:0:0:
240,116,51360,2,0,P|204:109|169:79,1,75.0000028610231,4|0,0:3|3:0,0:0:0:0:
349,55,51844,1,0,1:0:0:0:
310,113,52086,1,0,3:0:0:0:
302,276,52328,5,4,0:3:0:0:
368,248,52570,1,0,3:0:0:0:
368,248,52690,1,0,0:0:0:0:
368,248,52811,1,0,1:0:0:0:
416,296,53053,1,0,3:0:0:0:
347,383,53295,2,0,P|237:344|203:356,1,150.000005722046,4|0,0:3|1:0,0:0:0:0:
37,228,54021,1,0,3:0:0:0:
53,258,54142,1,2,0:0:0:0:
83,277,54263,6,0,L|168:269,1,75.0000028610231,4|0,0:3|2:0,0:0:0:0:
157,269,54626,1,2,0:0:0:0:
157,269,54747,1,0,1:0:0:0:
216,126,54989,1,0,3:0:0:0:
105,201,55231,6,0,L|190:193,1,85.0000016212464,4|2,0:3|0:0,0:0:0:0:
189,194,55594,1,2,0:0:0:0:
189,194,55715,1,0,1:0:0:0:
239,58,55957,1,0,3:3:0:0:
377,134,56199,6,0,P|344:113|300:110,1,64.9999970245363,0|0,1:0|0:0,0:0:0:0:
318,108,56561,1,2,0:0:0:0:
318,108,56682,1,0,1:0:0:0:
326,182,56924,1,4,0:3:0:0:
303,7,57166,5,0,1:0:0:0:
270,2,57286,1,8,0:3:0:0:
238,5,57407,1,4,0:3:0:0:
209,19,57528,1,4,0:3:0:0:
182,37,57649,1,0,1:0:0:0:
151,45,57770,1,8,0:3:0:0:
118,42,57891,1,4,0:3:0:0:
87,34,58012,1,4,0:3:0:0:
59,18,58134,6,0,B|81:51|81:51|49:143,1,100,4|0,0:1|3:0,0:0:0:0:
37,175,58497,1,2,0:0:0:0:
37,175,58618,2,0,L|162:192,1,100,0|0,1:0|3:0,0:0:0:0:
209,207,58981,1,2,0:0:0:0:
209,207,59102,5,4,0:3:0:0:
209,207,59344,2,0,P|237:220|262:222,1,50,0|2,3:0|0:0,0:0:0:0:
170,86,59586,1,0,1:0:0:0:
170,86,59828,2,0,P|172:116|183:139,1,50,0|2,3:0|0:0,0:0:0:0:
314,259,60070,6,0,B|351:248|351:248|391:167,1,100,4|0,0:3|3:0,0:0:0:0:
412,137,60432,1,2,0:0:0:0:
412,137,60553,1,0,1:0:0:0:
412,137,60795,2,0,P|437:128|462:130,1,50,0|2,3:0|0:0,0:0:0:0:
510,333,61037,6,4,B|471:323|471:323|454:252,1,100,4|0,0:3|3:0,0:3:0:0:
494,207,61400,1,2,0:0:0:0:
494,207,61521,1,0,1:0:0:0:
494,207,61763,2,0,P|448:195|417:210,1,50,0|2,3:0|0:0,0:0:0:0:
314,259,62005,6,0,B|279:275|279:275|196:239,1,100,4|0,0:3|3:0,0:0:0:0:
160,222,62368,1,2,0:0:0:0:
160,222,62489,2,0,L|177:97,1,100,0|0,1:0|3:0,0:0:0:0:
151,58,62852,1,2,0:0:0:0:
151,58,62973,5,4,0:3:0:0:
151,58,63215,2,0,P|127:69|111:89,1,50,0|2,3:0|0:0,0:0:0:0:
244,112,63457,1,0,1:0:0:0:
244,112,63699,2,0,P|233:84|208:60,1,50,0|2,3:0|0:0,0:0:0:0:
28,139,63940,6,0,B|58:168|58:168|131:153,1,100,4|0,0:3|3:0,0:0:0:0:
177,126,64303,1,2,0:0:0:0:
177,126,64424,2,0,L|191:244,1,100,0|0,1:0|3:0,0:0:0:0:
251,273,64787,1,2,0:0:0:0:
251,273,64908,5,4,0:3:0:0:
251,273,65150,2,0,P|304:251|327:260,1,50,0|2,1:0|0:0,0:0:0:0:
281,370,65392,2,0,P|236:334|231:309,1,50,0|0,1:0|0:0,0:0:0:0:
349,295,65634,2,0,P|340:351|321:367,1,50,0|2,1:0|0:0,0:0:0:0:
173,359,65876,6,0,B|133:345|133:345|119:252,1,100,4|0,0:1|3:0,0:0:0:0:
123,219,66239,1,2,0:0:0:0:
123,219,66360,2,0,B|161:205|161:205|175:138,1,100,0|0,1:0|3:0,0:0:0:0:
180,78,66723,1,2,0:0:0:0:
180,78,66844,5,4,3:0:0:0:
180,78,67086,2,0,P|207:86|239:122,1,50,0|2,3:0|0:0,0:0:0:0:
274,206,67328,1,0,1:0:0:0:
274,206,67570,2,0,P|294:191|318:184,1,50,0|2,3:0|0:0,0:0:0:0:
492,220,67811,6,0,B|460:245|460:245|383:213,1,100,4|0,0:3|3:0,0:0:0:0:
383,154,68174,1,2,0:0:0:0:
383,154,68295,1,0,1:0:0:0:
383,154,68537,2,0,P|399:105|397:90,1,50,0|2,3:3|0:0,0:0:0:0:
251,27,68779,6,0,B|213:42|213:42|202:124,1,100,4|0,0:3|3:0,0:0:0:0:
258,159,69142,1,2,0:0:0:0:
258,159,69263,1,0,1:0:0:0:
258,159,69505,1,8,3:0:0:0:
252,193,69626,1,4,3:0:0:0:
246,227,69747,6,0,B|214:258|214:258|137:243,1,100,0|0,1:0|3:0,0:0:0:0:
95,238,70110,1,2,0:0:0:0:
95,238,70231,2,0,L|110:350,1,100,0|0,1:0|3:0,0:0:0:0:
163,384,70594,1,2,0:0:0:0:
163,384,70715,6,0,B|195:353|195:353|272:368,1,100,4|0,0:3|3:0,0:0:0:0:
322,382,71078,1,2,0:0:0:0:
322,382,71199,1,0,1:0:0:0:
322,382,71440,1,8,3:0:0:0:
333,343,71561,1,4,0:3:0:0:
344,305,71682,6,0,P|334:224|298:174,1,125,0|2,1:0|3:0,0:0:0:0:
315,105,72045,1,2,0:0:0:0:
315,105,72166,1,0,1:0:0:0:
315,105,72408,2,0,P|284:106|257:122,1,62.5,0|2,3:0|0:2,0:0:0:0:
176,264,72650,6,0,P|232:261|234:204,1,125,4|0,0:3|3:0,0:0:0:0:
114,131,73013,1,2,0:0:0:0:
114,131,73134,2,0,P|149:178|177:168,1,62.5,0|0,1:0|0:0,0:0:0:0:
198,43,73376,2,0,P|174:96|197:116,1,62.5,0|2,0:3|0:0,0:0:0:0:
173,92,73618,6,0,L|278:84,1,97.4999955368044,2|2,0:3|0:0,0:0:0:0:
328,50,74102,2,0,B|359:78|359:78|339:162,1,100,0|0,1:0|3:0,0:0:0:0:
329,205,74465,1,2,0:0:0:0:
329,205,74586,5,4,0:3:0:0:
329,205,74828,2,0,P|288:209|257:238,1,50,0|2,3:0|0:0,0:0:0:0:
400,303,75070,1,0,1:0:0:0:
400,303,75311,2,0,P|376:269|335:257,1,50,0|2,3:0|0:0,0:0:0:0:
215,190,75553,6,0,B|184:218|184:218|204:302,1,100,4|0,0:3|3:0,0:0:0:0:
222,350,75916,1,2,0:0:0:0:
222,350,76037,1,0,1:0:0:0:
222,350,76279,2,0,P|166:371|148:367,1,50,0|2,3:0|0:0,0:0:0:0:
61,220,76521,6,0,B|98:232|98:232|115:294,1,100,4|0,0:3|3:0,0:0:0:0:
73,348,76884,1,2,0:0:0:0:
73,348,77005,1,0,1:0:0:0:
73,348,77247,2,0,P|43:302|41:285,1,50,0|2,3:3|0:0,0:0:0:0:
60,152,77489,6,0,B|85:121|85:121|174:138,1,100,4|0,0:3|3:0,0:0:0:0:
202,176,77852,1,2,0:0:0:0:
202,176,77973,2,0,L|325:162,1,100,0|0,1:0|3:0,0:0:0:0:
354,119,78336,1,2,0:0:0:0:
354,119,78457,5,4,0:3:0:0:
354,119,78699,2,0,P|372:101|412:93,1,50,0|2,3:0|0:0,0:0:0:0:
450,190,78940,1,0,1:0:0:0:
450,190,79182,2,0,P|431:172|391:164,1,50,0|2,3:0|0:0,0:0:0:0:
349,311,79424,6,0,B|386:292|386:292|400:212,1,100,4|0,0:3|3:0,0:0:0:0:
342,190,79787,1,2,0:0:0:0:
342,190,79908,2,0,L|228:202,1,100,0|0,1:0|3:3,0:0:0:0:
178,215,80271,1,2,0:0:0:0:
178,215,80392,5,4,0:3:0:0:
178,215,80634,2,0,P|186:238|186:263,1,50,0|2,1:0|0:0,0:0:0:0:
160,113,80876,2,0,P|181:125|197:144,1,50,0|0,1:0|0:0,0:0:0:0:
90,42,81118,2,0,P|114:37|138:42,1,50,0|2,1:0|0:0,0:0:0:0:
278,118,81360,6,0,B|321:127|321:127|397:72,1,100,4|0,0:1|3:0,0:0:0:0:
418,48,81723,1,2,0:0:0:0:
418,48,81844,2,0,P|475:67|490:91,1,50,0|0,1:0|0:0,0:0:0:0:
510,113,82086,2,0,P|509:137|498:160,1,50,0|2,3:0|0:0,0:0:0:0:
426,182,82328,6,0,B|397:212|397:212|424:309,1,100,4|0,0:3|3:0,0:0:0:0:
442,339,82690,1,2,0:0:0:0:
442,339,82811,1,0,1:0:0:0:
442,339,83053,2,0,P|382:356|355:349,1,50,0|2,3:0|0:0,0:0:0:0:
290,280,83295,6,0,B|247:270|247:270|180:313,1,100,4|0,0:3|3:0,0:0:0:0:
143,340,83658,1,2,0:0:0:0:
143,340,83779,2,0,P|82:314|68:289,1,50,0|0,1:0|0:0,0:0:0:0:
59,266,84021,2,0,P|85:205|110:191,1,50,0|2,3:0|0:0,0:0:0:0:
138,186,84263,6,0,B|181:196|181:196|248:153,1,100,4|0,0:3|3:0,0:0:0:0:
284,125,84626,1,2,0:0:0:0:
284,125,84747,2,0,L|273:-2,1,100,0|0,1:0|3:0,0:0:0:0:
212,2,85110,1,2,0:0:0:0:
212,2,85231,5,4,0:3:0:0:
212,2,85473,2,0,P|172:52|168:78,1,50,0|2,3:0|0:0,0:0:0:0:
94,73,85715,1,0,1:0:0:0:
94,73,85957,2,0,P|84:136|93:160,1,50,0|2,3:0|0:0,0:0:0:0:
21,183,86199,6,0,B|50:212|50:212|137:200,1,100,4|0,0:3|3:0,0:0:0:0:
181,183,86561,1,2,0:0:0:0:
181,183,86682,1,0,1:0:0:0:
181,183,86924,2,0,P|232:207|244:227,1,50,0|2,3:3|0:0,0:0:0:0:
226,201,87166,6,0,L|215:319,1,112.500004291535,2|2,0:3|0:0,0:0:0:0:
267,362,87650,2,0,P|296:360|344:388,1,75.0000028610231,0|0,1:0|3:0,0:0:0:0:
373,186,88134,1,0,1:0:0:0:
350,205,88254,1,8,0:3:0:0:
343,233,88375,1,4,0:3:0:0:
355,260,88496,1,4,0:3:0:0:
380,275,88617,1,0,1:0:0:0:
410,272,88738,1,8,0:3:0:0:
431,251,88859,1,4,0:3:0:0:
436,222,88980,1,4,0:3:0:0:
391,230,89102,5,4,0:1:0:0:
294,66,89586,1,0,1:0:0:0:
355,99,89828,1,4,0:3:0:0:
298,137,90070,1,4,0:3:0:0:
109,185,90553,1,0,1:0:0:0:
42,204,90795,1,4,0:3:0:0:
22,300,91037,5,4,0:3:0:0:
87,333,91279,1,4,0:3:0:0:
35,326,91521,5,0,1:0:0:0:
64,351,91763,1,4,0:3:0:0:
34,349,92005,5,4,0:3:0:0:
46,365,92247,1,4,0:3:0:0:
27,370,92489,5,0,1:0:0:0:
27,370,92973,6,0,L|107:362,1,80,2|2,0:0|0:0,0:0:0:0:
175,356,94424,1,0,0:0:0:0:
175,356,94908,2,0,L|201:359,3,20,2|0|0|0,0:0|0:0|0:0|0:0,0:0:0:0:
210,363,95876,2,0,L|256:358,1,40,2|0,0:0|0:0,0:0:0:0:
315,347,96844,6,0,L|354:351,1,40,2|0,0:0|0:0,0:0:0:0:
421,357,97811,2,0,L|460:352,1,40,2|0,0:0|0:0,0:0:0:0:
476,350,98537,1,2,0:0:0:0:
442,265,99021,6,0,L|438:242,2,20,2|0|0,0:0|0:0|0:0,0:0:0:0:
426,275,99747,2,0,L|419:241,2,30,2|0|0,0:0|0:0|0:0,0:0:0:0:
412,287,100715,5,2,0:0:0:0:
381,342,101199,1,2,0:0:0:0:
463,336,101924,5,2,0:0:0:0:
448,345,102166,1,2,0:0:0:0:
512,384,102650,5,2,0:0:0:0:
256,192,103618,12,0,106521,0:0:0:0:
