osu file format v14

[General]
AudioFilename: audio.mp3
AudioLeadIn: 0
PreviewTime: 19303
Countdown: 1
SampleSet: Soft
StackLeniency: 0.9
Mode: 0
LetterboxInBreaks: 0
WidescreenStoryboard: 1

[Editor]
Bookmarks: 84747
DistanceSpacing: 1.2
BeatDivisor: 4
GridSize: 4
TimelineZoom: 1

[Metadata]
Title:the brand sparkling new anime groove 2.0
TitleUnicode:the brand sparkling new anime groove 2.0
Artist:android52
ArtistUnicode:android52
Creator:pishifat
Version:Hard
Source:ニセコイ
Tags:大切の作り方 remix nisekoi opening ending baq5 presents welcome new galaxy
BeatmapID:1341761
BeatmapSetID:623882

[Difficulty]
HPDrainRate:5
CircleSize:4.5
OverallDifficulty:5
ApproachRate:6
SliderMultiplier:0.999999999999999
SliderTickRate:1

[Events]
//Background and Video events
0,0,"BpmnoXh.png",0,0
//Break Periods
//Storyboard Layer 0 (Background)
//Storyboard Layer 1 (Fail)
//Storyboard Layer 2 (Pass)
//Storyboard Layer 3 (Foreground)
//Storyboard Sound Samples

[TimingPoints]
70,483.870967741935,4,2,0,5,1,0
2005,-100,4,2,0,33,0,0
2247,-83.3333333333333,4,2,0,50,0,0
2973,-100,4,2,0,60,0,0
3940,-66.6666666666667,4,2,0,90,0,0
18578,-100,4,2,0,70,0,0
18940,-100,4,2,0,90,0,0
19424,-83.3333333333333,4,2,0,60,0,0
23295,-100,4,2,0,40,0,0
23416,-83.3333333333333,4,2,0,60,0,0
27166,-74.0740740740741,4,2,0,70,0,0
38779,-83.3333333333333,4,2,0,40,0,0
39142,-83.3333333333333,4,2,0,70,0,0
39263,-74.0740740740741,4,2,0,70,0,0
50029,-74.0740740740741,4,2,0,55,0,0
50392,-74.0740740740741,4,2,0,70,0,0
55231,-74.0740740740741,4,2,0,70,0,0
56199,-83.3333333333333,4,2,0,80,0,0
57287,-83.3333333333333,4,2,0,60,0,0
57650,-83.3333333333333,4,2,0,80,0,0
57771,-83.3333333333333,4,2,0,60,0,0
58134,-66.6666666666667,4,2,0,100,0,1
71682,-66.6666666666667,4,2,0,100,0,1
73497,-66.6666666666667,4,2,0,100,0,0
73618,-66.6666666666667,4,2,0,50,0,1
73739,-66.6666666666667,4,2,0,100,0,1
74102,-66.6666666666667,4,2,0,100,0,1
87166,-66.6666666666667,4,2,0,50,0,1
87287,-66.6666666666667,4,2,0,100,0,1
88255,-66.6666666666667,4,2,0,60,0,1
88618,-66.6666666666667,4,2,0,100,0,1
88739,-66.6666666666667,4,2,0,60,0,1
89102,-100,4,2,0,100,0,0
89586,-76.9230769230769,4,2,0,70,0,0
90553,-83.3333333333333,4,2,0,60,0,0
91037,-90.9090909090909,4,2,0,50,0,0
91279,-100,4,2,0,43,0,0
91521,-100,4,2,0,35,0,0
91763,-100,4,2,0,27,0,0
92005,-111.111111111111,4,2,0,20,0,0
92247,-100,4,2,0,15,0,0
92489,-100,4,2,0,12,0,0
92973,-133.333333333333,4,2,0,10,0,0
103618,-100,4,2,2,5,0,0
106521,-100,4,2,2,5,0,0

[Colours]
Combo1 : 197,145,255
Combo2 : 162,255,36
Combo3 : 243,140,255
Combo4 : 122,252,190

[HitObjects]
123,88,2247,6,0,P|179:89|242:57,1,119.999996337891,4|4,0:3|0:3,0:0:0:0:
299,23,2973,1,0,1:0:0:0:
344,82,3215,1,4,0:3:0:0:
409,45,3457,1,0,1:0:0:0:
457,117,3699,1,4,0:3:0:0:
457,117,3819,1,4,0:3:0:0:
457,117,3940,6,0,L|469:275,1,150.000005722046,4|0,0:1|1:0,0:0:0:0:
396,321,4666,1,0,3:3:0:0:
396,321,4787,1,2,0:0:0:0:
396,321,4908,2,0,P|326:291|302:294,1,75.000002861023,4|0,0:3|3:0,0:0:0:0:
262,230,5392,2,0,P|201:275|191:297,1,75.000002861023,0|0,1:0|3:0,0:0:0:0:
142,340,5876,6,0,L|51:348,2,75.000002861023,4|0|0,0:3|3:0|1:0,0:0:0:0:
202,272,6602,1,0,3:0:0:0:
113,253,6844,2,0,P|90:213|90:161,1,75.000002861023,4|0,0:3|3:0,0:0:0:0:
31,113,7328,2,0,P|54:73|99:47,1,75.000002861023,0|0,1:0|3:3,0:0:0:0:
157,16,7811,5,6,0:3:0:0:
297,131,8295,1,0,1:0:0:0:
297,131,8416,2,0,L|202:121,1,75.000002861023,2|2,0:0|0:0,0:0:0:0:
222,123,8779,2,0,P|178:98|136:102,1,75.000002861023,4|0,0:3|3:0,0:0:0:0:
76,55,9263,2,0,P|33:80|15:118,1,75.000002861023,0|0,1:0|3:0,0:0:0:0:
7,190,9747,5,4,0:3:0:0:
7,190,9989,1,2,0:0:0:0:
79,243,10231,1,0,1:0:0:0:
79,243,10473,1,2,0:0:0:0:
161,204,10715,2,0,P|207:216|239:250,1,75.000002861023,4|0,0:3|3:0,0:0:0:0:
317,230,11199,2,0,P|329:265|325:302,1,75.000002861023,0|0,1:0|3:3,0:0:0:0:
376,376,11682,6,0,L|539:356,1,150.000005722046,4|0,0:1|1:0,0:0:0:0:
505,269,12408,1,0,3:0:0:0:
505,269,12529,1,2,0:0:0:0:
505,269,12650,2,0,P|463:265|423:237,1,75.000002861023,4|0,0:3|3:0,0:0:0:0:
345,237,13134,2,0,P|327:198|331:149,1,75.000002861023,0|0,1:0|3:0,0:0:0:0:
359,81,13618,6,0,L|449:73,2,75.000002861023,4|0|0,0:3|3:0|1:0,0:0:0:0:
286,27,14344,1,0,3:0:0:0:
201,58,14586,2,0,P|181:112|200:159,1,75.000002861023,4|0,0:3|3:0,0:0:0:0:
130,200,15069,2,0,P|166:244|216:251,1,75.000002861023,0|0,1:0|3:0,0:0:0:0:
229,331,15553,6,0,L|65:342,1,150.000005722046,4|0,0:3|1:0,0:0:0:0:
26,267,16279,1,0,3:3:0:0:
26,267,16400,1,2,0:0:0:0:
26,267,16521,2,0,P|41:233|38:171,1,75.000002861023,4|0,0:3|3:0,0:0:0:0:
16,109,17005,1,0,1:0:0:0:
104,126,17247,1,0,3:0:0:0:
161,56,17489,6,0,L|252:48,1,75.000002861023,0|2,1:0|0:0,0:0:0:0:
267,134,17973,2,0,L|192:140,1,75.000002861023,0|2,1:0|0:0,0:0:0:0:
219,226,18457,2,0,L|293:219,1,75.000002861023,0|4,1:0|0:3,0:0:0:0:
293,219,18819,1,4,0:3:0:0:
293,219,18940,1,0,1:0:0:0:
269,305,19182,1,2,0:0:0:0:
356,298,19424,5,4,0:3:0:0:
356,298,19908,2,0,P|393:306|425:329,1,59.9999981689453,0|0,1:0|0:0,0:0:0:0:
482,350,20392,2,0,L|486:281,1,59.9999981689453,4|0,0:3|0:0,0:0:0:0:
424,240,20876,2,0,L|420:171,1,59.9999981689453,0|0,1:0|0:0,0:0:0:0:
416,101,21360,6,0,P|472:70|534:77,2,119.999996337891,4|0|4,0:3|1:0|0:3,0:0:0:0:
341,78,22569,1,0,0:0:0:0:
285,132,22811,2,0,P|245:118|221:95,2,59.9999981689453,2|0|2,1:2|0:0|0:3,0:0:0:0:
285,132,23779,6,0,P|297:166|292:202,1,59.9999981689453,0|0,1:0|0:0,0:0:0:0:
262,260,24263,1,4,0:3:0:0:
262,260,24505,1,0,0:0:0:0:
186,236,24747,1,0,1:0:0:0:
186,236,24989,1,0,0:0:0:0:
113,265,25231,6,0,P|52:259|6:200,1,119.999996337891,4|0,0:3|1:0,0:0:0:0:
76,76,26199,2,0,P|137:82|183:141,1,119.999996337891,4|0,0:3|1:0,0:0:0:0:
176,122,26924,1,0,0:0:0:0:
263,129,27166,6,0,L|269:45,1,67.500000257492,4|0,0:0|3:0,0:0:0:0:
337,19,27650,2,0,P|372:28|408:62,1,67.500000257492,0|0,1:0|3:0,0:0:0:0:
475,65,28134,2,0,P|406:75|371:130,1,135.000000514984,4|0,0:3|1:0,0:0:0:0:
420,191,28860,1,0,3:0:0:0:
401,269,29102,5,4,0:3:0:0:
320,278,29344,1,0,3:0:0:0:
239,287,29586,2,0,L|157:295,1,67.500000257492,0|0,1:0|3:0,0:0:0:0:
137,367,30069,2,0,P|145:305|94:257,1,135.000000514984,4|2,0:3|1:2,0:0:0:0:
17,239,30795,1,0,3:0:0:0:
70,178,31037,6,0,L|81:41,1,135.000000514984,4|0,0:0|1:0,0:0:0:0:
155,10,31763,1,0,3:0:0:0:
199,77,32005,2,0,L|336:86,1,135.000000514984,4|0,0:3|1:0,0:0:0:0:
408,53,32731,1,0,3:0:0:0:
446,124,32973,6,0,P|445:186|371:235,1,135.000000514984,4|0,0:0|1:0,0:0:0:0:
312,220,33699,1,0,3:0:0:0:
231,210,33940,2,0,P|185:222|155:248,1,67.500000257492,4|0,0:3|3:0,0:0:0:0:
129,304,34424,1,0,1:0:0:0:
61,348,34666,1,0,1:0:0:0:
61,348,34787,1,0,1:0:0:0:
61,348,34908,5,4,1:2:0:0:
32,188,35392,1,0,1:0:0:0:
104,151,35634,1,0,3:0:0:0:
173,191,35876,2,0,L|316:166,1,135.000000514984,4|0,0:3|1:0,0:0:0:0:
396,33,36844,6,0,L|253:8,1,135.000000514984,4|0,0:3|1:0,0:0:0:0:
305,167,37811,2,0,L|387:152,1,67.500000257492,4|0,0:3|3:0,0:0:0:0:
451,139,38295,2,0,P|466:97|461:59,2,67.500000257492,2|0|2,1:2|3:0|0:3,0:0:0:0:
451,139,39263,6,0,P|477:171|487:209,1,67.500000257492,0|0,1:0|3:0,0:0:0:0:
500,275,39747,1,4,0:3:0:0:
500,275,39989,1,0,3:0:0:0:
445,334,40231,1,0,1:0:0:0:
445,334,40473,1,0,3:0:0:0:
365,317,40715,6,0,P|301:329|248:382,1,135.000000514984,4|0,0:3|1:0,0:0:0:0:
168,236,41682,2,0,P|232:224|285:171,1,135.000000514984,4|0,0:3|1:0,0:0:0:0:
295,97,42408,1,0,3:3:0:0:
295,97,42650,6,0,L|209:92,1,67.500000257492,4|0,0:0|3:0,0:0:0:0:
156,53,43134,1,0,1:0:0:0:
105,116,43376,1,0,3:0:0:0:
64,185,43618,2,0,P|68:226|89:262,1,67.500000257492,4|0,0:3|3:0,0:0:0:0:
142,300,44102,1,0,1:0:0:0:
205,249,44344,1,0,3:0:0:0:
278,283,44586,5,4,0:3:0:0:
342,234,44828,1,0,3:0:0:0:
415,266,45069,2,0,P|432:298|435:339,1,67.500000257492,0|0,1:0|3:0,0:0:0:0:
495,383,45553,2,0,P|419:363|336:370,1,135.000000514984,4|2,0:3|1:2,0:0:0:0:
283,381,46279,1,0,3:3:0:0:
215,336,46521,6,0,L|205:257,1,67.500000257492,4|0,0:0|3:0,0:0:0:0:
273,222,47005,2,0,L|283:143,1,67.500000257492,0|0,1:0|3:0,0:0:0:0:
235,87,47489,2,0,P|171:65|145:71,1,67.500000257492,4|0,0:3|3:0,0:0:0:0:
96,91,47973,1,0,1:0:0:0:
159,141,48215,1,0,3:0:0:0:
85,174,48457,6,0,L|12:163,1,67.500000257492,4|0,0:0|3:0,0:0:0:0:
67,261,48940,2,0,L|133:250,1,67.500000257492,0|0,1:0|3:0,0:0:0:0:
231,195,49424,2,0,P|251:244|247:277,1,67.500000257492,4|0,0:3|3:0,0:0:0:0:
250,257,49787,1,0,3:0:0:0:
250,257,49908,2,0,L|307:264,3,33.750000128746,0|8|4|4,1:0|0:3|0:3|0:3,0:0:0:0:
319,267,50392,5,4,0:0:0:0:
385,220,50634,1,0,3:0:0:0:
385,220,50755,1,0,0:0:0:0:
385,220,50876,2,0,P|445:235|472:228,1,67.500000257492,0|0,1:0|3:0,0:0:0:0:
502,173,51360,2,0,L|490:38,1,135.000000514984,4|0,0:3|1:0,0:0:0:0:
418,76,52086,1,0,3:0:0:0:
346,37,52328,5,4,0:3:0:0:
283,88,52569,1,0,3:0:0:0:
283,88,52690,1,0,0:0:0:0:
283,88,52811,2,0,P|226:78|200:56,1,67.500000257492,0|0,1:0|3:0,0:0:0:0:
159,18,53295,2,0,P|103:30|37:69,1,135.000000514984,4|0,0:3|1:0,0:0:0:0:
76,140,54021,1,0,3:0:0:0:
21,200,54263,6,0,L|32:280,2,67.500000257492,4|0|0,0:3|2:0|1:0,0:0:0:0:
76,140,54989,1,0,3:0:0:0:
143,184,55231,2,0,L|154:264,2,67.500000257492,4|2|0,0:3|0:0|1:0,0:0:0:0:
200,126,55957,1,0,3:3:0:0:
270,166,56199,6,0,L|283:271,1,89.999997253418,0|2,1:0|0:0,0:0:0:0:
281,255,56682,2,0,P|316:258|350:284,1,59.9999981689453,0|4,1:0|0:3,0:0:0:0:
391,329,57166,2,0,L|397:378,3,29.9999990844727,0|8|4|4,1:0|0:3|0:3|0:3,0:0:0:0:
431,336,57650,2,0,L|437:385,3,29.9999990844727,0|8|4|4,1:0|0:3|0:3|0:3,0:0:0:0:
468,342,58134,6,0,B|494:263|440:275|468:182,1,150.000005722046,4|0,0:1|1:0,0:0:0:0:
504,114,58860,1,0,3:0:0:0:
428,64,59102,2,0,P|373:76|348:102,1,75.000002861023,4|0,0:3|3:0,0:0:0:0:
291,146,59586,2,0,P|236:134|211:108,1,75.000002861023,0|0,1:0|3:0,0:0:0:0:
145,75,60069,6,0,L|139:169,1,75.000002861023,4|0,0:3|3:0,0:0:0:0:
134,240,60553,1,0,1:0:0:0:
59,68,61037,2,0,L|53:162,1,75.000002861023,4|0,0:3|3:0,0:0:0:0:
48,233,61521,1,0,1:0:0:0:
223,123,62005,6,0,B|304:107|290:160|385:136,1,150.000005722046,4|0,0:3|1:0,0:0:0:0:
453,106,62731,1,0,3:0:0:0:
453,106,62852,1,2,0:0:0:0:
453,106,62973,2,0,P|483:168|481:192,1,75.000002861023,4|0,0:3|3:0,0:0:0:0:
406,221,63457,2,0,P|376:283|378:307,1,75.000002861023,0|0,1:0|3:0,0:0:0:0:
399,374,63940,6,0,L|299:361,1,75.000002861023,4|0,0:3|3:0,0:0:0:0:
324,364,64303,1,2,0:0:0:0:
324,364,64424,1,0,1:0:0:0:
406,221,64908,1,4,0:3:0:0:
316,211,65150,1,0,1:0:0:0:
226,201,65392,2,0,P|202:146|206:105,1,75.000002861023,0|0,1:0|1:0,0:0:0:0:
226,44,65876,6,0,B|132:69|165:13|59:40,1,150.000005722046,4|0,0:1|1:0,0:0:0:0:
5,87,66602,1,0,3:0:0:0:
88,120,66844,2,0,P|82:169|42:213,1,75.000002861023,4|0,3:0|3:0,0:0:0:0:
0,241,67328,2,0,P|6:290|46:334,1,75.000002861023,0|0,1:0|3:0,0:0:0:0:
103,314,67811,6,0,L|192:306,1,75.000002861023,4|0,0:3|3:0,0:0:0:0:
265,300,68295,1,0,1:0:0:0:
69,190,68779,2,0,L|158:182,1,75.000002861023,4|0,0:3|3:0,0:0:0:0:
233,175,69263,1,0,1:0:0:0:
312,229,69505,1,8,3:0:0:0:
312,229,69626,1,4,3:0:0:0:
312,229,69747,6,0,P|383:224|410:156,1,150.000005722046,0|0,1:0|1:0,0:0:0:0:
382,71,70473,1,0,3:0:0:0:
470,88,70715,1,4,0:3:0:0:
293,50,71199,1,0,1:0:0:0:
208,41,71440,1,8,3:0:0:0:
208,41,71561,1,4,0:3:0:0:
208,41,71682,6,0,P|147:91|163:177,1,150.000005722046,0|0,1:0|1:0,0:0:0:0:
228,200,72408,1,0,3:0:0:0:
161,255,72650,2,0,B|217:243|217:243|260:301,1,112.500004291534,4|2,0:3|0:0,0:0:0:0:
259,299,73134,2,0,P|319:320|353:307,2,75.000002861023,0|0|2,1:0|0:3|0:3,0:0:0:0:
259,299,74102,6,0,L|268:214,1,75.000002861023,0|0,1:0|3:0,0:0:0:0:
291,142,74586,2,0,P|357:149|381:180,1,75.000002861023,4|0,0:3|3:0,0:0:0:0:
439,195,75069,2,0,P|475:199|509:184,1,75.000002861023,0|0,1:0|3:0,0:0:0:0:
456,109,75553,6,0,L|464:6,1,75.000002861023,4|0,0:3|3:0,0:0:0:0:
377,66,76037,1,0,1:0:0:0:
216,173,76521,2,0,L|210:98,1,75.000002861023,4|0,0:3|3:0,0:0:0:0:
295,130,77005,1,0,1:0:0:0:
99,130,77489,6,0,B|77:210|146:189|106:300,1,150.000005722046,4|0,0:3|1:0,0:0:0:0:
89,361,78215,1,0,3:0:0:0:
89,361,78336,1,2,0:0:0:0:
89,361,78457,2,0,P|142:384|176:376,1,75.000002861023,4|0,0:3|3:0,0:0:0:0:
228,326,78940,2,0,P|265:327|296:347,1,75.000002861023,0|0,1:0|3:0,0:0:0:0:
381,379,79424,6,0,L|372:274,1,75.000002861023,4|0,0:3|3:0,0:0:0:0:
374,304,79787,1,2,0:0:0:0:
374,304,79908,1,0,1:0:0:0:
214,222,80392,1,4,0:3:0:0:
224,132,80634,1,0,1:0:0:0:
234,42,80876,2,0,P|291:24|328:32,1,75.000002861023,0|0,1:0|1:0,0:0:0:0:
390,54,81360,6,0,B|474:80|450:18|553:49,1,150.000005722046,4|0,0:1|1:0,0:0:0:0:
509,130,82086,1,0,3:0:0:0:
480,215,82328,2,0,L|401:224,2,75.000002861023,4|0|0,0:3|3:0|1:0,0:0:0:0:
455,301,83053,1,0,3:0:0:0:
376,345,83295,6,0,B|290:363|315:310|230:328,1,150.000005722046,4|0,0:3|1:0,0:0:0:0:
150,368,84021,1,0,3:0:0:0:
70,325,84263,2,0,P|53:276|61:240,1,75.000002861023,4|0,0:3|3:0,0:0:0:0:
133,207,84747,2,0,P|148:173|147:135,1,75.000002861023,0|0,1:0|3:0,0:0:0:0:
107,55,85231,6,0,P|175:111|242:88,1,150.000005722046,4|0,0:3|1:0,0:0:0:0:
306,51,85957,1,0,3:0:0:0:
355,125,86199,2,0,L|362:199,2,75.000002861023,4|0|0,0:3|3:0|1:0,0:0:0:0:
429,74,86924,2,0,L|481:68,2,37.5000014305115,0|2|2,3:3|0:0|0:3,0:0:0:0:
429,74,87650,5,0,1:0:0:0:
283,179,88134,2,0,L|237:182,3,37.5000014305115,0|8|4|4,1:0|0:3|0:3|0:3,0:0:0:0:
269,218,88618,2,0,L|223:221,3,37.5000014305115,0|8|4|4,1:0|0:3|0:3|0:3,0:0:0:0:
259,261,89102,5,4,0:1:0:0:
95,190,89586,2,0,P|83:157|87:123,2,64.9999970245362,0|4|4,1:0|0:3|0:3,0:0:0:0:
177,51,90553,2,0,P|199:24|226:11,1,59.9999981689453,0|4,1:0|0:3,0:0:0:0:
294,44,91037,6,0,P|328:50|353:65,1,55.0000016784668,4|4,0:3|0:3,0:0:0:0:
369,136,91521,2,0,P|381:168|379:198,1,50,0|4,1:0|0:3,0:0:0:0:
324,237,92005,2,0,P|301:263|275:277,1,44.999998626709,4|4,0:3|0:3,0:0:0:0:
218,261,92489,1,0,1:0:0:0:
218,261,92973,6,0,L|63:274,2,150.000005722046,2|2|2,0:0|0:0|0:0,0:0:0:0:
218,261,95876,2,0,L|292:254,1,75.000002861023,2|0,0:0|0:0,0:0:0:0:
268,341,96844,6,0,L|113:354,1,150.000005722046,2|2,0:0|0:0,0:0:0:0:
52,235,98537,2,0,L|172:225,1,112.500004291534,2|0,0:0|0:0,0:0:0:0:
254,218,99747,2,0,L|336:211,1,75.000002861023,2|0,0:0|0:0,0:0:0:0:
418,209,100715,5,2,0:0:0:0:
418,209,101199,1,2,0:0:0:0:
505,341,101924,2,0,L|502:379,1,37.5000014305115,2|2,0:0|0:0,0:0:0:0:
502,379,102650,1,2,0:0:0:0:
256,192,103618,12,0,106521,0:0:0:0:
