osu file format v14

[General]
AudioFilename: audio.mp3
AudioLeadIn: 0
PreviewTime: 27445
Countdown: 0
SampleSet: Soft
StackLeniency: 0.2
Mode: 0
LetterboxInBreaks: 0
WidescreenStoryboard: 1

[Editor]
Bookmarks: 8251,9219,14058,27606,75993,83735
DistanceSpacing: 1.2
BeatDivisor: 12
GridSize: 16
TimelineZoom: 1.4

[Metadata]
Title:super anime groove 3d world
TitleUnicode:super anime groove 3d world
Artist:android52
ArtistUnicode:android52
Creator:pishifat
Version:bor's Insane
Source:
Tags:_83 presents welcome new galaxy Recover Decoration リカバーデコレーション Kosaki Onodera Kana Hanazawa Nisekoi ニセコイ
BeatmapID:1213428
BeatmapSetID:533428

[Difficulty]
HPDrainRate:5
CircleSize:5.9
OverallDifficulty:7
ApproachRate:8
SliderMultiplier:1.4
SliderTickRate:1

[Events]
//Background and Video events
0,0,"328870313caf20ee138c285ba10ea0a8.jpg",0,0
//Break Periods
//Storyboard Layer 0 (Background)
//Storyboard Layer 1 (Fail)
//Storyboard Layer 2 (Pass)
//Storyboard Layer 3 (Foreground)
//Storyboard Sound Samples

[TimingPoints]
4381,483.870967741935,4,2,0,66,1,0
11639,-83.3333333333333,4,2,2,66,0,0
12122,-58.8235294117647,4,2,2,66,0,0
12445,-58.8235294117647,4,2,2,44,0,0
12526,-100,4,2,2,44,0,0
12687,-100,4,2,2,66,0,0
12848,-58.8235294117647,4,2,2,66,0,0
13574,-100,4,2,2,66,0,0
13655,-100,4,2,2,55,0,0
13735,-100,4,2,2,44,0,0
13816,-100,4,2,2,66,0,0
13856,-100,4,2,2,33,0,0
13977,-100,4,2,2,22,0,0
14058,-133.333333333333,4,2,2,66,0,0
20832,-100,4,2,2,66,0,0
21800,-133.333333333333,4,2,2,66,0,0
27122,-153.846153846153,4,2,2,50,0,0
27364,-153.846153846153,4,2,2,40,0,0
27606,-200,4,2,2,30,0,0
28090,-200,4,2,2,20,0,0
28574,-200,4,2,2,10,0,0
30510,-200,4,2,2,15,0,0
31397,-200,4,2,2,15,0,0
31477,-166.666666666667,4,2,2,22,0,0
32445,-166.666666666667,4,2,2,27,0,0
33413,-166.666666666667,4,2,2,32,0,0
35348,-166.666666666667,4,2,2,37,0,0
36316,-166.666666666667,4,2,2,43,0,0
37284,-166.666666666667,4,2,2,52,0,0
38251,-166.666666666667,4,2,2,64,0,0
38977,-200,4,2,2,64,0,0
39219,-200,4,2,2,72,0,0
40187,-200,4,2,2,80,0,0
41155,-200,4,2,2,66,0,0
44300,-83.3333333333333,4,2,2,66,0,0
45026,-100,4,2,2,66,0,1
50832,-100,4,2,2,66,0,0
52768,-100,4,2,2,66,0,1
58574,-100,4,2,2,44,0,0
59703,-100,4,2,2,66,0,0
60510,-100,4,2,2,44,0,0
60993,-83.3333333333333,4,2,2,66,0,1
68251,-100,4,2,2,54,0,0
70429,-100,4,2,2,66,0,1
72122,-100,4,2,2,66,0,0
74582,-100,4,2,2,44,0,0
74663,-100,4,2,2,33,0,0
74743,-100,4,2,2,22,0,0
74905,-100,4,2,2,11,0,0
75026,-100,4,2,2,22,0,0
75792,-100,4,2,2,66,0,0
83332,-100,4,2,2,55,0,0
83413,-100,4,2,2,44,0,0
83493,-100,4,2,2,66,0,0
83534,-100,4,2,2,33,0,0
83655,-100,4,2,2,22,0,0
83735,-100,4,2,2,66,0,0

[Colours]
Combo1 : 245,237,205
Combo2 : 152,194,228
Combo3 : 149,154,176
Combo4 : 117,159,148

[HitObjects]
21,132,4380,6,0,L|97:128,1,70,0|0,0:0|0:0,0:0:0:0:
183,83,4784,1,0,0:0:0:0:
175,90,4864,1,0,1:0:0:0:
177,153,5026,1,0,0:0:0:0:
185,160,5106,2,0,L|178:226,1,46.6666666666667,0|0,0:0|0:0,0:0:0:0:
173,215,5348,2,0,P|199:242|206:292,1,70,4|0,0:3|0:0,0:0:0:0:
136,307,5751,1,0,0:0:0:0:
128,314,5832,2,0,L|72:301,1,46.6666666666667,0|0,1:0|0:0,0:0:0:0:
74,310,6074,1,0,0:0:0:0:
221,375,6316,6,0,P|257:354|296:349,1,70,4|2,0:3|0:0,0:0:0:0:
356,384,6719,1,0,0:0:0:0:
364,377,6800,1,0,1:0:0:0:
430,310,7042,2,0,L|490:325,1,46.6666666666667,0|0,0:0|0:0,0:0:0:0:
483,328,7284,1,4,0:3:0:0:
402,237,7526,1,0,0:0:0:0:
315,272,7687,1,0,0:0:0:0:
307,265,7768,2,0,P|305:233|318:194,1,70,0|2,1:0|0:0,0:0:0:0:
382,77,8251,6,0,P|382:124|373:153,1,70,4|0,0:3|0:0,0:0:0:0:
310,192,8655,1,0,0:0:0:0:
302,185,8735,1,0,1:0:0:0:
249,104,8897,1,0,0:0:0:0:
257,97,8977,2,0,P|263:75|260:47,1,46.6666666666667,0|0,0:0|0:0,0:0:0:0:
253,44,9219,2,0,L|325:36,1,70,4|0,0:3|0:0,0:0:0:0:
409,0,9622,1,0,0:0:0:0:
417,7,9703,2,0,P|405:46|413:79,1,70,0|2,1:0|0:0,0:0:0:0:
483,201,10187,6,0,L|393:196,1,70,4|0,0:3|0:0,0:0:0:0:
314,227,10671,2,0,L|266:229,1,46.6666666666667,0|0,1:0|0:0,0:0:0:0:
259,222,10913,1,2,0:0:0:0:
142,151,11155,2,0,L|232:146,1,70,4|0,0:3|0:0,0:0:0:0:
270,61,11558,1,0,0:0:0:0:
262,68,11639,2,0,P|239:50|206:73,1,55.9999982910157,0|0,1:0|0:0,0:0:0:0:
207,64,11880,2,0,P|184:46|151:69,1,55.9999982910157,2|0,0:0|0:0,0:0:0:0:
152,60,12122,6,0,L|69:50,1,79.3333348464966,2|2,0:3|0:3,0:0:0:0:
173,130,12526,6,0,L|170:153,1,23.3333333333333,8|4,0:3|0:3,0:0:0:0:
177,160,12848,6,0,L|255:169,1,79.3333348464966,2|2,0:3|0:3,0:0:0:0:
132,214,13251,5,0,0:0:0:0:
132,214,13574,2,0,P|144:240|152:276,1,46.6666666666667,0|0,0:1|0:0,0:0:0:0:
140,264,13816,2,0,P|142:293|153:327,1,46.6666666666667,0|0,0:0|0:0,0:0:0:0:
154,316,14058,6,0,L|252:328,1,87.5000033378602,4|0,0:3|0:0,0:0:0:0:
248,333,14542,1,0,1:0:0:0:
351,250,14784,2,0,L|344:292,1,35.0000013351441,0|0,0:0|0:0,0:0:0:0:
337,291,15026,2,0,P|330:317|333:351,1,52.5000020027161,4|0,0:3|0:0,0:0:0:0:
455,302,15510,1,0,1:0:0:0:
426,212,15751,2,0,L|419:254,1,35.0000013351441,0|0,0:0|0:0,0:0:0:0:
412,253,15993,5,4,0:3:0:0:
491,190,16235,1,0,0:0:0:0:
486,120,16477,2,0,L|426:133,1,52.5000020027161,0|0,1:0|0:0,0:0:0:0:
370,114,16961,1,4,0:3:0:0:
387,57,17203,1,0,0:0:0:0:
494,113,17445,2,0,L|434:126,1,52.5000020027161,0|0,1:0|0:0,0:0:0:0:
379,50,17929,6,0,L|369:138,1,87.5000033378602,4|0,0:3|0:0,0:0:0:0:
361,143,18413,1,0,1:0:0:0:
293,97,18655,1,0,0:0:0:0:
236,129,18897,2,0,P|209:123|182:111,1,52.5000020027161,4|0,0:3|0:0,0:0:0:0:
244,136,19380,1,0,1:0:0:0:
274,194,19622,2,0,P|267:220|269:240,1,35.0000013351441,0|0,0:0|0:0,0:0:0:0:
275,234,19864,6,0,P|274:272|269:287,1,52.5000020027161,4|0,0:3|0:0,0:0:0:0:
191,367,20348,2,0,P|205:345|215:336,1,35.0000013351441,0|0,1:0|0:0,0:0:0:0:
193,238,20751,1,0,0:0:0:0:
185,245,20832,2,0,P|170:272|151:286,1,46.6666666666667,4|2,0:3|0:3,0:0:0:0:
64,336,21235,1,0,0:0:0:0:
72,329,21316,1,0,1:0:0:0:
25,260,21477,1,0,0:0:0:0:
17,253,21558,1,8,0:3:0:0:
64,165,21800,6,0,P|84:176|120:184,1,52.5000020027161,4|0,0:3|0:0,0:0:0:0:
224,126,22284,1,0,1:0:0:0:
184,81,22526,2,0,P|189:63|202:51,1,35.0000013351441,0|0,0:0|0:0,0:0:0:0:
208,44,22768,2,0,L|267:47,1,52.5000020027161,4|0,0:3|0:0,0:0:0:0:
346,146,23251,1,0,1:0:0:0:
306,101,23493,2,0,P|311:83|324:71,1,35.0000013351441,0|0,0:0|0:0,0:0:0:0:
330,64,23735,6,0,L|389:67,1,52.5000020027161,4|0,0:3|0:0,0:0:0:0:
473,128,24219,1,0,1:0:0:0:
409,139,24461,1,0,0:0:0:0:
323,200,24703,2,0,L|378:189,1,52.5000020027161,4|0,0:3|0:0,0:0:0:0:
468,133,25187,1,0,1:0:0:0:
404,144,25429,1,0,0:0:0:0:
318,205,25671,6,0,P|328:257|331:293,1,87.5000033378602,4|0,0:3|0:0,0:0:0:0:
322,298,26155,1,0,1:0:0:0:
386,342,26397,2,0,P|407:345|431:352,1,35.0000013351441,0|0,0:0|0:0,0:0:0:0:
428,355,26639,1,4,0:3:0:0:
489,299,26800,1,0,0:0:0:0:
497,292,26880,1,0,0:0:0:0:
451,209,27122,6,0,L|444:263,1,45.4999979171754,0|0,1:0|0:0,0:0:0:0:
445,200,27606,6,0,L|439:240,1,35,8|0,0:3|0:0,0:0:0:0:
391,272,28090,1,2,0:3:0:0:
391,272,28574,2,0,L|396:292,3,17.5,0|0|0|0,3:0|0:0|0:0|0:0,0:0:0:0:
348,326,29058,2,0,L|343:346,3,17.5,0|0|0|0,3:0|0:0|0:0|0:0,0:0:0:0:
391,380,29542,5,0,3:3:0:0:
497,353,30026,1,2,0:3:0:0:
395,373,30510,1,0,3:0:0:0:
267,340,30993,1,2,0:3:0:0:
323,291,31235,2,0,L|321:316,1,23.3333333333333,0|0,0:0|0:0,0:0:0:0:
325,310,31477,5,0,3:0:0:0:
392,291,31719,1,0,0:0:0:0:
329,303,31961,1,2,0:3:0:0:
248,280,32203,1,0,0:0:0:0:
191,196,32445,2,0,P|201:219|203:240,1,41.9999987182618,0|0,3:0|0:0,0:0:0:0:
286,161,32929,2,0,P|276:184|274:205,1,41.9999987182618,2|0,0:3|0:0,0:0:0:0:
218,112,33332,1,0,0:0:0:0:
210,119,33413,5,0,3:0:0:0:
125,101,33655,1,0,0:0:0:0:
214,112,33897,1,0,1:0:0:0:
311,93,34139,1,0,0:0:0:0:
384,9,34380,2,0,L|376:57,1,41.9999987182618,0|0,3:0|0:0,0:0:0:0:
428,148,34864,1,0,1:0:0:0:
426,211,35106,1,0,0:0:0:0:
372,291,35348,6,0,P|370:267|376:243,1,41.9999987182618,0|0,3:0|0:0,0:0:0:0:
462,351,35832,2,0,P|463:327|458:303,1,41.9999987182618,0|0,1:0|0:0,0:0:0:0:
458,358,36316,1,0,3:0:0:0:
382,348,36558,1,0,0:0:0:0:
290,336,36800,1,0,1:0:0:0:
197,323,37042,1,0,0:0:0:0:
158,244,37203,1,0,0:0:0:0:
166,251,37284,5,0,1:0:0:0:
132,305,37526,1,0,1:0:0:0:
170,244,37768,1,0,1:0:0:0:
210,179,38010,1,0,1:0:0:0:
132,99,38251,5,0,1:0:0:0:
212,73,38493,1,0,1:0:0:0:
136,92,38735,1,0,1:0:0:0:
50,64,38977,1,0,1:0:0:0:
20,163,39219,5,0,1:0:0:0:
121,155,39461,1,0,1:0:0:0:
222,147,39703,1,0,1:0:0:0:
323,139,39945,1,0,1:0:0:0:
319,33,40187,5,0,1:0:0:0:
327,134,40429,1,0,1:0:0:0:
335,235,40671,1,0,1:0:0:0:
343,336,40913,1,0,1:0:0:0:
247,275,41155,6,0,L|137:290,2,105,0|0|2,3:0|3:0|3:2,0:0:0:0:
247,275,44058,1,0,3:0:0:0:
211,161,44300,1,2,0:0:0:0:
440,205,44784,2,0,L|397:212,1,41.9999987182618,0|0,0:0|0:0,0:0:0:0:
488,164,45026,5,4,0:1:0:0:
433,136,45268,1,0,0:0:0:0:
488,164,45510,1,0,1:0:0:0:
415,144,45751,1,0,0:0:0:0:
488,164,45993,1,4,0:3:0:0:
396,158,46235,1,0,0:0:0:0:
488,164,46477,1,0,1:0:0:0:
377,179,46719,1,0,0:0:0:0:
337,63,46961,5,8,0:3:0:0:
301,165,47203,1,0,0:0:0:0:
337,63,47445,1,0,1:0:0:0:
301,165,47687,1,0,0:0:0:0:
337,63,47929,1,8,0:3:0:0:
301,165,48171,1,0,0:0:0:0:
337,63,48413,1,0,1:0:0:0:
301,165,48655,1,0,0:0:0:0:
136,49,48897,6,0,P|183:60|213:69,1,70,4|0,0:3|0:0,0:0:0:0:
223,143,49260,1,0,0:0:0:0:
156,126,49380,2,0,P|203:137|233:146,1,70,0|0,1:0|0:0,0:0:0:0:
243,220,49743,1,0,0:0:0:0:
176,203,49864,2,0,P|223:214|253:223,1,70,4|0,0:3|0:0,0:0:0:0:
263,297,50227,1,0,0:0:0:0:
196,280,50348,2,0,P|243:291|273:300,1,70,0|0,1:0|0:0,0:0:0:0:
283,374,50711,1,0,0:0:0:0:
216,357,50832,5,2,0:3:0:0:
216,357,51074,1,0,0:0:0:0:
342,308,51316,1,2,1:3:0:0:
342,308,51558,1,0,0:0:0:0:
216,357,51800,5,2,0:3:0:0:
216,357,52042,1,0,0:0:0:0:
90,308,52284,1,2,1:3:0:0:
90,308,52526,1,0,0:0:0:0:
24,220,52768,5,4,0:1:0:0:
79,248,53010,1,0,0:0:0:0:
24,220,53251,1,0,1:0:0:0:
97,240,53493,1,0,0:0:0:0:
24,220,53735,1,4,0:3:0:0:
116,226,53977,1,0,0:0:0:0:
24,220,54219,1,0,1:0:0:0:
135,205,54461,1,0,0:0:0:0:
175,321,54703,5,8,0:3:0:0:
211,219,54945,1,0,0:0:0:0:
175,321,55187,1,0,1:0:0:0:
211,219,55429,1,0,0:0:0:0:
175,321,55671,1,8,0:3:0:0:
211,219,55913,1,0,0:0:0:0:
175,321,56155,1,0,1:0:0:0:
211,219,56397,1,0,0:0:0:0:
376,335,56639,6,0,P|329:324|299:315,1,70,4|0,0:3|0:0,0:0:0:0:
289,241,57001,1,0,0:0:0:0:
356,258,57122,2,0,P|309:247|279:238,1,70,0|0,1:0|0:0,0:0:0:0:
269,164,57485,1,0,0:0:0:0:
336,181,57606,2,0,P|289:170|259:161,1,70,4|0,0:3|0:0,0:0:0:0:
249,87,57969,1,0,0:0:0:0:
316,104,58090,2,0,P|269:93|239:84,1,70,0|0,1:0|0:0,0:0:0:0:
229,10,58453,1,0,0:0:0:0:
296,27,58574,5,2,0:3:0:0:
296,27,58816,1,0,0:0:0:0:
162,85,59058,1,2,0:3:0:0:
162,85,59300,1,0,0:0:0:0:
296,27,59542,1,2,0:3:0:0:
296,27,59784,1,0,0:0:0:0:
430,85,60026,1,2,1:3:0:0:
488,0,60268,1,0,1:0:0:0:
512,59,60510,5,4,0:3:0:0:
512,59,60751,1,4,0:3:0:0:
488,118,60993,2,0,P|446:128|395:131,1,83.9999974365235,4|0,1:2|0:0,0:0:0:0:
333,102,61397,1,0,0:0:0:0:
325,109,61477,1,4,0:3:0:0:
257,155,61719,1,0,0:0:0:0:
268,233,61961,2,0,P|231:239|192:254,1,55.9999982910157,0|0,1:0|0:0,0:0:0:0:
206,251,62203,1,0,0:0:0:0:
126,332,62445,6,0,L|106:238,1,83.9999974365235,4|0,0:3|0:0,0:0:0:0:
9,210,62929,2,0,P|38:208|78:200,1,55.9999982910157,0|0,1:0|0:0,0:0:0:0:
72,196,63171,1,0,0:0:0:0:
135,133,63332,1,0,0:0:0:0:
143,140,63413,2,0,P|172:142|212:150,1,55.9999982910157,4|0,0:3|0:0,0:0:0:0:
206,153,63655,1,0,0:0:0:0:
282,117,63897,1,0,1:0:0:0:
351,15,64139,2,0,P|350:52|354:82,1,55.9999982910157,0|0,0:0|0:0,0:0:0:0:
360,77,64380,5,4,0:3:0:0:
285,38,64622,1,0,0:0:0:0:
188,77,64864,2,0,L|124:82,1,55.9999982910157,0|0,1:0|0:0,0:0:0:0:
124,88,65106,1,0,0:0:0:0:
60,151,65348,2,0,L|124:156,1,55.9999982910157,4|0,0:3|0:0,0:0:0:0:
124,162,65590,1,0,0:0:0:0:
110,244,65832,1,0,1:0:0:0:
171,304,66074,2,0,P|205:309|232:319,1,55.9999982910157,0|0,0:0|0:0,0:0:0:0:
233,323,66316,5,4,0:3:0:0:
316,335,66558,1,0,0:0:0:0:
362,262,66800,2,0,P|352:227|351:206,1,55.9999982910157,0|0,1:0|0:0,0:0:0:0:
358,200,67042,1,0,0:0:0:0:
404,136,67284,1,4,0:3:0:0:
378,73,67526,1,0,0:0:0:0:
294,113,67768,2,0,L|230:127,1,55.9999982910157,0|0,1:0|0:0,0:0:0:0:
231,131,68010,1,2,0:0:0:0:
186,214,68171,1,0,0:0:0:0:
194,221,68251,5,8,0:3:0:0:
74,155,69219,1,4,0:3:0:0:
74,155,69703,2,0,L|70:201,1,46.6666666666667,0|0,0:0|0:0,0:0:0:0:
61,208,69945,1,0,0:0:0:0:
11,132,70187,5,0,0:0:0:0:
71,3,70429,1,2,0:0:0:0:
89,67,70671,2,0,L|139:72,1,46.6666666666667,0|0,1:0|0:0,0:0:0:0:
143,78,70913,1,0,0:0:0:0:
207,123,71074,1,0,0:0:0:0:
215,130,71155,2,0,L|265:135,1,46.6666666666667,4|0,0:0|0:0,0:0:0:0:
269,141,71397,1,0,0:0:0:0:
340,107,71639,1,0,1:0:0:0:
342,30,71880,2,0,P|315:25|286:13,1,46.6666666666667,0|0,0:0|0:0,0:0:0:0:
290,9,72122,5,0,3:0:0:0:
512,135,73090,1,0,3:0:0:0:
512,135,74058,1,2,0:0:0:0:
505,132,75993,6,0,L|429:128,1,70,4|0,0:1|0:0,0:0:0:0:
343,83,76397,1,0,0:0:0:0:
351,90,76477,1,0,1:0:0:0:
349,153,76639,1,0,0:0:0:0:
341,160,76719,2,0,L|348:226,1,46.6666666666667,0|0,0:0|0:0,0:0:0:0:
353,215,76961,2,0,P|327:242|320:292,1,70,4|0,0:3|0:0,0:0:0:0:
390,307,77364,1,0,0:0:0:0:
398,314,77445,2,0,L|454:301,1,46.6666666666667,0|0,1:0|0:0,0:0:0:0:
452,310,77687,1,0,0:0:0:0:
305,375,77929,6,0,P|269:354|230:349,1,70,4|2,0:3|0:0,0:0:0:0:
170,384,78332,1,0,0:0:0:0:
162,377,78413,1,0,1:0:0:0:
96,310,78655,2,0,L|36:325,1,46.6666666666667,0|0,0:0|0:0,0:0:0:0:
43,328,78897,1,4,0:3:0:0:
124,237,79139,1,0,0:0:0:0:
211,272,79300,1,0,0:0:0:0:
219,265,79380,2,0,P|221:233|208:194,1,70,0|2,1:0|0:0,0:0:0:0:
144,77,79864,6,0,P|144:124|153:153,1,70,4|0,0:3|0:0,0:0:0:0:
216,192,80268,1,0,0:0:0:0:
224,185,80348,1,0,1:0:0:0:
277,104,80510,1,0,0:0:0:0:
269,97,80590,2,0,P|263:75|266:47,1,46.6666666666667,0|0,0:0|0:0,0:0:0:0:
273,44,80832,2,0,L|201:36,1,70,4|0,0:3|0:0,0:0:0:0:
117,0,81235,1,0,0:0:0:0:
109,7,81316,2,0,P|121:46|113:79,1,70,0|2,1:0|0:0,0:0:0:0:
62,195,81800,6,0,L|152:190,1,70,4|0,0:3|0:0,0:0:0:0:
212,227,82284,2,0,L|260:229,1,46.6666666666667,0|0,1:0|0:0,0:0:0:0:
267,222,82526,1,2,0:0:0:0:
383,160,82768,2,0,P|331:149|308:137,1,70,4|2,0:3|0:0,0:0:0:0:
249,54,83171,1,0,0:0:0:0:
241,61,83251,2,0,B|235:78|228:92|228:92|242:108|238:122|238:122|252:144|242:153|242:153|249:181,1,116.666666666667,0|0,1:0|0:0,0:0:0:0:
238,175,83735,5,0,0:0:0:0:
