osu file format v14

[General]
AudioFilename: audio.mp3
AudioLeadIn: 0
PreviewTime: 27445
Countdown: 0
SampleSet: Soft
StackLeniency: 0.8
Mode: 0
LetterboxInBreaks: 0
WidescreenStoryboard: 1

[Editor]
Bookmarks: 8332,27606,75812
DistanceSpacing: 1
BeatDivisor: 6
GridSize: 4
TimelineZoom: 1

[Metadata]
Title:super anime groove 3d world
TitleUnicode:super anime groove 3d world
Artist:android52
ArtistUnicode:android52
Creator:pishifat
Version:Normal
Source:
Tags:_83 presents welcome new galaxy Recover Decoration リカバーデコレーション Kosaki Onodera Kana Hanazawa Nisekoi ニセコイ
BeatmapID:1220512
BeatmapSetID:533428

[Difficulty]
HPDrainRate:4
CircleSize:3.7
OverallDifficulty:4
ApproachRate:4.5
SliderMultiplier:1.1
SliderTickRate:1

[Events]
//Background and Video events
0,0,"328870313caf20ee138c285ba10ea0a8.jpg",0,0
//Break Periods
//Storyboard Layer 0 (Background)
//Storyboard Layer 1 (Fail)
//Storyboard Layer 2 (Pass)
//Storyboard Layer 3 (Foreground)
//Storyboard Sound Samples

[TimingPoints]
4381,483.870967741935,4,2,0,66,1,0
12122,-100,4,2,2,66,0,0
12445,-100,4,2,2,44,0,0
12687,-100,4,2,2,66,0,0
13574,-100,4,2,2,66,0,0
13655,-100,4,2,2,55,0,0
13735,-100,4,2,2,44,0,0
13816,-100,4,2,2,66,0,0
13856,-100,4,2,2,33,0,0
13977,-100,4,2,2,22,0,0
14058,-100,4,2,2,66,0,0
20832,-100,4,2,2,66,0,0
21155,-100,4,2,2,66,0,0
21800,-100,4,2,2,66,0,0
27122,-100,4,2,2,50,0,0
27364,-100,4,2,2,40,0,0
27606,-111.111111111111,4,2,2,30,0,0
28090,-100,4,2,2,20,0,0
28574,-125,4,2,2,10,0,0
29421,-125,4,2,2,10,0,0
29542,-125,4,2,2,10,0,0
30510,-125,4,2,2,15,0,0
31477,-125,4,2,2,22,0,0
32445,-125,4,2,2,27,0,0
33413,-125,4,2,2,32,0,0
35348,-125,4,2,2,37,0,0
36316,-125,4,2,2,43,0,0
37284,-111.111111111111,4,2,2,52,0,0
38251,-111.111111111111,4,2,2,64,0,0
38977,-111.111111111111,4,2,2,64,0,0
39219,-100,4,2,2,72,0,0
40187,-100,4,2,2,80,0,0
41155,-125,4,2,2,66,0,0
43574,-125,4,2,2,66,0,0
44300,-125,4,2,2,66,0,0
45026,-100,4,2,2,66,0,1
50832,-100,4,2,2,66,0,0
52768,-100,4,2,2,66,0,1
58574,-100,4,2,2,44,0,0
59703,-100,4,2,2,66,0,0
60510,-100,4,2,2,44,0,0
60993,-100,4,2,2,66,0,1
68251,-125,4,2,2,55,0,0
70429,-100,4,2,2,66,0,1
72122,-100,4,2,2,66,0,0
74582,-100,4,2,2,44,0,0
74663,-100,4,2,2,33,0,0
74743,-100,4,2,2,22,0,0
74905,-100,4,2,2,11,0,0
75026,-100,4,2,2,22,0,0
75792,-100,4,2,2,66,0,0
83332,-100,4,2,2,55,0,0
83413,-100,4,2,2,44,0,0
83493,-100,4,2,2,66,0,0
83534,-100,4,2,2,33,0,0
83655,-100,4,2,2,22,0,0
83735,-100,4,2,2,66,0,0

[Colours]
Combo1 : 245,237,205
Combo2 : 152,194,228
Combo3 : 149,154,176
Combo4 : 117,159,148

[HitObjects]
81,103,4380,6,0,P|151:105|185:142,1,110,0|0,0:0|0:0,0:0:0:0:
194,182,5106,1,0,0:0:0:0:
211,234,5348,2,0,P|254:265|308:260,1,110,4|0,0:3|1:0,0:0:0:0:
354,229,6074,1,0,0:0:0:0:
402,130,6558,1,2,0:0:0:0:
402,130,6800,2,0,L|389:16,2,110,0|4|0,1:0|0:3|1:0,0:0:0:0:
468,217,8251,6,0,L|457:335,1,110,4|0,0:3|1:0,0:0:0:0:
427,372,8977,1,0,0:0:0:0:
374,354,9219,2,0,P|317:356|267:392,1,110,4|0,0:3|1:0,0:0:0:0:
170,345,10187,5,4,0:3:0:0:
259,280,10671,1,0,1:0:0:0:
191,193,11155,1,4,0:3:0:0:
275,122,11639,1,0,1:0:0:0:
215,30,12122,5,2,0:3:0:0:
215,30,13574,1,0,0:1:0:0:
275,122,14058,5,4,0:3:0:0:
366,61,14542,2,0,P|415:66|428:75,1,55,0|0,1:0|0:0,0:0:0:0:
457,108,15026,1,4,0:3:0:0:
391,196,15510,2,0,P|342:201|329:210,1,55,0|0,1:0|0:0,0:0:0:0:
300,243,15994,1,4,0:3:0:0:
208,303,16477,6,0,L|214:369,2,55,0|0|4,1:0|0:0|0:3,0:0:0:0:
153,310,17203,2,0,L|159:376,2,55,0|0|0,0:0|1:0|0:0,0:0:0:0:
98,317,17929,1,4,0:3:0:0:
21,238,18413,1,0,1:0:0:0:
126,208,18897,2,0,P|151:167|142:93,1,110,4|0,0:3|1:0,0:0:0:0:
113,64,19622,1,0,0:0:0:0:
68,32,19864,5,4,0:3:0:0:
43,138,20348,1,0,1:0:0:0:
148,106,20832,1,4,0:3:0:0:
242,304,21800,5,4,0:3:0:0:
336,246,22284,2,0,P|351:207|350:184,1,55,0|0,1:0|0:0,0:0:0:0:
336,140,22768,1,4,0:3:0:0:
242,197,23251,2,0,P|227:158|228:135,1,55,0|0,1:0|0:0,0:0:0:0:
242,91,23735,1,4,0:3:0:0:
158,18,24219,6,0,P|121:31|102:55,1,55,0|0,1:0|0:0,0:0:0:0:
89,92,24703,1,4,0:3:0:0:
149,186,25187,1,0,1:0:0:0:
157,242,25429,1,0,0:0:0:0:
163,296,25671,6,0,P|107:320|53:311,2,110,4|0|4,0:3|1:0|0:3,0:0:0:0:
243,233,27122,2,0,P|272:237|301:251,1,55,0|0,1:0|0:0,0:0:0:0:
335,285,27606,6,0,L|343:173,1,98.9999969787598,8|2,0:3|0:3,0:0:0:0:
440,198,28574,2,0,L|433:285,1,88,0|0,3:0|3:0,0:0:0:0:
380,367,29542,6,0,P|320:370|292:388,1,88,0|2,3:3|0:3,0:0:0:0:
228,315,30510,2,0,P|188:296|145:298,1,88,0|2,3:0|0:3,0:0:0:0:
52,327,31477,1,0,3:0:0:0:
75,233,31961,2,0,L|67:140,2,88,2|0|2,0:3|3:0|0:3,0:0:0:0:
52,327,33413,6,0,P|112:324|140:306,1,88,0|0,3:0|1:0,0:0:0:0:
203,241,34381,2,0,P|242:259|285:257,1,88,0|0,3:0|1:0,0:0:0:0:
353,187,35348,1,0,3:0:0:0:
259,163,35832,1,0,1:0:0:0:
327,95,36316,2,0,L|379:85,2,44,0|0|0,3:0|0:0|1:0,0:0:0:0:
234,62,37284,6,0,P|185:66|147:96,1,98.9999969787599,0|0,1:0|1:0,0:0:0:0:
132,133,38010,1,0,1:0:0:0:
137,172,38251,2,0,P|185:172|226:199,1,98.9999969787599,0|0,1:0|1:0,0:0:0:0:
296,294,39219,6,0,P|345:291|397:253,1,110,0|0,1:0|1:0,0:0:0:0:
417,207,39945,1,0,1:0:0:0:
391,158,40187,2,0,P|342:157|289:124,1,110,0|0,1:0|1:0,0:0:0:0:
366,62,41155,6,0,P|444:49|500:22,2,132,0|0|2,3:0|3:0|3:2,0:0:0:0:
366,62,44300,1,2,0:0:0:0:
121,70,45026,6,0,P|107:93|101:122,1,55,4|0,0:1|0:0,0:0:0:0:
109,174,45510,1,0,1:0:0:0:
0,156,45993,2,0,P|-3:189|5:215,1,55,4|0,0:3|0:0,0:0:0:0:
32,256,46477,1,0,1:0:0:0:
108,329,46961,6,0,L|169:322,1,55,8|0,0:3|0:0,0:0:0:0:
217,319,47445,1,0,1:0:0:0:
262,218,47929,2,0,L|324:228,1,55,8|0,0:3|0:0,0:0:0:0:
369,240,48413,1,0,1:0:0:0:
461,300,48897,6,0,P|494:292|520:275,2,55,4|0|0,0:3|0:0|1:0,0:0:0:0:
362,349,49864,2,0,P|329:341|302:320,2,55,4|0|0,0:3|0:0|1:0,0:0:0:0:
369,240,50832,5,2,0:3:0:0:
444,160,51316,1,2,1:3:0:0:
339,124,51800,1,2,0:3:0:0:
422,52,52284,1,2,1:3:0:0:
317,16,52768,6,0,P|284:14|254:25,1,55,4|0,0:1|0:0,0:0:0:0:
225,60,53252,1,0,1:0:0:0:
127,9,53735,2,0,P|94:28|79:57,1,55,4|0,0:3|0:0,0:0:0:0:
64,92,54219,1,0,1:0:0:0:
161,143,54703,6,0,L|167:215,1,55,8|0,0:3|0:0,0:0:0:0:
172,252,55187,1,0,1:0:0:0:
278,225,55671,2,0,L|271:280,1,55,8|0,0:3|0:0,0:0:0:0:
267,334,56155,1,0,1:0:0:0:
375,349,56639,6,0,P|409:356|434:376,2,55,4|0|0,0:3|0:0|1:0,0:0:0:0:
407,243,57606,2,0,P|424:235|461:232,2,55,4|0|0,0:3|0:0|1:0,0:0:0:0:
386,134,58574,5,2,0:3:0:0:
290,80,59058,1,2,0:3:0:0:
196,21,59542,1,2,0:3:0:0:
100,80,60026,1,2,1:3:0:0:
90,134,60268,1,0,1:0:0:0:
82,188,60510,1,4,0:3:0:0:
149,274,60993,6,0,P|194:266|214:257,1,55,4|0,1:2|0:0,0:0:0:0:
250,234,61477,2,0,P|308:229|356:259,1,110,4|0,0:3|1:0,0:0:0:0:
391,356,62445,5,4,0:3:0:0:
465,275,62929,1,0,1:0:0:0:
423,172,63413,2,0,L|412:58,1,110,4|0,0:3|1:0,0:0:0:0:
319,3,64380,6,0,P|250:13|216:52,1,110,4|0,0:3|1:0,0:0:0:0:
176,139,65348,2,0,P|144:99|94:113,1,110,4|0,0:3|1:0,0:0:0:0:
79,167,66074,1,0,0:0:0:0:
70,221,66316,6,0,P|129:257|180:249,1,110,4|0,0:3|1:0,0:0:0:0:
275,214,67284,2,0,P|273:265|321:286,1,110,4|0,0:3|1:0,0:0:0:0:
374,271,68010,1,0,0:0:0:0:
427,253,68251,5,8,0:3:0:0:
300,75,69219,2,0,L|387:56,2,88,8|0|0,0:3|0:0|0:3,0:0:0:0:
247,85,70429,1,2,0:0:0:0:
197,61,70671,1,0,1:0:0:0:
89,83,71155,2,0,P|65:160|78:191,1,110,4|0,0:0|1:0,0:0:0:0:
163,248,72122,5,0,3:0:0:0:
381,223,73090,1,0,3:0:0:0:
256,95,74058,5,2,0:0:0:0:
431,281,75993,6,0,P|361:279|327:242,1,110,4|0,0:1|1:0,0:0:0:0:
318,202,76719,1,0,0:0:0:0:
301,150,76961,2,0,P|258:119|204:124,1,110,4|0,0:3|1:0,0:0:0:0:
158,155,77687,1,0,0:0:0:0:
110,254,78171,1,2,0:0:0:0:
110,254,78413,2,0,L|123:368,2,110,0|4|0,1:0|0:3|1:0,0:0:0:0:
31,176,79864,6,0,L|42:58,1,110,4|0,0:3|1:0,0:0:0:0:
72,21,80590,1,0,0:0:0:0:
125,39,80832,2,0,P|182:37|232:1,1,110,4|0,0:3|1:0,0:0:0:0:
329,48,81800,5,4,0:3:0:0:
240,113,82284,1,0,1:0:0:0:
308,200,82768,1,4,0:3:0:0:
224,271,83252,1,0,1:0:0:0:
284,363,83735,5,0,0:0:0:0:
