osu file format v14

[General]
AudioFilename: audio.mp3
AudioLeadIn: 0
PreviewTime: 27445
Countdown: 0
SampleSet: Soft
StackLeniency: 0.2
Mode: 0
LetterboxInBreaks: 0
WidescreenStoryboard: 1

[Editor]
Bookmarks: 8332,27606,75812
DistanceSpacing: 2.9
BeatDivisor: 6
GridSize: 4
TimelineZoom: 1.7

[Metadata]
Title:super anime groove 3d world
TitleUnicode:super anime groove 3d world
Artist:android52
ArtistUnicode:android52
Creator:pishifat
Version:Insane
Source:
Tags:_83 presents welcome new galaxy Recover Decoration リカバーデコレーション Kosaki Onodera Kana Hanazawa Nisekoi ニセコイ
BeatmapID:1387177
BeatmapSetID:533428

[Difficulty]
HPDrainRate:5
CircleSize:7
OverallDifficulty:7.5
ApproachRate:7
SliderMultiplier:1
SliderTickRate:1

[Events]
//Background and Video events
0,0,"328870313caf20ee138c285ba10ea0a8.jpg",0,0
//Break Periods
//Storyboard Layer 0 (Background)
//Storyboard Layer 1 (Fail)
//Storyboard Layer 2 (Pass)
//Storyboard Layer 3 (Foreground)
//Storyboard Sound Samples

[TimingPoints]
4381,483.870967741935,4,2,0,66,1,0
11639,-66.6666666666667,4,2,2,66,0,0
12122,-66.6666666666667,4,2,2,66,0,0
12445,-66.6666666666667,4,2,2,44,0,0
12687,-66.6666666666667,4,2,2,66,0,0
13574,-50,4,2,2,66,0,0
13655,-50,4,2,1,55,0,0
13735,-50,4,2,2,44,0,0
13816,-50,4,2,1,66,0,0
13856,-50,4,2,2,33,0,0
13977,-50,4,2,1,22,0,0
14058,-133.333333333333,4,2,2,66,0,0
20832,-100,4,2,2,66,0,0
21316,-66.6666666666667,4,2,2,66,0,0
21558,-80,4,2,2,66,0,0
21800,-133.333333333333,4,2,2,66,0,0
27122,-153.846153846153,4,2,2,50,0,0
27364,-153.846153846153,4,2,2,40,0,0
27606,-166.666666666667,4,2,2,30,0,0
28090,-192.307692307692,4,2,2,20,0,0
29542,-200,4,2,2,10,0,0
30510,-200,4,2,2,15,0,0
31477,-166.666666666667,4,2,2,22,0,0
32445,-166.666666666667,4,2,2,27,0,0
33413,-166.666666666667,4,2,2,32,0,0
35348,-166.666666666667,4,2,2,37,0,0
36316,-166.666666666667,4,2,2,43,0,0
37284,-166.666666666667,4,2,2,52,0,0
38251,-166.666666666667,4,2,2,64,0,0
38977,-166.666666666667,4,2,2,64,0,0
39219,-166.666666666667,4,2,2,72,0,0
40187,-166.666666666667,4,2,2,80,0,0
40913,-166.666666666666,4,2,2,80,0,0
41155,-142.857142857143,4,2,2,66,0,0
43574,-100,4,2,2,66,0,0
43635,-100,4,2,2,41,0,0
44058,-100,4,2,2,66,0,0
44300,-181.818181818182,4,2,2,66,0,0
45026,-100,4,2,2,66,0,1
50832,-100,4,2,2,66,0,0
52768,-100,4,2,2,66,0,1
58574,-100,4,2,2,44,0,0
59703,-100,4,2,2,66,0,0
60510,-100,4,2,2,44,0,0
60993,-83.3333333333333,4,2,2,66,0,1
65348,-81.3008130081301,4,2,2,66,0,1
65832,-83.3333333333333,4,2,2,66,0,1
68251,-100,4,2,2,55,0,0
70429,-100,4,2,2,66,0,1
72122,-100,4,2,2,66,0,0
74582,-100,4,2,1,44,0,0
74663,-100,4,2,2,33,0,0
74743,-100,4,2,1,22,0,0
74905,-100,4,2,1,11,0,0
75026,-100,4,2,2,22,0,0
75792,-100,4,2,2,66,0,0
83332,-100,4,2,1,55,0,0
83413,-100,4,2,2,44,0,0
83493,-100,4,2,1,66,0,0
83534,-100,4,2,2,33,0,0
83655,-100,4,2,1,22,0,0
83735,-100,4,2,2,66,0,0

[Colours]
Combo1 : 245,237,205
Combo2 : 152,194,228
Combo3 : 149,154,176
Combo4 : 117,159,148

[HitObjects]
26,63,4199,6,2,L|6:51,2,12.5
34,67,4380,6,0,P|45:53|52:17,1,50,4|2,0:1|0:0,0:0:0:0:
62,164,4784,1,0,0:0:0:0:
56,170,4864,2,0,P|45:156|38:120,1,50,0|2,1:0|0:0,0:0:0:0:
102,122,5268,1,0,0:0:0:0:
96,127,5348,2,0,P|94:85|114:49,1,83.3333333333333,4|0,0:3|0:0,0:0:0:0:
121,44,5832,2,0,P|132:30|139:-6,1,50,0|2,1:0|0:0,0:0:0:0:
85,4,6235,1,0,0:0:0:0:
78,9,6316,5,4,0:3:0:0:
205,158,6558,2,0,P|173:150|163:140,1,33.3333333333333,2|0,0:0|0:0,0:0:0:0:
166,144,6800,2,0,P|155:130|148:94,1,50,0|2,1:0|0:0,0:0:0:0:
170,45,7203,1,0,0:0:0:0:
175,51,7284,2,0,P|186:37|193:1,1,50,4|2,0:3|0:0,0:0:0:0:
205,99,7687,1,0,0:0:0:0:
210,105,7768,2,0,P|233:113|249:111,1,33.3333333333333,0|0,1:0|0:0,0:0:0:0:
249,110,8010,2,0,P|270:97|278:84,1,33.3333333333333,2|0,0:0|0:0,0:0:0:0:
278,83,8251,6,0,P|279:41|259:5,1,83.3333333333333,4|0,0:3|0:0,0:0:0:0:
253,0,8735,1,0,1:0:0:0:
319,134,8896,1,0,0:0:0:0:
325,129,8977,2,0,P|336:115|341:91,1,33.3333333333333,0|0,0:0|0:0,0:0:0:0:
340,92,9219,2,0,P|344:67|358:47,1,50,4|2,0:3|0:0,0:0:0:0:
441,108,9622,1,0,0:0:0:0:
448,106,9703,2,0,P|466:90|472:75,1,33.3333333333333,0|0,1:0|0:0,0:0:0:0:
474,75,9945,2,0,P|475:58|483:44,1,33.3333333333333,2|0,0:0|0:0,0:0:0:0:
490,37,10187,6,0,P|468:24|443:21,1,50,4|2,0:3|0:0,0:0:0:0:
358,47,10590,1,0,0:0:0:0:
353,53,10671,1,0,1:0:0:0:
339,141,10832,1,0,0:0:0:0:
345,147,10913,1,2,0:0:0:0:
438,161,11074,1,0,0:0:0:0:
446,159,11155,6,0,P|474:149|498:131,1,50,4|0,0:3|0:0,0:0:0:0:
391,97,11558,1,0,0:0:0:0:
399,100,11639,6,0,P|453:94|466:84,1,50.0000019073487,0|0,1:0|0:0,0:0:0:0:
455,91,11880,2,0,P|481:43|480:27,1,50.0000019073487,2|0,0:0|0:0,0:0:0:0:
482,42,12122,6,0,B|501:27|501:27|528:32,1,50.0000019073487,2|2,0:3|0:3,0:0:0:0:
314,83,12526,6,0,B|325:91|325:91|353:86,1,25.0000009536744,8|4,0:3|0:3,0:0:0:0:
163,128,12848,6,0,B|187:121|187:121|206:137,1,50.0000019073487,2|2,0:3|0:3,0:0:0:0:
206,137,13251,1,0,0:0:0:0:
0,163,13574,6,0,L|16:166,10,16.6666666666667,0|0|0|0|0|0|0|0|0|0|0,0:1|0:0|0:0|0:0|0:0|0:0|0:0|0:0|0:0|0:0|0:0,0:0:0:0:
7,227,14058,6,0,L|14:292,1,62.5000023841859,4|0,0:3|0:0,0:0:0:0:
15,298,14542,1,0,1:0:0:0:
68,293,14784,2,0,L|65:320,1,25.0000009536744,0|0,0:0|0:0,0:0:0:0:
64,327,15026,2,0,L|59:364,1,37.5000014305115,4|0,0:3|0:0,0:0:0:0:
113,256,15510,1,0,1:0:0:0:
120,313,15751,2,0,L|122:340,1,25.0000009536744
124,347,15993,2,0,L|128:384,1,37.5000014305115,4|0,0:3|0:0,0:0:0:0:
113,256,16477,5,0,1:0:0:0:
68,293,16719,1,0,0:0:0:0:
120,313,16961,1,4,0:3:0:0:
165,278,17203,1,0,0:0:0:0:
120,313,17445,1,0,1:0:0:0:
113,256,17687,1,0,0:0:0:0:
175,334,17929,6,0,L|170:371,1,37.5000014305115,4|0,0:3|0:0,0:0:0:0:
214,238,18413,2,0,L|222:301,1,62.5000023841859,0|0,1:0|0:0,0:0:0:0:
224,309,18897,2,0,L|229:346,2,37.5000014305115,4|0|0,0:3|0:0|1:0,0:0:0:0:
214,238,19622,1,0,0:0:0:0:
158,285,19864,5,4,0:3:0:0:
224,309,20106,1,0,0:0:0:0:
214,238,20348,2,0,L|217:263,1,25.0000009536744,0|0,1:0|0:0,0:0:0:0:
259,200,20751,1,0,0:0:0:0:
256,208,20832,5,4,0:3:0:0:
221,123,20993,2,0,P|251:140|269:140,1,50,2|0,0:3|0:0,0:0:0:0:
276,140,21316,6,0,B|300:137|300:137|329:159,1,50.0000019073487,0|0,1:0|0:0,0:0:0:0:
324,161,21558,2,0,B|314:181|314:181|319:201,1,41.6666666666667,8|0,0:3|0:0,0:0:0:0:
320,208,21800,6,0,L|315:248,1,37.5000014305115,4|0,0:3|0:0,0:0:0:0:
278,362,22284,1,0,1:0:0:0:
322,299,22526,2,0,L|325:327,1,25.0000009536744,0|0,0:0|0:0,0:0:0:0:
326,333,22768,2,0,L|330:371,1,37.5000014305115,4|0,0:3|0:0,0:0:0:0:
371,238,23251,1,0,1:0:0:0:
376,293,23493,2,0,L|379:321,1,25.0000009536744,0|0,0:0|0:0,0:0:0:0:
379,327,23735,2,0,L|382:366,1,37.5000014305115,4|0,0:3|0:0,0:0:0:0:
315,245,24219,5,0,1:0:0:0:
371,238,24461,1,0,0:0:0:0:
376,293,24703,1,4,0:3:0:0:
322,299,24945,1,0,0:0:0:0:
371,238,25187,1,0,1:0:0:0:
322,299,25429,1,0,0:0:0:0:
380,347,25671,6,0,L|374:384,1,37.5000014305115,4|0,0:3|0:0,0:0:0:0:
425,225,26155,2,0,L|433:287,1,62.5000023841859,0|0,1:0|0:0,0:0:0:0:
435,296,26639,2,0,P|462:304|476:304,1,37.5000014305115,4|0,0:3|0:0,0:0:0:0:
357,325,27122,2,0,P|376:345|387:352,1,32.4999985122681,0|0,1:0|0:0,0:0:0:0:
240,295,27606,6,0,P|265:286|276:286,1,29.9999990844727,8|0,0:3|0:0,0:0:0:0:
147,266,28090,2,0,P|156:253|169:244,1,25.9999998413086,2|0,0:3|0:0,0:0:0:0:
68,298,28574,6,0,L|50:302,3,12.9999999206543,0|0|0|0,3:0|0:0|0:0|0:0,0:0:0:0:
11,328,29058,2,0,L|-4:325,3,12.9999999206543,0|0|0|0,3:0|0:0|0:0|0:0,0:0:0:0:
0,376,29542,6,0,L|5:406,1,25,0|0,3:3|0:0,0:0:0:0:
56,352,30026,2,0,L|51:376,1,25,2|0,0:3|0:0,0:0:0:0:
107,345,30510,2,0,L|114:387,1,41.6666666666667,0|0,3:0|0:0,0:0:0:0:
118,377,30993,2,0,L|122:401,2,25,2|0|0,0:3|0:0|3:0,0:0:0:0:
175,348,31719,5,0,0:0:0:0:
222,372,31961,1,2,0:3:0:0:
221,321,32203,1,0,0:0:0:0:
175,348,32445,2,0,L|169:382,1,29.9999990844727,0|0,3:0|0:0,0:0:0:0:
222,372,32929,1,2,0:3:0:0:
222,372,33171,2,0,L|226:397,1,19.9999993896485,0|0,0:0|0:0,0:0:0:0:
230,385,33413,6,0,L|235:355,1,29.9999990844727,0|0,3:0|0:0,0:0:0:0:
290,359,33897,2,0,L|284:329,1,29.9999990844727,0|0,1:0|0:0,0:0:0:0:
340,381,34380,2,0,L|348:328,1,49.9999984741211,0|0,3:0|0:0,0:0:0:0:
354,337,34864,2,0,L|360:307,1,29.9999990844727,0|0,1:0|0:0,0:0:0:0:
460,320,35348,5,0,3:0:0:0:
408,334,35590,1,0,0:0:0:0:
418,384,35832,1,0,1:0:0:0:
469,373,36074,1,0,0:0:0:0:
460,320,36316,2,0,L|454:290,1,29.9999990844727,0|0,3:0|0:0,0:0:0:0:
504,294,36800,1,0,1:0:0:0:
504,294,37042,2,0,L|509:268,1,19.9999993896485,0|0,0:0|0:0,0:0:0:0:
510,266,37284,5,0,1:0:0:0:
492,223,37526,1,0,1:0:0:0:
463,261,37768,1,0,1:0:0:0:
440,215,38010,1,0,1:0:0:0:
409,259,38251,1,0,1:0:0:0:
382,208,38493,1,0,1:0:0:0:
348,256,38735,1,0,1:0:0:0:
322,198,38977,1,0,1:0:0:0:
281,249,39219,1,0,1:0:0:0:
252,186,39461,1,0,1:0:0:0:
210,245,39703,1,0,1:0:0:0:
176,177,39945,1,0,1:0:0:0:
133,242,40187,1,0,1:0:0:0:
95,170,40429,1,0,1:0:0:0:
52,242,40671,1,0,1:0:0:0:
7,168,40913,1,0,1:0:0:0:
26,302,41155,5,0,3:0:0:0:
151,346,41880,5,0,3:0:0:0:
256,252,42606,5,2,3:2:0:0:
256,252,43574,6,0,L|256:238,8,12.5,0|0|0|0|0|0|0|0|0,0:0|0:0|0:0|0:0|0:0|0:0|0:0|0:0|3:0,0:0:0:0:
256,363,44300,6,0,L|256:308,1,55.0000016784668,2|0,0:0|0:0,0:0:0:0:
143,57,45026,5,4,0:1:0:0:
135,104,45268,1,0,0:0:0:0:
143,57,45510,1,0,1:0:0:0:
135,104,45752,1,0,0:0:0:0:
143,57,45993,1,4,0:3:0:0:
135,104,46235,1,0,0:0:0:0:
143,57,46477,1,0,1:0:0:0:
135,104,46719,1,0,0:0:0:0:
77,70,46961,5,8,0:3:0:0:
202,90,47203,1,0,0:0:0:0:
77,70,47445,1,0,1:0:0:0:
202,90,47687,1,0,0:0:0:0:
77,70,47928,1,8,0:3:0:0:
202,90,48170,1,0,0:0:0:0:
77,70,48412,1,0,1:0:0:0:
202,90,48654,1,0,0:0:0:0:
132,126,48897,5,4,0:3:0:0:
146,33,49139,1,0,0:0:0:0:
140,79,49260,1,0,0:0:0:0:
132,126,49380,1,0,1:0:0:0:
146,33,49622,1,0,0:0:0:0:
140,79,49743,1,0,0:0:0:0:
132,126,49863,1,4,0:3:0:0:
146,33,50107,1,0,0:0:0:0:
140,79,50228,1,0,0:0:0:0:
132,126,50348,1,0,1:0:0:0:
146,33,50591,1,0,0:0:0:0:
140,79,50712,1,0,0:0:0:0:
132,126,50832,5,2,0:3:0:0:
132,126,51074,2,0,L|104:129,1,25,2|0,0:0|0:0,0:0:0:0:
201,121,51316,1,2,1:3:0:0:
201,121,51558,2,0,L|175:109,1,25,2|0,0:0|0:0,0:0:0:0:
263,151,51800,1,2,1:3:0:0:
263,151,52042,2,0,L|246:128,1,25,2|0,0:0|0:0,0:0:0:0:
301,207,52284,1,2,1:3:0:0:
301,207,52526,2,0,L|298:179,1,25,2|0,0:0|0:0,0:0:0:0:
369,57,52768,5,4,0:1:0:0:
377,104,53010,1,0,0:0:0:0:
369,57,53252,1,0,1:0:0:0:
377,104,53494,1,0,0:0:0:0:
369,57,53735,1,4,0:3:0:0:
377,104,53977,1,0,0:0:0:0:
369,57,54219,1,0,1:0:0:0:
377,104,54461,1,0,0:0:0:0:
435,70,54703,5,8,0:3:0:0:
310,90,54945,1,0,0:0:0:0:
435,70,55187,1,0,1:0:0:0:
310,90,55429,1,0,0:0:0:0:
435,70,55670,1,8,0:3:0:0:
310,90,55912,1,0,0:0:0:0:
435,70,56154,1,0,1:0:0:0:
310,90,56396,1,0,0:0:0:0:
380,126,56639,5,4,0:3:0:0:
366,33,56881,1,0,0:0:0:0:
372,79,57002,1,0,0:0:0:0:
380,126,57122,1,0,1:0:0:0:
366,33,57364,1,0,0:0:0:0:
372,79,57485,1,0,0:0:0:0:
380,126,57605,1,4,0:3:0:0:
366,33,57849,1,0,0:0:0:0:
372,79,57970,1,0,0:0:0:0:
380,126,58090,1,0,1:0:0:0:
366,33,58333,1,0,0:0:0:0:
372,79,58454,1,0,0:0:0:0:
380,126,58574,5,2,0:3:0:0:
380,126,59058,1,2,0:3:0:0:
380,126,59542,1,2,0:3:0:0:
380,126,60026,1,2,1:3:0:0:
366,33,60268,1,0,1:0:0:0:
256,192,60510,5,4,0:3:0:0:
256,192,60751,1,4,0:3:0:0:
175,126,60993,6,0,P|160:149|149:182,1,59.9999981689454,4|2,1:2|0:0,0:0:0:0:
328,119,61397,1,0,0:0:0:0:
322,111,61477,2,0,P|299:96|266:85,1,59.9999981689454,4|2,0:3|0:0,0:0:0:0:
330,264,61881,1,0,0:0:0:0:
337,258,61961,2,0,P|352:235|363:202,1,59.9999981689454,0|2,1:0|0:0,0:0:0:0:
209,169,62364,1,0,0:0:0:0:
205,178,62445,6,0,P|205:205|219:229,1,39.9999987792969,4|0,0:3|0:0,0:0:0:0:
214,224,62687,2,0,P|235:240|263:243,1,39.9999987792969,2|0,0:0|0:0,0:0:0:0:
256,244,62929,2,0,P|282:237|308:204,1,59.9999981689454,0|2,1:0|0:0,0:0:0:0:
184,265,63332,1,0,0:0:0:0:
190,273,63413,6,0,P|213:288|246:299,1,59.9999981689454,4|2,0:3|0:0,0:0:0:0:
318,110,63817,1,0,0:0:0:0:
311,103,63897,2,0,P|286:91|259:86,1,39.9999987792969,0|0,1:0|0:0,0:0:0:0:
265,88,64139,1,2,0:0:0:0:
303,215,64300,1,0,0:0:0:0:
307,206,64381,6,0,P|307:179|286:147,1,59.9999981689454,4|2,0:3|0:0,0:0:0:0:
203,195,64784,1,0,0:0:0:0:
204,205,64865,2,0,P|218:228|252:245,1,59.9999981689454,0|2,1:0|0:0,0:0:0:0:
290,151,65268,1,0,0:0:0:0:
281,145,65348,6,0,P|253:139|203:189,1,102.500001564026,4|0,0:3|0:0,0:0:0:0:
203,195,65832,1,0,1:0:0:0:
303,215,65993,1,0,0:0:0:0:
307,206,66074,1,0,0:0:0:0:
171,133,66236,1,0,0:0:0:0:
165,141,66316,6,0,P|154:166|149:200,1,59.9999981689454,4|2,0:3|0:0,0:0:0:0:
348,148,66719,1,0,0:0:0:0:
345,138,66800,2,0,P|329:116|301:94,1,59.9999981689454,0|2,1:0|0:0,0:0:0:0:
228,292,67203,1,0,0:0:0:0:
237,296,67284,6,0,P|287:292|330:267,1,99.9999969482423,4|0,0:3|0:0,0:0:0:0:
339,254,67768,1,0,1:0:0:0:
204,205,67929,1,0,0:0:0:0:
220,228,68010,1,2,0:0:0:0:
303,168,68171,1,2,0:0:0:0:
256,192,68251,5,8,0:3:0:0:
256,192,69219,5,4,0:3:0:0:
256,192,70187,5,0,0:0:0:0:
256,10,70429,5,2,0:0:0:0:
232,115,70671,2,0,P|259:120|289:112,1,50,0|0,1:0|0:0,0:0:0:0:
256,62,71074,1,0,0:0:0:0:
256,68,71155,5,4,0:0:0:0:
256,10,71397,1,0,0:0:0:0:
256,68,71639,1,0,1:0:0:0:
256,10,71880,1,0,0:0:0:0:
256,192,72122,5,0,3:0:0:0:
256,192,73090,5,0,3:0:0:0:
256,246,74058,5,2,0:0:0:0:
256,246,74542,6,2,L|256:256,12,8.33333333333333,0|0|0|0|0|0|0|0|0|0|0|0|0,0:0|0:0|0:0|0:0|0:0|0:0|0:0|0:0|0:0|0:0|0:0|0:0|0:0,0:0:0:0:
486,63,75812,6,0,L|506:51,2,12.5,2|0|0,0:0|0:0|0:0,0:0:0:0:
478,67,75993,6,0,P|467:53|460:17,1,50,4|2,0:1|0:0,0:0:0:0:
450,164,76397,1,0,0:0:0:0:
456,170,76477,2,0,P|467:156|474:120,1,50,0|2,1:0|0:0,0:0:0:0:
410,122,76881,1,0,0:0:0:0:
416,127,76961,2,0,P|418:85|398:49,1,83.3333333333333,4|0,0:3|0:0,0:0:0:0:
391,44,77445,2,0,P|380:30|373:-6,1,50,0|2,1:0|0:0,0:0:0:0:
427,4,77848,1,0,0:0:0:0:
434,9,77929,5,4,0:3:0:0:
307,158,78171,2,0,P|339:150|349:140,1,33.3333333333333,2|0,0:0|0:0,0:0:0:0:
346,144,78413,2,0,P|357:130|364:94,1,50,0|0,1:0|0:0,0:0:0:0:
342,45,78816,1,0,0:0:0:0:
337,51,78897,2,0,P|326:37|319:1,1,50,4|2,0:3|0:0,0:0:0:0:
307,99,79300,1,0,0:0:0:0:
302,105,79381,2,0,P|279:113|263:111,1,33.3333333333333,0|0,1:0|0:0,0:0:0:0:
263,110,79623,2,0,P|242:97|234:84,1,33.3333333333333,2|0,0:0|0:0,0:0:0:0:
234,83,79864,6,0,P|233:41|253:5,1,83.3333333333333,4|0,0:3|0:0,0:0:0:0:
259,0,80348,1,0,1:0:0:0:
193,134,80509,1,0,0:0:0:0:
187,129,80590,2,0,P|176:115|171:91,1,33.3333333333333,0|0,0:0|0:0,0:0:0:0:
172,92,80832,2,0,P|168:67|154:47,1,50,4|2,0:3|0:0,0:0:0:0:
74,103,81235,1,0,0:0:0:0:
67,101,81316,2,0,P|49:85|43:70,1,33.3333333333333,0|0,1:0|0:0,0:0:0:0:
41,70,81558,2,0,P|40:53|32:39,1,33.3333333333333,2|0,0:0|0:0,0:0:0:0:
25,32,81800,6,0,P|47:19|72:16,1,50,4|2,0:3|0:0,0:0:0:0:
154,47,82203,1,0,0:0:0:0:
159,53,82284,1,0,1:0:0:0:
173,141,82445,1,0,0:0:0:0:
167,147,82526,1,2,0:0:0:0:
74,161,82687,1,0,0:0:0:0:
66,159,82768,6,0,P|38:149|14:131,1,50,4|2,0:3|0:0,0:0:0:0:
121,101,83171,1,0,0:0:0:0:
111,102,83251,6,2,L|99:103,12,8.33333333333333,0|0|0|0|0|0|0|0|0|0|0|0|0,1:0|0:0|0:0|0:0|0:0|0:0|0:0|0:0|0:0|0:0|0:0|0:0|0:0,0:0:0:0:
