osu file format v14

[General]
AudioFilename: audio.mp3
AudioLeadIn: 0
PreviewTime: 27445
Countdown: 0
SampleSet: Soft
StackLeniency: 0.8
Mode: 0
LetterboxInBreaks: 0
WidescreenStoryboard: 1

[Editor]
Bookmarks: 8332,27606,75812
DistanceSpacing: 1.3
BeatDivisor: 6
GridSize: 4
TimelineZoom: 1

[Metadata]
Title:super anime groove 3d world
TitleUnicode:super anime groove 3d world
Artist:android52
ArtistUnicode:android52
Creator:pishifat
Version:Hard
Source:
Tags:_83 presents welcome new galaxy Recover Decoration リカバーデコレーション Kosaki Onodera Kana Hanazawa Nisekoi ニセコイ
BeatmapID:1220511
BeatmapSetID:533428

[Difficulty]
HPDrainRate:5
CircleSize:4.8
OverallDifficulty:5.5
ApproachRate:6.5
SliderMultiplier:1.4
SliderTickRate:1

[Events]
//Background and Video events
0,0,"328870313caf20ee138c285ba10ea0a8.jpg",0,0
//Break Periods
//Storyboard Layer 0 (Background)
//Storyboard Layer 1 (Fail)
//Storyboard Layer 2 (Pass)
//Storyboard Layer 3 (Foreground)
//Storyboard Sound Samples

[TimingPoints]
4381,483.870967741935,4,2,0,66,1,0
12122,-100,4,2,2,66,0,0
12445,-100,4,2,2,44,0,0
12687,-100,4,2,2,66,0,0
13574,-90.9090909090909,4,2,2,66,0,0
13655,-90.9090909090909,4,2,2,55,0,0
13735,-90.9090909090909,4,2,2,44,0,0
13816,-90.9090909090909,4,2,2,66,0,0
13856,-90.9090909090909,4,2,2,33,0,0
13977,-90.9090909090909,4,2,2,22,0,0
14058,-133.333333333333,4,2,2,66,0,0
20832,-108.695652173913,4,2,2,66,0,0
21155,-90.9090909090909,4,2,2,66,0,0
21800,-121.212121212121,4,2,2,66,0,0
27122,-100,4,2,2,50,0,0
27364,-100,4,2,2,40,0,0
27606,-133.333333333333,4,2,2,30,0,0
28090,-166.666666666667,4,2,2,20,0,0
28574,-200,4,2,2,10,0,0
29421,-200,4,2,2,10,0,0
29542,-200,4,2,2,10,0,0
30510,-181.818181818182,4,2,2,15,0,0
31477,-166.666666666667,4,2,2,22,0,0
32445,-153.846153846154,4,2,2,27,0,0
33413,-142.857142857143,4,2,2,32,0,0
35348,-133.333333333333,4,2,2,37,0,0
36316,-133.333333333333,4,2,2,43,0,0
37284,-125,4,2,2,52,0,0
38251,-125,4,2,2,64,0,0
38977,-117.647058823529,4,2,2,64,0,0
39219,-117.647058823529,4,2,2,72,0,0
40187,-117.647058823529,4,2,2,80,0,0
41155,-100,4,2,2,66,0,0
43574,-100,4,2,2,66,0,0
44300,-100,4,2,2,66,0,0
45026,-100,4,2,2,66,0,1
50832,-100,4,2,2,66,0,0
52768,-100,4,2,2,66,0,1
58574,-100,4,2,2,44,0,0
59703,-100,4,2,2,66,0,0
60510,-100,4,2,2,44,0,0
60993,-100,4,2,2,66,0,1
68251,-100,4,2,2,55,0,0
70429,-100,4,2,2,66,0,1
72122,-100,4,2,2,66,0,0
74582,-100,4,2,2,44,0,0
74663,-100,4,2,2,33,0,0
74743,-100,4,2,2,22,0,0
74905,-100,4,2,2,11,0,0
75026,-100,4,2,2,22,0,0
75792,-100,4,2,2,66,0,0
83332,-100,4,2,2,55,0,0
83413,-100,4,2,2,44,0,0
83493,-100,4,2,2,66,0,0
83534,-100,4,2,2,33,0,0
83655,-100,4,2,2,22,0,0
83735,-100,4,2,2,66,0,0

[Colours]
Combo1 : 245,237,205
Combo2 : 152,194,228
Combo3 : 149,154,176
Combo4 : 117,159,148

[HitObjects]
72,48,4380,6,0,P|124:52|152:80,1,70,0|0,0:0|0:0,0:0:0:0:
207,127,4864,2,0,P|259:123|287:95,1,70,0|0,1:0|0:0,0:0:0:0:
368,91,5348,2,0,P|317:111|325:165,1,116.666666666667,4|0,0:3|0:0,0:0:0:0:
324,164,5832,1,0,1:0:0:0:
368,249,6074,2,0,P|316:253|288:281,1,70,0|4,0:0|0:3,0:0:0:0:
229,342,6558,5,2,0:0:0:0:
217,256,6800,2,0,L|205:177,1,70,0|0,1:0|0:0,0:0:0:0:
120,307,7284,2,0,L|132:228,1,70,4|0,0:3|0:0,0:0:0:0:
43,262,7768,1,0,1:0:0:0:
22,188,8010,1,2,0:0:0:0:
108,109,8251,6,0,P|174:114|190:45,1,140,4|0,0:3|1:0,0:0:0:0:
273,9,8977,1,0,0:0:0:0:
310,96,9219,2,0,P|323:148|381:134,1,116.666666666667,4|0,0:3|0:0,0:0:0:0:
375,141,9703,2,0,P|427:145|455:173,1,70,0|2,1:0|0:0,0:0:0:0:
466,268,10187,6,0,L|384:258,1,70,4|0,0:3|0:0,0:0:0:0:
347,325,10671,2,0,L|277:333,1,70,0|2,1:0|0:0,0:0:0:0:
231,249,11155,2,0,L|151:224,1,70,4|0,0:3|0:0,0:0:0:0:
86,310,11639,2,0,L|19:330,1,70,0|2,1:0|0:0,0:0:0:0:
39,166,12122,6,0,P|52:184|53:207,1,46.6666666666667,2|2,0:3|0:3,0:0:0:0:
207,31,12848,2,0,P|193:49|192:72,1,46.6666666666667,2|2,0:3|0:3,0:0:0:0:
192,72,13574,2,0,B|231:64|231:64|269:94,1,77.0000023498536,0|0,0:1|0:0,0:0:0:0:
321,157,14058,5,4,0:3:0:0:
321,157,14542,2,0,P|352:151|375:129,1,52.5000020027161,0|0,1:0|0:0,0:0:0:0:
446,101,15026,2,0,L|456:161,1,52.5000020027161,4|0,0:3|0:0,0:0:0:0:
444,238,15510,2,0,P|422:223|396:219,1,52.5000020027161,0|0,1:0|0:0,0:0:0:0:
317,250,15993,2,0,L|265:258,1,52.5000020027161,4|0,0:3|0:0,0:0:0:0:
183,223,16477,5,0,1:0:0:0:
109,235,16719,1,0,0:0:0:0:
92,307,16961,1,4,0:3:0:0:
26,240,17203,5,0,0:0:0:0:
100,228,17445,1,0,1:0:0:0:
117,156,17687,1,0,0:0:0:0:
26,145,17929,5,4,0:3:0:0:
26,145,18413,2,0,P|10:118|11:85,1,52.5000020027161,0|0,1:0|0:0,0:0:0:0:
32,23,18897,2,0,L|-33:15,2,52.5000020027161,4|0|0,0:3|0:0|1:0,0:0:0:0:
98,68,19622,1,0,0:0:0:0:
169,22,19864,6,0,P|210:9|229:11,1,52.5000020027161,4|0,0:3|0:0,0:0:0:0:
276,68,20348,2,0,P|299:78|325:80,1,52.5000020027161,0|0,1:0|0:0,0:0:0:0:
415,75,20832,6,0,P|404:99|406:125,1,42.9333318920899,4|2,0:3|0:3,0:0:0:0:
403,115,21316,2,0,B|424:145|424:145|419:196,1,77.0000023498536,0|8,1:0|0:3,0:0:0:0:
374,255,21800,5,4,0:3:0:0:
308,208,22042,1,0,0:0:0:0:
233,236,22284,2,0,P|219:270|224:303,1,57.7500005507469,0|0,1:0|0:0,0:0:0:0:
258,368,22768,2,0,L|190:374,1,57.7500005507469,4|0,0:3|0:0,0:0:0:0:
117,380,23251,2,0,P|116:351|104:325,1,57.7500005507469,0|0,1:0|0:0,0:0:0:0:
43,270,23735,2,0,L|-24:264,1,57.7500005507469,4|0,0:3|0:0,0:0:0:0:
28,184,24219,5,0,1:0:0:0:
92,140,24461,1,0,0:0:0:0:
161,172,24703,1,4,0:3:0:0:
222,125,24945,1,0,0:0:0:0:
150,64,25187,5,0,1:0:0:0:
160,160,25429,1,0,0:0:0:0:
174,268,25671,6,0,P|214:281|231:280,1,57.7500005507469,4|0,0:3|0:0,0:0:0:0:
288,217,26155,2,0,P|314:205|343:204,1,57.7500005507469,0|0,1:0|0:0,0:0:0:0:
422,243,26639,1,4,0:3:0:0:
497,206,26880,1,0,0:0:0:0:
504,129,27122,1,0,1:0:0:0:
455,67,27364,1,0,0:0:0:0:
381,71,27606,6,0,P|350:66|319:49,1,52.5000020027161,8|0,0:3|0:0,0:0:0:0:
263,8,28090,2,0,P|233:9|214:19,1,41.9999987182618,2|0,0:3|0:0,0:0:0:0:
165,73,28574,2,0,B|170:109|170:109|185:128|185:128|175:153|175:153|190:198,1,122.5,0|0,3:0|0:0,0:0:0:0:
191,200,29542,6,0,P|225:216|267:210,1,70,0|2,3:3|0:3,0:0:0:0:
399,184,30510,2,0,P|365:168|323:174,1,77.0000023498536,0|2,3:0|0:3,0:0:0:0:
181,226,31477,6,0,P|221:234|256:213,1,83.9999974365235,0|2,3:0|0:3,0:0:0:0:
407,157,32445,2,0,P|363:147|327:172,1,90.9999958343508,0|2,3:0|0:3,0:0:0:0:
479,221,33413,6,0,L|489:121,2,97.9999970092774,0|0|0,3:0|1:0|3:0,0:0:0:0:
384,364,34864,2,0,P|350:348|335:331,1,48.9999985046387,0|0,1:0|0:0,0:0:0:0:
298,271,35348,6,0,P|261:277|235:299,1,52.5000020027161,0|0,3:0|0:0,0:0:0:0:
177,325,35832,2,0,P|140:319|114:297,1,52.5000020027161,0|0,1:0|0:0,0:0:0:0:
83,242,36316,2,0,L|75:169,1,52.5000020027161,0|0,3:0|0:0,0:0:0:0:
163,202,36800,2,0,L|171:129,1,52.5000020027161,0|0,1:0|0:0,0:0:0:0:
183,57,37284,5,0,1:0:0:0:
183,57,37526,1,0,1:0:0:0:
183,57,37768,2,0,P|217:58|251:39,1,56,0|0,1:0|1:0,0:0:0:0:
306,6,38251,1,0,1:0:0:0:
306,6,38493,1,0,1:0:0:0:
306,6,38735,2,0,P|340:5|374:24,1,56,0|0,1:0|1:0,0:0:0:0:
413,74,39219,5,0,1:0:0:0:
387,134,39461,1,0,1:0:0:0:
414,195,39703,2,0,L|485:202,1,59.5000011348725,0|0,1:0|1:0,0:0:0:0:
435,295,40187,1,0,1:0:0:0:
375,258,40429,1,0,1:0:0:0:
308,279,40671,1,0,1:0:0:0:
288,347,40913,1,0,1:0:0:0:
191,373,41155,5,0,3:0:0:0:
296,246,41880,5,0,3:0:0:0:
137,286,42606,5,2,3:2:0:0:
201,208,44300,5,2,0:0:0:0:
333,85,45026,5,4,0:1:0:0:
266,43,45268,1,0,0:0:0:0:
187,59,45510,2,0,P|150:59|114:35,1,70,0|0,1:0|0:0,0:0:0:0:
66,121,45993,1,4,0:3:0:0:
133,163,46235,1,0,0:0:0:0:
212,147,46477,2,0,P|249:147|285:171,1,70,0|0,1:0|0:0,0:0:0:0:
332,245,46961,5,8,0:3:0:0:
390,186,47203,1,0,0:0:0:0:
474,203,47445,2,0,L|467:125,1,70,0|0,1:0|0:0,0:0:0:0:
412,51,47929,1,8,0:3:0:0:
354,110,48171,1,0,0:0:0:0:
270,93,48413,2,0,L|277:171,1,70,0|0,1:0|0:0,0:0:0:0:
231,247,48897,5,4,0:3:0:0:
173,184,49139,2,0,P|151:179|129:183,2,35,0|0|0,0:0|0:0|1:0,0:0:0:0:
150,269,49622,1,0,0:0:0:0:
150,269,49743,1,0,0:0:0:0:
150,269,49864,1,4,0:3:0:0:
116,347,50106,2,0,P|132:351|150:350,2,35,0|0|0,0:0|0:0|1:0,0:0:0:0:
61,250,50590,1,0,0:0:0:0:
61,250,50711,1,0,0:0:0:0:
61,250,50832,6,0,P|61:205|45:180,1,70,2|0,0:3|0:0,0:0:0:0:
100,101,51316,2,0,P|145:101|170:85,1,70,2|0,1:3|0:0,0:0:0:0:
249,141,51800,2,0,P|249:186|265:211,1,70,2|0,0:3|0:0,0:0:0:0:
209,289,52284,2,0,P|164:289|139:305,1,70,2|0,1:3|0:0,0:0:0:0:
61,350,52768,5,4,0:1:0:0:
24,279,53010,1,0,0:0:0:0:
47,202,53252,2,0,P|50:165|29:127,1,70,0|0,1:0|0:0,0:0:0:0:
120,87,53735,1,4,0:3:0:0:
156,157,53977,1,0,0:0:0:0:
133,234,54219,2,0,P|129:270|150:308,1,70,0|0,1:0|0:0,0:0:0:0:
230,342,54703,5,8,0:3:0:0:
274,273,54945,1,0,0:0:0:0:
238,195,55187,2,0,L|315:184,1,70,0|0,1:0|0:0,0:0:0:0:
401,221,55671,1,8,0:3:0:0:
355,291,55913,1,0,0:0:0:0:
392,369,56155,2,0,L|314:379,1,70,0|0,1:0|0:0,0:0:0:0:
230,342,56639,5,4,0:3:0:0:
138,288,56881,2,0,P|133:266|137:244,2,35,0|0|0,0:0|0:0|1:0,0:0:0:0:
223,265,57364,1,0,0:0:0:0:
223,265,57485,1,0,0:0:0:0:
223,265,57606,1,4,0:3:0:0:
300,242,57848,2,0,P|304:258|303:276,2,35,0|0|0,0:0|0:0|1:0,0:0:0:0:
213,187,58332,1,0,0:0:0:0:
213,187,58453,1,0,0:0:0:0:
213,187,58574,5,2,0:3:0:0:
375,262,59058,1,2,0:3:0:0:
450,99,59542,1,2,0:3:0:0:
289,24,60026,1,2,1:3:0:0:
344,113,60268,1,0,1:0:0:0:
314,190,60510,5,4,0:3:0:0:
314,190,60751,1,4,0:3:0:0:
403,231,60993,6,0,P|432:213|467:216,1,70,4|0,1:2|0:0,0:0:0:0:
398,328,61477,2,0,P|342:335|325:286,1,116.666666666667,4|0,0:3|0:0,0:0:0:0:
324,286,61961,2,0,P|294:268|259:271,1,70,0|0,1:0|0:0,0:0:0:0:
177,321,62445,5,4,0:3:0:0:
112,274,62687,1,0,0:0:0:0:
130,196,62929,2,0,P|130:150|107:116,1,70,0|0,1:0|0:0,0:0:0:0:
86,43,63413,2,0,L|166:52,1,70,4|0,0:3|0:0,0:0:0:0:
230,7,63897,2,0,L|299:0,1,70,0|0,1:0|0:0,0:0:0:0:
407,22,64380,6,0,P|424:51|421:86,1,70,4|0,0:3|0:0,0:0:0:0:
349,128,64864,2,0,P|331:157|334:192,1,70,0|0,1:0|0:0,0:0:0:0:
408,231,65348,2,0,P|461:212|487:259,1,116.666666666667,4|0,0:3|0:0,0:0:0:0:
487,256,65832,1,0,1:0:0:0:
425,333,66074,1,0,0:0:0:0:
340,293,66316,6,0,P|308:296|273:328,1,70,4|0,0:3|0:0,0:0:0:0:
217,374,66800,2,0,P|185:371|150:339,1,70,0|0,1:0|0:0,0:0:0:0:
188,261,67284,2,0,P|167:307|109:280,1,116.666666666667,4|0,0:3|0:0,0:0:0:0:
113,290,67768,1,0,1:1:0:0:
36,306,68010,1,2,0:0:0:0:
0,233,68251,5,8,0:3:0:0:
225,151,69219,1,4,0:3:0:0:
465,73,70187,1,0,0:0:0:0:
422,135,70429,5,2,0:0:0:0:
358,94,70671,2,0,P|324:90|288:106,1,70,0|0,1:0|0:0,0:0:0:0:
223,154,71155,2,0,P|165:151|165:99,1,116.666666666667,4|0,0:0|0:0,0:0:0:0:
162,102,71639,1,0,1:0:0:0:
101,61,71880,1,0,0:0:0:0:
49,121,72122,5,0,3:0:0:0:
193,249,73090,1,0,3:0:0:0:
373,188,74058,1,2,0:0:0:0:
373,188,75026,1,0,0:0:0:0:
440,336,75993,6,0,P|388:332|360:304,1,70,4|0,0:1|0:0,0:0:0:0:
305,257,76477,2,0,P|253:261|225:289,1,70,0|0,1:0|0:0,0:0:0:0:
144,293,76961,2,0,P|195:273|187:219,1,116.666666666667,4|0,0:3|0:0,0:0:0:0:
188,220,77445,1,0,1:0:0:0:
144,135,77687,2,0,P|196:131|224:103,1,70,0|4,0:0|0:3,0:0:0:0:
283,42,78171,5,2,0:0:0:0:
295,128,78413,2,0,L|307:207,1,70,0|0,1:0|0:0,0:0:0:0:
392,77,78897,2,0,L|380:156,1,70,4|0,0:3|0:0,0:0:0:0:
469,122,79381,1,0,1:0:0:0:
490,196,79623,1,2,0:0:0:0:
404,275,79864,6,0,P|338:270|322:339,1,140,4|0,0:3|1:0,0:0:0:0:
235,369,80590,1,0,0:0:0:0:
202,288,80832,2,0,P|189:236|131:250,1,116.666666666667,4|0,0:3|0:0,0:0:0:0:
136,242,81316,2,0,P|84:238|56:210,1,70,0|2,1:0|0:0,0:0:0:0:
46,116,81800,6,0,L|128:126,1,70,4|0,0:3|0:0,0:0:0:0:
165,59,82284,2,0,L|234:50,1,70,0|2,1:0|0:0,0:0:0:0:
281,135,82768,2,0,L|360:159,1,70,4|2,0:3|0:0,0:0:0:0:
426,74,83252,2,0,L|492:53,1,70,0|0,1:0|0:0,0:0:0:0:
492,52,83735,5,0,0:0:0:0:
