osu file format v14

[General]
AudioFilename: audio.mp3
AudioLeadIn: 0
PreviewTime: 27445
Countdown: 0
SampleSet: Soft
StackLeniency: 0.8
Mode: 0
LetterboxInBreaks: 0
WidescreenStoryboard: 1

[Editor]
Bookmarks: 8332,27606,75812
DistanceSpacing: 1.2
BeatDivisor: 4
GridSize: 4
TimelineZoom: 1

[Metadata]
Title:super anime groove 3d world
TitleUnicode:super anime groove 3d world
Artist:android52
ArtistUnicode:android52
Creator:pishifat
Version:Easy
Source:
Tags:_83 presents welcome new galaxy Recover Decoration リカバーデコレーション Kosaki Onodera Kana Hanazawa Nisekoi ニセコイ
BeatmapID:1220510
BeatmapSetID:533428

[Difficulty]
HPDrainRate:2
CircleSize:2.6
OverallDifficulty:2
ApproachRate:2
SliderMultiplier:0.9
SliderTickRate:1

[Events]
//Background and Video events
0,0,"328870313caf20ee138c285ba10ea0a8.jpg",0,0
//Break Periods
//Storyboard Layer 0 (Background)
//Storyboard Layer 1 (Fail)
//Storyboard Layer 2 (Pass)
//Storyboard Layer 3 (Foreground)
//Storyboard Sound Samples

[TimingPoints]
4381,483.870967741935,4,2,0,66,1,0
12122,-100,4,2,2,66,0,0
12445,-100,4,2,2,44,0,0
12687,-100,4,2,2,66,0,0
13574,-100,4,2,2,66,0,0
13655,-100,4,2,2,55,0,0
13735,-100,4,2,2,44,0,0
13816,-100,4,2,2,66,0,0
13856,-100,4,2,2,33,0,0
13977,-100,4,2,2,22,0,0
14058,-100,4,2,2,66,0,0
20832,-100,4,2,2,66,0,0
21155,-100,4,2,2,66,0,0
21800,-100,4,2,2,66,0,0
27122,-100,4,2,2,50,0,0
27364,-100,4,2,2,40,0,0
27606,-111.111111111111,4,2,2,30,0,0
28090,-100,4,2,2,20,0,0
28574,-111.111111111111,4,2,2,10,0,0
29421,-125,4,2,2,10,0,0
29542,-125,4,2,2,10,0,0
30510,-125,4,2,2,15,0,0
31477,-125,4,2,2,22,0,0
32445,-125,4,2,2,27,0,0
33413,-125,4,2,2,32,0,0
35348,-125,4,2,2,37,0,0
36316,-125,4,2,2,43,0,0
37284,-111.111111111111,4,2,2,52,0,0
38251,-111.111111111111,4,2,2,64,0,0
38977,-90.9090909090908,4,2,2,64,0,0
39219,-90.9090909090908,4,2,2,72,0,0
40187,-90.9090909090908,4,2,2,80,0,0
41155,-90.9090909090908,4,2,2,66,0,0
43574,-125,4,2,2,66,0,0
44300,-125,4,2,2,66,0,0
45026,-100,4,2,2,66,0,1
50832,-100,4,2,2,66,0,0
52768,-100,4,2,2,66,0,1
58574,-100,4,2,2,44,0,0
59703,-100,4,2,2,66,0,0
60510,-100,4,2,2,44,0,0
60993,-100,4,2,2,66,0,1
68251,-125,4,2,2,55,0,0
70429,-100,4,2,2,66,0,1
72122,-125,4,2,2,66,0,0
75913,-100,4,2,2,66,0,0
83332,-100,4,2,2,55,0,0
83413,-100,4,2,2,44,0,0
83493,-100,4,2,2,66,0,0
83534,-100,4,2,2,33,0,0
83655,-100,4,2,2,22,0,0
83735,-100,4,2,2,66,0,0

[Colours]
Combo1 : 245,237,205
Combo2 : 152,194,228
Combo3 : 149,154,176
Combo4 : 117,159,148

[HitObjects]
238,103,4380,6,0,L|331:93,2,90,0|0|0,0:0|0:0|0:0,0:0:0:0:
130,114,5832,1,0,1:0:0:0:
22,125,6316,1,4,0:3:0:0:
84,213,6800,2,0,L|94:311,2,90,0|4|0,1:0|0:3|1:0,0:0:0:0:
130,114,8251,6,0,L|321:94,1,180,4|4,0:3|0:3,0:0:0:0:
416,85,9703,1,0,1:0:0:0:
374,184,10187,2,0,P|430:217|461:217,1,90,4|0,0:3|1:0,0:0:0:0:
443,325,11155,2,0,P|398:324|358:344,1,90,4|0,0:3|1:0,0:0:0:0:
294,257,12122,5,2,0:3:0:0:
246,106,14058,6,0,L|237:208,2,90,4|0|4,0:3|1:0|0:3,0:0:0:0:
141,78,15510,2,0,L|130:177,1,90,0|4,1:0|0:3,0:0:0:0:
158,272,16477,1,0,1:0:0:0:
238,195,16961,1,4,0:3:0:0:
272,297,17445,1,0,1:0:0:0:
346,219,17929,6,0,L|356:125,1,90,4|0,0:3|1:0,0:0:0:0:
460,155,18897,2,0,L|450:249,1,90,4|0,0:3|1:0,0:0:0:0:
375,321,19864,1,4,0:3:0:0:
272,297,20348,1,0,1:0:0:0:
199,377,20832,1,4,0:3:0:0:
62,154,21800,6,0,L|71:58,2,90,4|0|4,0:3|1:0|0:3,0:0:0:0:
167,179,23251,2,0,L|176:88,1,90,0|4,1:0|0:3,0:0:0:0:
256,17,24219,1,0,1:0:0:0:
337,89,24703,1,4,0:3:0:0:
439,54,25187,1,0,1:0:0:0:
426,161,25671,6,0,L|419:259,2,90,4|0|4,0:3|1:0|0:3,0:0:0:0:
296,15,27606,6,0,P|245:19|217:40,1,80.9999975280763,8|2,0:3|0:3,0:0:0:0:
173,121,28574,2,0,P|177:172|198:200,1,80.9999975280763,0|0,3:0|3:0,0:0:0:0:
270,252,29542,6,0,B|334:218|334:218|414:233,2,144,0|0|0,3:3|3:0|3:0,0:0:0:0:
150,171,32445,1,0,3:0:0:0:
237,56,33413,2,0,B|307:69|307:69|371:35,2,144,0|0|0,3:0|3:0|3:0,0:0:0:0:
145,37,35832,1,0,1:0:0:0:
52,20,36316,2,0,L|38:97,1,72,0|0,3:0|1:0,0:0:0:0:
22,186,37284,5,0,1:0:0:0:
36,282,37768,1,0,1:0:0:0:
110,355,38251,1,0,1:0:0:0:
221,375,38735,1,0,1:0:0:0:
327,317,39219,2,0,B|356:276|356:276|350:224,1,99.0000030212403,0|0,1:0|1:0,0:0:0:0:
256,138,40187,2,0,B|205:134|205:134|165:162,1,99.0000030212403,0|0,1:0|1:0,0:0:0:0:
81,259,41155,6,0,P|49:217|46:119,2,148.50000453186,0|0|2,3:0|3:0|3:2,0:0:0:0:
105,309,45026,6,0,P|148:307|195:278,1,90,4|0,0:1|1:0,0:0:0:0:
265,208,45993,2,0,P|309:210|348:232,1,90,4|0,0:3|1:0,0:0:0:0:
416,316,46961,5,8,0:3:0:0:
482,231,47445,1,0,1:0:0:0:
420,142,47929,1,8,0:3:0:0:
464,43,48413,1,0,1:0:0:0:
356,53,48897,6,0,L|262:46,1,90,4|0,0:3|1:0,0:0:0:0:
168,93,49864,2,0,L|78:99,1,90,4|0,0:3|1:0,0:0:0:0:
9,183,50832,2,0,B|31:218|31:218|36:271,1,90,2|2,0:3|1:3,0:0:0:0:
140,291,51800,2,0,B|165:254|165:254|218:231,1,90,2|2,0:3|1:3,0:0:0:0:
314,248,52768,6,0,P|312:205|283:158,1,90,4|0,0:1|1:0,0:0:0:0:
187,129,53735,2,0,P|189:84|211:45,1,90,4|0,0:3|1:0,0:0:0:0:
316,20,54703,5,8,0:3:0:0:
417,57,55187,1,0,1:0:0:0:
481,143,55671,1,8,0:3:0:0:
496,249,56155,1,0,1:0:0:0:
465,352,56639,6,0,L|371:359,1,90,4|0,0:3|1:0,0:0:0:0:
308,273,57606,2,0,L|218:266,1,90,4|0,0:3|1:0,0:0:0:0:
119,220,58574,2,0,B|101:260|101:260|114:313,2,90,2|2|2,0:3|0:3|0:3,0:0:0:0:
205,155,60026,2,0,L|193:56,1,90,2|4,1:3|0:3,0:0:0:0:
297,96,60993,5,4,1:2:0:0:
378,30,61477,2,0,P|430:42|458:67,1,90,4|0,0:3|1:0,0:0:0:0:
434,171,62445,2,0,P|390:236|421:338,1,180,4|4,0:3|0:3,0:0:0:0:
317,379,63897,1,0,1:0:0:0:
279,277,64380,6,0,P|238:245|202:241,1,90,4|0,0:3|1:0,0:0:0:0:
104,289,65348,2,0,L|96:190,1,90,4|0,0:3|1:0,0:0:0:0:
134,97,66316,6,0,P|175:129|211:133,1,90,4|0,0:3|1:0,0:0:0:0:
309,85,67284,2,0,L|317:184,1,90,4|0,0:3|1:0,0:0:0:0:
412,120,68251,6,0,P|446:56|516:60,2,144,8|4|0,0:3|0:3|0:0,0:0:0:0:
100,120,72122,2,0,P|66:56|-4:60,2,144,0|0|2,3:0|3:0|0:0,0:0:0:0:
274,281,75993,6,0,L|181:291,2,90,4|0|4,0:1|1:0|0:3,0:0:0:0:
382,270,77445,1,0,1:0:0:0:
490,259,77929,1,4,0:3:0:0:
428,171,78413,2,0,L|418:73,2,90,0|4|0,1:0|0:3|1:0,0:0:0:0:
382,270,79864,6,0,L|191:290,1,180,4|4,0:3|0:3,0:0:0:0:
96,299,81316,1,0,1:0:0:0:
138,200,81800,2,0,P|82:167|51:167,1,90,4|0,0:3|1:0,0:0:0:0:
69,59,82768,2,0,P|113:59|153:39,1,90,4|0,0:3|1:0,0:0:0:0:
218,127,83735,5,0,0:0:0:0:
