osu file format v14

[General]
AudioFilename: audio.mp3
AudioLeadIn: 0
PreviewTime: -1
Countdown: 1
SampleSet: Soft
StackLeniency: 0.7
Mode: 2
LetterboxInBreaks: 0
WidescreenStoryboard: 1

[Editor]
Bookmarks: 14058,57848,58332
DistanceSpacing: 1
BeatDivisor: 8
GridSize: 16
TimelineZoom: 2.699999

[Metadata]
Title:super anime groove 3d world
TitleUnicode:super anime groove 3d world
Artist:android52
ArtistUnicode:android52
Creator:Spectator
Version:overdose 3
Source:
Tags:Bunnrei Chara -Ken Crowley P i k u P_i_k_u Jemzuu AJamez
BeatmapID:1448063
BeatmapSetID:680063

[Difficulty]
HPDrainRate:5
CircleSize:5
OverallDifficulty:9.2
ApproachRate:9.2
SliderMultiplier:2.59999990463257
SliderTickRate:4

[Events]
//Background and Video events
0,0,"anime.jpg",0,0
//Break Periods
//Storyboard Layer 0 (Background)
//Storyboard Layer 1 (Fail)
//Storyboard Layer 2 (Pass)
//Storyboard Layer 3 (Foreground)
//Storyboard Layer 4 (Overlay)
//Storyboard Sound Samples

[TimingPoints]
4381,483.870967741935,4,2,1,70,1,0
12122,-58.8235294117647,4,2,1,70,0,0
14058,-100,4,2,1,70,0,0
20993,-100,4,2,1,70,0,0
21800,-100,4,2,1,70,0,0
27606,-100,4,2,1,57,0,0
28090,-100,4,2,1,36,0,0
28574,-100,4,2,1,15,0,0
29058,-100,4,2,1,9,0,0
30429,-100,4,2,1,12,0,0
32929,-100,4,2,1,17,0,0
34300,-100,4,2,1,22,0,0
34784,-100,4,2,1,26,0,0
35268,-100,4,2,1,30,0,0
36719,-100,4,2,1,41,0,0
37284,-100,4,2,1,50,0,0
39219,-100,4,2,1,60,0,0
45026,-100,4,2,1,80,0,1
45106,-100,4,2,1,80,0,0
60026,-50,4,2,1,80,0,0
60510,480,4,2,1,80,1,0
60993,483.870967741935,4,2,1,80,1,0
60993,-100,4,2,1,80,0,0
62444,483.870967741935,4,2,1,80,1,0
62444,-100,4,2,1,80,0,0
74542,-100,4,2,1,50,0,0
75751,-100,4,2,1,80,0,0
75992,-100,4,2,1,80,0,1
76074,-100,4,2,1,80,0,0

[Colours]
Combo1 : 255,209,134
Combo2 : 255,136,148
Combo3 : 122,254,248
Combo4 : 150,253,138

[HitObjects]
149,249,4139,5,2,0:0:0:0:
190,239,4219,1,0,0:0:0:0:
232,229,4300,1,0,0:0:0:0:
414,258,4380,6,0,L|431:117,1,129.999995231628,0|0,1:0|0:0,0:0:0:0:
295,127,4784,1,0,0:0:0:0:
416,134,4864,2,0,P|451:92|416:34,1,129.999995231628,8|0,1:0|0:0,0:0:0:0:
98,258,5348,6,0,L|81:117,1,129.999995231628,0|0,1:0|0:0,0:0:0:0:
217,127,5752,1,0,0:0:0:0:
96,134,5832,2,0,P|61:92|96:34,1,129.999995231628,8|0,1:0|0:0,0:0:0:0:
227,59,6235,2,0,L|237:7,1,43.3333317438762,2|0,0:0|1:0,0:0:0:0:
85,170,6558,6,0,L|194:170,1,86.6666634877523,2|0,0:0|0:0,0:0:0:0:
253,256,6800,2,0,L|110:256,1,129.999995231629,8|0,1:0|0:0,0:0:0:0:
406,269,7284,2,0,P|460:232|442:171,1,129.999995231629,0|0,1:0|0:0,0:0:0:0:
323,179,7687,2,0,P|307:136|418:109,1,173.333326975505,2|0,0:0|0:0,0:0:0:0:
150,276,8251,6,0,L|300:264,2,129.999995231629,0|2|8,1:0|0:0|1:0,0:0:0:0:
306,219,8977,2,0,L|313:148,1,64.9999976158143,2|0,0:0|0:0,0:0:0:0:
127,177,9219,6,0,P|101:141|143:62,1,129.999995231629,0|2,1:0|0:0,0:0:0:0:
266,72,9622,1,2,0:0:0:0:
41,260,9703,2,0,L|23:112,1,129.999995231629,8|2,1:0|0:0,0:0:0:0:
214,277,10187,6,0,P|286:265|259:140,1,216.666658719381,0|0,1:0|0:0,0:0:0:0:
192,144,10671,2,0,L|338:141,1,129.999995231629,8|0,1:0|0:0,0:0:0:0:
87,147,11155,1,0,0:0:0:0:
336,141,11397,1,0,0:0:0:0:
22,151,11639,6,0,L|10:115,4,32.4999988079071,4|0|0|0|2,0:0|0:0|0:0|0:0|0:0,0:0:0:0:
97,151,12122,5,0,1:0:0:0:
332,148,12284,1,0,1:0:0:0:
87,199,12526,2,4,L|54:73,1,73.6666653696696,4|4,3:0|3:0,3:0:0:0:
437,254,12848,5,0,1:0:0:0:
202,251,13010,1,4,1:2:0:0:
490,151,13574,6,0,L|502:115,12,32.4999988079071,2|0|0|0|0|0|0|0|0|0|0|0|0,0:0|0:0|0:0|0:0|0:0|0:0|0:0|0:0|0:0|0:0|0:0|0:0|0:0,0:0:0:0:
259,162,14058,6,0,P|208:132|143:169,1,129.999995231629,0|0,1:0|0:0,0:0:0:0:
296,257,14542,1,0,1:0:0:0:
116,271,14784,1,0,0:0:0:0:
352,360,15026,2,0,L|375:207,1,129.999995231629,0|0,1:0|0:0,0:0:0:0:
177,234,15510,1,0,1:0:0:0:
352,234,15751,1,0,0:0:0:0:
139,289,15993,6,0,P|98:229|213:160,1,216.666658719381,0|0,1:0|0:0,0:0:0:0:
286,164,16477,2,0,L|123:168,1,129.999995231629,0|0,1:0|0:0,0:0:0:0:
346,331,16961,1,0,1:0:0:0:
369,157,17203,1,0,0:0:0:0:
116,232,17445,1,0,1:0:0:0:
345,224,17687,1,0,0:0:0:0:
55,274,17929,6,0,L|163:260,1,86.6666634877523,0|0,1:0|0:0,0:0:0:0:
236,278,18171,1,2,0:0:0:0:
442,265,18413,2,0,L|295:250,1,129.999995231629,0|0,1:0|0:0,0:0:0:0:
101,349,18897,1,0,1:0:0:0:
340,298,19139,1,2,0:0:0:0:
61,269,19380,2,0,P|54:185|112:155,1,129.999995231629,0|0,1:0|0:0,0:0:0:0:
296,198,19864,6,0,L|309:39,1,129.999995231629,0|0,1:0|0:0,0:0:0:0:
132,153,20348,2,0,L|117:68,1,86.6666634877523,0|2,1:0|0:0,0:0:0:0:
435,102,20711,1,0,3:0:0:0:
59,143,20993,1,4,0:0:0:0:
291,143,21316,2,0,L|185:142,1,86.6666634877523,0|0,1:0|3:0,0:0:0:0:
49,158,21558,1,0,3:0:0:0:
313,165,21800,5,4,0:0:0:0:
152,308,22042,2,0,P|118:264|132:220,1,86.6666634877523,2|0,0:0|0:0,0:0:0:0:
216,231,22284,2,0,L|64:233,1,129.999995231629,0|0,1:0|0:0,0:0:0:0:
281,236,22768,5,0,1:0:0:0:
55,305,23010,2,0,L|27:193,1,86.6666634877523,2|0,0:0|0:0,0:0:0:0:
191,155,23251,2,0,P|248:168|349:143,1,129.999995231629,0|0,1:0|0:0,0:0:0:0:
135,263,23735,5,0,1:0:0:0:
386,263,23977,1,0,0:0:0:0:
149,338,24219,2,0,L|118:207,1,129.999995231629,0|0,1:0|0:0,0:0:0:0:
280,218,24703,2,0,L|301:119,1,86.6666634877523,0|0,3:0|0:0,0:0:0:0:
227,83,24945,1,0,3:0:0:0:
64,173,25187,2,0,L|41:33,1,129.999995231629,0|2,1:0|0:0,0:0:0:0:
246,280,25671,6,0,P|294:246|207:145,1,216.666658719381,0|0,1:0|0:0,0:0:0:0:
139,172,26155,2,0,P|139:122|205:73,1,129.999995231629,0|0,1:0|0:0,0:0:0:0:
342,144,26558,2,0,L|396:142,1,43.3333317438762,0|0,0:0|3:0,0:0:0:0:
216,295,26800,2,0,L|156:298,1,43.3333317438762,0|0,0:0|3:0,0:0:0:0:
361,275,27122,5,0,1:0:0:0:
137,193,27284,1,2,3:2:0:0:
374,348,27606,2,0,P|406:308|358:227,1,129.999995231629,0|2,1:0|0:0,0:0:0:0:
302,206,27969,1,0,0:0:0:0:
92,245,28090,2,0,P|59:205|107:124,1,129.999995231629,0|2,1:0|0:0,0:0:0:0:
163,103,28453,1,0,0:0:0:0:
365,257,28574,5,0,3:0:0:0:
412,212,28695,1,0,0:0:0:0:
394,149,28816,1,0,0:0:0:0:
332,128,28937,1,0,0:0:0:0:
147,257,29058,1,0,3:0:0:0:
100,212,29179,1,0,0:0:0:0:
118,149,29300,1,0,0:0:0:0:
180,128,29421,1,0,0:0:0:0:
366,263,29542,6,0,P|408:233|400:156,1,129.999995231629,0|0,3:0|0:0,0:0:0:0:
294,159,29965,1,0,0:0:0:0:
134,161,30026,2,0,P|93:100|121:58,1,129.999995231629,0|0,3:0|0:0,0:0:0:0:
283,101,30510,6,0,L|432:101,1,129.999995231629
456,218,30933,1,0,0:0:0:0:
385,273,30993,2,0,L|245:275,1,129.999995231629,0|0,3:0|0:0,0:0:0:0:
387,192,31417,2,0,L|396:139,1,32.4999988079071,0|2,0:0|3:2,0:0:0:0:
131,221,31719,5,0,0:0:0:0:
328,222,31961,1,0,3:0:0:0:
106,243,32203,1,0,0:0:0:0:
321,255,32445,2,0,L|330:172,1,64.9999976158143
92,189,32687,2,0,P|39:137|45:62,1,129.999995231629,0|2,0:0|3:2,0:0:0:0:
272,160,33171,6,0,L|185:161,1,86.6666634877523,2|0,0:0|0:0,0:0:0:0:
401,297,33413,5,2,0:0:0:0:
431,148,33655,1,0,0:0:0:0:
205,227,33897,1,2,0:0:0:0:
439,227,34139,1,0,0:0:0:0:
87,348,34380,2,0,P|41:302|40:258,1,86.6666634877523,2|0,0:0|0:0,0:0:0:0:
246,168,34622,2,0,L|408:170,2,129.999995231629,2|0|0,0:0|3:0|0:0,0:0:0:0:
360,96,35268,2,0,L|368:39,1,43.3333317438762,0|2,0:0|0:0,0:0:0:0:
51,113,35590,5,0,0:0:0:0:
347,225,35832,1,0,0:0:0:0:
32,357,36074,2,0,L|11:254,1,86.6666634877523,2|0,0:0|0:0,0:0:0:0:
304,272,36316,5,2,0:0:0:0:
96,192,36558,1,0,0:0:0:0:
320,144,36800,1,2,0:0:0:0:
106,145,37042,2,0,L|-6:138,1,86.6666634877523,2|0,0:0|0:0,0:0:0:0:
341,355,37284,5,0,1:0:0:0:
433,205,37526,1,0,1:0:0:0:
260,271,37768,1,0,1:0:0:0:
445,242,38010,1,0,1:0:0:0:
208,175,38251,1,0,1:0:0:0:
460,285,38493,1,0,1:0:0:0:
180,64,38735,1,0,1:0:0:0:
474,339,38977,1,0,1:0:0:0:
39,351,39219,5,4,1:2:0:0:
435,93,39461,1,0,1:0:0:0:
118,368,39703,1,0,1:0:0:0:
365,37,39945,1,0,1:0:0:0:
209,356,40187,1,0,1:0:0:0:
380,232,40429,6,0,L|386:149,1,64.9999976158143,0|0,1:0|2:0,1:0:0:0:
195,133,40671,2,0,L|352:134,1,129.999995231629,0|0,1:0|1:0,1:0:0:0:
86,151,41155,5,4,0:0:0:0:
438,151,41397,1,2,0:0:0:0:
19,169,41639,1,2,0:0:0:0:
186,264,41880,2,0,L|343:261,1,129.999995231629,4|0,0:0|0:0,0:0:0:0:
22,265,42364,1,2,0:0:0:0:
469,363,42606,6,0,B|481:137|481:137|31:289|31:289|11:68,1,909.999966621399,4|2,0:0|0:0,0:0:0:0:
32,176,44784,2,0,L|20:91,1,64.9999976158143,2|0,0:0|0:0,0:0:0:0:
286,207,45026,6,0,L|444:208,1,129.999995231629,0|0,1:0|0:0,0:0:0:0:
337,208,45389,1,0,0:0:0:0:
95,225,45510,2,0,L|76:97,1,129.999995231629,8|0,1:0|0:0,0:0:0:0:
328,103,45993,1,0,0:0:0:0:
166,167,46235,2,0,L|64:166,1,64.9999976158143,2|0,0:0|0:0,0:0:0:0:
333,293,46477,2,0,L|484:293,1,129.999995231629,8|0,1:0|0:0,0:0:0:0:
26,200,46961,5,4,0:0:0:0:
278,187,47203,1,2,0:0:0:0:
382,179,47324,1,0,0:0:0:0:
166,87,47445,2,0,L|315:82,1,129.999995231629,8|0,1:0|0:0,0:0:0:0:
112,208,47929,2,0,P|90:161|109:101,1,64.9999976158143,0|0,1:0|0:0,0:0:0:0:
275,208,48171,2,0,P|297:161|278:101,1,64.9999976158143,2|0,2:0|0:0,0:0:0:0:
208,211,48413,2,0,P|186:164|205:104,1,64.9999976158143,8|0,1:0|0:0,0:0:0:0:
371,211,48655,2,0,P|393:164|374:104,1,64.9999976158143,2|0,2:0|0:0,0:0:0:0:
41,224,48897,6,0,P|44:160|131:105,1,129.999995231629,0|2,1:0|0:0,0:0:0:0:
192,114,49260,1,2,0:0:0:0:
471,224,49380,2,0,P|468:160|381:105,1,129.999995231629,8|2,1:0|0:0,0:0:0:0:
320,114,49743,1,2,0:0:0:0:
41,224,49864,2,0,P|44:160|131:105,1,129.999995231629,0|2,1:0|0:0,0:0:0:0:
192,114,50227,1,2,0:0:0:0:
471,224,50348,2,0,P|468:160|381:105,1,129.999995231629,8|2,1:0|0:0,0:0:0:0:
320,114,50711,1,2,0:0:0:0:
62,309,50832,6,0,P|57:249|195:160,1,227.49999165535,0|0,1:0|0:0,0:0:0:0:
178,157,51316,2,0,P|82:147|36:26,1,227.49999165535,0|0,1:0|0:0,2:0:0:0:
33,36,51800,2,0,L|283:35,1,227.49999165535,0|0,1:0|0:0,0:0:0:0:
260,35,52284,2,0,L|33:36,1,227.49999165535,0|0,1:0|0:0,0:0:0:0:
35,126,52768,6,0,L|201:137,1,129.999995231629,0|2,1:0|0:0,0:0:0:0:
349,113,53251,1,8,1:0:0:0:
161,304,53493,2,0,L|141:224,1,64.9999976158143,2|0,0:0|0:0,0:0:0:0:
393,225,53735,2,0,P|441:168|386:96,1,129.999995231629,0|2,1:0|0:0,0:0:0:0:
318,118,54098,1,0,0:0:0:0:
106,181,54219,1,8,1:0:0:0:
437,168,54461,1,2,0:0:0:0:
65,317,54703,6,0,L|32:172,1,129.999995231629,0|2,1:0|0:0,0:0:0:0:
212,316,55187,2,0,L|179:171,1,129.999995231629,8|2,1:0|0:0,0:0:0:0:
355,328,55671,2,0,L|322:183,1,129.999995231629,0|2,1:0|0:0,0:0:0:0:
502,327,56155,2,0,L|469:182,1,129.999995231629,8|2,1:0|0:0,0:0:0:0:
178,263,56639,5,0,1:0:0:0:
333,254,56880,1,2,0:0:0:0:
193,255,57001,1,0,0:0:0:0:
368,253,57122,1,8,1:0:0:0:
399,253,57364,1,2,0:0:0:0:
234,255,57485,1,0,0:0:0:0:
368,253,57606,1,0,1:0:0:0:
148,253,57848,1,2,0:0:0:0:
304,255,57969,1,0,0:0:0:0:
104,253,58090,1,8,1:0:0:0:
288,258,58332,1,2,0:0:0:0:
164,258,58453,1,0,0:0:0:0:
432,345,58574,6,0,L|441:98,1,227.49999165535,2|0,2:0|0:0,0:0:0:0:
373,121,59058,2,0,L|381:348,1,227.49999165535,2|0,0:0|0:0,0:0:0:0:
314,351,59542,2,0,L|322:123,1,227.49999165535,2|0,0:0|0:0,0:0:0:0:
253,118,60026,6,0,L|271:383,1,259.999990463257,0|0,1:0|1:0,1:0:0:0:
48,208,60510,1,0,3:0:0:0:
480,192,60750,1,0,3:0:0:0:
86,296,60993,6,0,P|53:253|87:169,1,129.999995231629,4|0,0:0|0:0,0:0:0:0:
214,179,61396,1,0,0:0:0:0:
404,183,61476,2,0,L|419:66,1,86.6666634877523,0|0,1:0|0:0,0:0:0:0:
215,71,61718,2,0,L|66:68,2,129.999995231629,2|8|2,0:0|1:0|0:0,0:0:0:0:
419,323,62444,6,0,P|449:270|431:222,1,86.6666634877523,4|0,0:0|0:0,0:0:0:0:
302,212,62685,2,0,L|441:213,1,129.999995231629,2|8,0:0|1:0,0:0:0:0:
215,208,63169,1,2,0:0:0:0:
80,211,63290,1,0,0:0:0:0:
344,263,63411,2,0,P|384:198|318:137,1,129.999995231629,0|0,1:0|0:0,0:0:0:0:
134,159,63895,1,0,1:0:0:0:
325,162,64137,1,2,0:0:0:0:
469,160,64258,1,0,0:0:0:0:
69,328,64379,6,0,L|160:308,1,86.6666634877523,0|0,3:0|0:0,0:0:0:0:
235,144,64621,2,0,L|339:125,1,86.6666634877523,0|0,3:0|0:0,0:0:0:0:
500,258,64863,2,0,L|337:232,1,129.999995231629,8|0,1:0|0:0,0:0:0:0:
52,234,65347,6,0,L|34:96,1,129.999995231629,0|0,1:0|0:0,0:0:0:0:
234,103,65831,1,0,1:0:0:0:
35,143,66073,1,2,0:0:0:0:
215,142,66194,1,0,0:0:0:0:
467,215,66314,6,0,P|474:163|445:112,1,86.6666634877523,4|0,0:0|0:0,0:0:0:0:
266,258,66556,2,0,L|160:244,1,86.6666634877523,2|0,0:0|0:0,0:0:0:0:
3,149,66798,1,8,1:0:0:0:
385,145,67040,1,2,0:0:0:0:
191,227,67282,2,0,P|147:188|139:142,1,64.9999976158143,0|0,3:0|0:0,0:0:0:0:
330,182,67524,1,2,0:0:0:0:
145,183,67766,2,0,P|106:135|120:80,1,86.6666634877523,8|0,1:0|0:0,0:0:0:0:
367,183,68008,2,0,P|406:135|392:80,1,86.6666634877523,2|0,2:0|0:0,0:0:0:0:
185,280,68250,5,4,0:0:0:0:
221,161,68492,1,0,0:0:0:0:
16,278,68734,1,2,0:0:0:0:
52,159,68976,1,0,0:0:0:0:
324,132,69218,2,0,L|162:134,1,129.999995231629,4|0,0:0|0:0,0:0:0:0:
368,240,69702,5,0,0:0:0:0:
251,305,69863,1,0,3:0:0:0:
310,304,69943,1,0,3:0:0:0:
96,304,70185,1,4,3:0:0:0:
502,134,70427,1,2,0:0:0:0:
273,142,70669,1,4,0:0:0:0:
381,147,70790,1,2,0:0:0:0:
407,71,71073,1,2,0:0:0:0:
104,267,71153,2,0,L|70:130,1,129.999995231629,4|0,0:0|0:0,0:0:0:0:
226,149,71637,1,8,1:0:0:0:
76,186,71798,1,0,3:0:0:0:
137,187,71879,1,0,3:0:0:0:
509,189,72121,5,4,0:0:0:0:
3,189,73089,5,0,0:0:0:0:
345,280,74056,2,0,P|382:240|333:186,1,129.999995231629,2|0,0:0|0:0,0:0:0:0:
157,210,74540,6,0,L|115:192,7,32.4999988079071,2|0|0|0|0|0|0|0,0:0|0:0|0:0|0:0|0:0|0:0|0:0|0:0,0:0:0:0:
381,197,75024,1,2,0:0:0:0:
77,319,75992,6,0,P|44:273|43:212,1,86.6666634877523,0|0,1:0|0:0,0:0:0:0:
111,175,76234,2,0,L|209:169,1,86.6666634877523,0|0,3:0|0:0,0:0:0:0:
397,96,76476,2,0,L|248:86,1,129.999995231629,8|0,1:0|0:0,0:0:0:0:
447,333,76960,6,0,L|463:212,1,86.6666634877523,0|0,1:0|0:0,0:0:0:0:
309,239,77202,2,0,L|271:123,1,86.6666634877523,0|0,3:0|0:0,0:0:0:0:
56,246,77443,2,0,L|224:241,1,129.999995231629,8|0,1:0|0:0,0:0:0:0:
338,179,77847,1,0,3:0:0:0:
181,159,77927,1,4,0:0:0:0:
377,149,78169,5,0,0:0:0:0:
150,178,78411,1,8,1:0:0:0:
441,253,78653,1,0,0:0:0:0:
49,327,78895,2,0,L|30:174,1,129.999995231629,0|2,1:0|0:0,0:0:0:0:
239,143,79258,2,0,L|16:142,1,194.999992847443,0|0,3:0|0:0,0:0:0:0:
310,298,79863,6,0,P|365:278|398:196,1,129.999995231629,0|0,1:0|0:0,0:0:0:0:
190,202,80267,1,0,3:0:0:0:
380,200,80347,2,0,L|269:202,1,86.6666634877523,8|0,1:0|0:0,0:0:0:0:
114,187,80589,2,0,L|6:194,1,86.6666634877523,2|0,0:0|0:0,0:0:0:0:
471,343,80831,6,0,L|479:186,1,129.999995231629,0|0,1:0|0:0,0:0:0:0:
235,340,81314,2,0,L|243:183,1,129.999995231629,8|0,1:0|0:0,0:0:0:0:
448,208,81798,5,0,0:0:0:0:
103,272,82040,2,0,L|74:148,1,86.6666634877523,0|0,3:0|0:0,0:0:0:0:
421,197,82282,1,8,1:0:0:0:
181,187,82524,2,0,L|71:187,1,86.6666634877523,2|0,0:0|0:0,0:0:0:0:
399,168,82766,1,0,1:0:0:0:
77,125,83008,2,0,L|178:122,1,86.6666634877523,2|0,0:0|0:0,0:0:0:0:
431,206,83250,6,0,L|442:169,3,32.4999988079071,2|0|0|0,0:0|0:0|0:0|0:0,0:0:0:0:
289,206,83492,2,0,L|300:169,3,32.4999988079071,2|0|0|0,0:0|0:0|0:0|0:0,0:0:0:0:
79,208,83734,1,4,0:0:0:0:
