osu file format v14

[General]
AudioFilename: audio.mp3
AudioLeadIn: 0
PreviewTime: -1
Countdown: 1
SampleSet: Soft
StackLeniency: 0.7
Mode: 2
LetterboxInBreaks: 0
WidescreenStoryboard: 1

[Editor]
DistanceSpacing: 1
BeatDivisor: 8
GridSize: 4
TimelineZoom: 1.5

[Metadata]
Title:super anime groove 3d world
TitleUnicode:super anime groove 3d world
Artist:android52
ArtistUnicode:android52
Creator:Spectator
Version:overdose 1
Source:
Tags:Bunnrei Chara -Ken Crowley P i k u P_i_k_u Jemzuu AJamez
BeatmapID:1444820
BeatmapSetID:680063

[Difficulty]
HPDrainRate:6
CircleSize:4
OverallDifficulty:9.3
ApproachRate:9.3
SliderMultiplier:3
SliderTickRate:1

[Events]
//Background and Video events
0,0,"anime.jpg",0,0
//Break Periods
//Storyboard Layer 0 (Background)
//Storyboard Layer 1 (Fail)
//Storyboard Layer 2 (Pass)
//Storyboard Layer 3 (Foreground)
//Storyboard Layer 4 (Overlay)
//Storyboard Sound Samples

[TimingPoints]
4381,483.870967741935,4,2,1,70,1,0
27606,-100,4,2,1,57,0,0
28090,-100,4,2,1,36,0,0
28574,-125,4,2,1,15,0,0
29058,-125,4,2,1,9,0,0
30429,-125,4,2,1,12,0,0
32929,-125,4,2,1,17,0,0
34300,-125,4,2,1,22,0,0
34784,-125,4,2,1,26,0,0
35268,-125,4,2,1,30,0,0
36719,-125,4,2,1,41,0,0
37284,-66.6666666666667,4,2,1,50,0,0
39219,-66.6666666666667,4,2,1,60,0,0
45026,-83.3333333333333,4,2,1,80,0,1
45106,-83.3333333333333,4,2,1,80,0,0
60026,-50,4,2,1,80,0,0
60993,-76.9230769230769,4,2,1,80,0,1
61054,-76.9230769230769,4,2,1,80,0,0
74542,-76.9230769230769,4,2,1,50,0,0
75751,-76.9230769230769,4,2,1,80,0,0
75993,-76.9230769230769,4,2,1,80,0,1
76074,-76.9230769230769,4,2,1,80,0,0

[Colours]
Combo1 : 255,209,134
Combo2 : 255,136,148
Combo3 : 122,254,248
Combo4 : 150,253,138

[HitObjects]
126,161,4139,5,2,0:0:0:0:
65,190,4219,1,0,0:0:0:0:
131,177,4300,1,0,0:0:0:0:
314,253,4380,5,0,1:0:0:0:
446,167,4542,1,0,0:0:0:0:
392,147,4622,1,2,0:0:0:0:
236,90,4784,1,0,0:0:0:0:
292,71,4864,1,8,1:0:0:0:
456,27,5026,1,0,0:0:0:0:
399,8,5106,1,2,0:0:0:0:
198,253,5348,5,0,1:0:0:0:
63,164,5510,1,0,0:0:0:0:
120,147,5590,1,2,0:0:0:0:
276,89,5752,1,0,0:0:0:0:
220,71,5832,1,8,1:0:0:0:
50,27,5994,1,0,0:0:0:0:
113,8,6074,1,2,0:0:0:0:
346,252,6316,5,0,1:0:0:0:
139,332,6558,1,2,0:0:0:0:
315,277,6719,1,0,0:0:0:0:
154,219,6800,1,8,1:0:0:0:
321,127,7042,1,2,0:0:0:0:
24,191,7284,5,0,1:0:0:0:
231,271,7526,1,2,0:0:0:0:
55,216,7687,1,0,0:0:0:0:
216,158,7768,1,8,1:0:0:0:
49,66,8010,1,2,0:0:0:0:
338,315,8251,6,0,P|450:286|374:159,1,300,0|8,1:0|0:0,0:0:0:0:
225,159,8977,1,2,0:0:0:0:
116,160,9098,1,0,0:0:0:0:
237,162,9219,1,0,1:0:0:0:
358,68,9380,1,0,0:0:0:0:
292,78,9461,1,0,0:0:0:0:
107,147,9703,1,8,1:0:0:0:
299,251,9945,1,2,0:0:0:0:
34,294,10187,5,0,1:0:0:0:
206,264,10429,1,2,0:0:0:0:
224,137,10590,1,0,0:0:0:0:
37,213,10671,5,8,1:0:0:0:
209,183,10913,1,2,0:0:0:0:
227,56,11074,1,0,0:0:0:0:
393,277,11155,5,0,1:0:0:0:
221,247,11397,1,2,0:0:0:0:
203,120,11558,1,0,0:0:0:0:
369,196,11639,2,0,B|487:184|487:184|338:149,1,250,4|0,0:0|0:0,0:0:0:0:
114,233,12122,5,0,1:0:0:0:
259,203,12284,1,0,1:0:0:0:
49,129,12606,1,0,1:0:0:0:
398,233,12848,5,0,1:0:0:0:
243,208,13010,2,0,P|325:172|239:90,1,250,4|0,0:0|0:0,0:0:0:0:
57,142,13574,2,0,L|46:95,7,37.5,2|0|0|0|0|0|0|0,0:0|0:0|0:0|0:0|0:0|0:0|0:0|0:0,0:0:0:0:
268,244,14058,5,0,1:0:0:0:
430,122,14300,1,2,0:0:0:0:
261,141,14461,1,0,0:0:0:0:
327,137,14542,1,0,1:0:0:0:
427,139,14784,1,2,0:0:0:0:
244,244,15026,5,0,1:0:0:0:
82,122,15268,1,2,0:0:0:0:
251,141,15429,1,0,0:0:0:0:
185,137,15510,1,0,1:0:0:0:
85,139,15752,1,2,0:0:0:0:
439,178,15993,5,0,1:0:0:0:
264,182,16235,1,0,0:0:0:0:
394,185,16397,1,0,0:0:0:0:
394,185,16478,1,0,1:0:0:0:
111,181,16719,1,2,0:0:0:0:
458,284,16961,2,0,L|465:123,1,150,0|0,1:0|0:0,0:0:0:0:
54,284,17445,2,0,L|47:123,1,150,0|0,1:0|0:0,0:0:0:0:
261,267,17929,5,0,1:0:0:0:
423,155,18171,1,0,0:0:0:0:
235,75,18413,2,0,B|317:92|317:92|147:139,1,250,0|0,1:0|0:0,0:0:0:0:
360,144,18897,1,0,1:0:0:0:
184,232,19139,1,0,0:0:0:0:
367,313,19380,1,0,1:0:0:0:
395,182,19622,1,0,0:0:0:0:
152,144,19864,5,0,1:0:0:0:
328,232,20106,1,0,0:0:0:0:
72,208,20348,1,0,1:0:0:0:
304,296,20510,1,0,0:0:0:0:
456,120,20751,1,0,3:0:0:0:
119,114,20993,1,0,1:0:0:0:
263,112,21316,1,0,1:0:0:0:
86,113,21477,1,0,3:0:0:0:
86,113,21558,1,0,3:0:0:0:
383,99,21800,5,4,2:0:0:0:
174,98,22042,1,2,0:0:0:0:
357,223,22284,1,0,1:0:0:0:
451,110,22526,1,2,0:0:0:0:
381,39,22647,1,0,0:0:0:0:
129,99,22768,1,0,1:0:0:0:
338,98,23010,1,2,0:0:0:0:
155,223,23252,1,0,1:0:0:0:
61,110,23494,1,2,0:0:0:0:
264,104,23615,1,0,0:0:0:0:
168,104,23735,5,0,1:0:0:0:
359,105,23977,1,2,0:0:0:0:
134,216,24219,2,0,B|47:208|47:208|64:110,1,150,0|0,1:0|0:0,0:0:0:0:
354,106,24703,5,0,1:0:0:0:
163,107,24945,1,2,0:0:0:0:
383,216,25187,2,0,B|470:208|470:208|453:110,1,150,0|0,1:0|0:0,0:0:0:0:
203,265,25671,6,0,B|105:182|105:182|264:199,1,250,0|0,1:0|0:0,0:0:0:0:
366,212,26155,2,0,P|421:173|297:107,1,250,0|0,3:0|0:0,0:0:0:0:
91,88,26639,1,0,1:0:0:0:
225,187,26800,1,0,0:0:0:0:
287,135,26880,1,0,3:0:0:0:
68,260,27122,1,0,3:0:0:0:
375,267,27364,1,2,0:0:0:0:
59,246,27606,5,0,3:0:0:0:
247,277,27848,1,0,0:0:0:0:
63,152,28090,1,0,3:0:0:0:
224,159,28332,1,0,0:0:0:0:
448,184,28574,5,0,3:0:0:0:
408,184,28695,1,0,0:0:0:0:
352,184,28816,1,0,0:0:0:0:
296,184,28937,1,0,0:0:0:0:
216,184,29058,1,0,3:0:0:0:
296,184,29179,1,0,0:0:0:0:
352,184,29300,1,0,0:0:0:0:
392,184,29421,1,0,0:0:0:0:
208,80,29542,5,0,3:0:0:0:
64,152,29784,1,2,0:0:0:0:
224,200,29945,1,0,0:0:0:0:
224,192,30026,1,0,3:0:0:0:
64,152,30268,1,2,0:0:0:0:
224,200,30429,1,0,0:0:0:0:
234,181,30510,1,0,3:0:0:0:
64,152,30751,1,2,0:0:0:0:
224,200,30912,1,0,0:0:0:0:
263,143,30993,1,0,3:0:0:0:
24,152,31235,1,2,0:0:0:0:
304,136,31477,5,0,3:0:0:0:
448,208,31719,1,2,0:0:0:0:
288,256,31880,1,0,0:0:0:0:
268,215,31961,1,0,3:0:0:0:
448,208,32203,1,2,0:0:0:0:
288,256,32364,1,0,0:0:0:0:
243,194,32445,1,0,3:0:0:0:
448,208,32686,1,2,0:0:0:0:
288,256,32847,1,0,0:0:0:0:
150,254,32928,1,0,3:0:0:0:
378,257,33170,1,2,0:0:0:0:
34,314,33413,5,0,3:0:0:0:
266,308,33655,1,0,0:0:0:0:
67,255,33897,1,0,3:0:0:0:
277,214,34139,1,2,0:0:0:0:
159,208,34260,1,0,0:0:0:0:
478,314,34380,5,0,3:0:0:0:
246,308,34622,1,0,0:0:0:0:
445,255,34864,1,0,3:0:0:0:
235,214,35106,1,2,0:0:0:0:
353,208,35227,1,0,0:0:0:0:
97,289,35348,5,0,3:0:0:0:
249,222,35590,1,2,0:0:0:0:
101,198,35751,1,0,0:0:0:0:
37,200,35832,1,0,3:0:0:0:
206,193,36074,1,2,0:0:0:0:
466,174,36316,1,0,3:0:0:0:
249,222,36558,1,2,0:0:0:0:
443,231,36800,1,0,3:0:0:0:
297,224,37042,1,0,0:0:0:0:
420,222,37203,1,2,0:0:0:0:
218,191,37284,5,0,3:0:0:0:
36,126,37526,1,0,3:0:0:0:
176,288,37687,1,2,0:0:0:0:
330,264,37768,1,0,3:0:0:0:
476,126,38010,1,0,3:0:0:0:
328,288,38171,1,2,0:0:0:0:
182,264,38252,1,0,3:0:0:0:
30,318,38413,1,0,0:0:0:0:
18,238,38493,1,0,3:0:0:0:
172,201,38655,1,0,0:0:0:0:
184,121,38735,1,0,3:0:0:0:
36,79,38977,1,4,3:0:0:0:
294,191,39219,5,4,2:0:0:0:
476,126,39461,1,0,3:0:0:0:
336,288,39622,1,2,0:0:0:0:
182,264,39703,1,0,3:0:0:0:
36,126,39945,1,0,3:0:0:0:
184,288,40106,1,2,0:0:0:0:
330,264,40187,1,0,3:0:0:0:
376,136,40348,1,0,0:0:0:0:
182,264,40429,1,0,3:0:0:0:
136,136,40590,1,0,0:0:0:0:
330,264,40671,1,0,3:0:0:0:
443,137,40832,1,0,0:0:0:0:
182,264,40913,1,0,3:0:0:0:
69,132,41074,1,0,0:0:0:0:
425,350,41155,6,0,B|464:58|464:58|381:-33|381:-33|241:109,1,600.000022888184,4|0,0:0|0:0,0:0:0:0:
22,301,41880,2,0,B|15:128|14:128|52:158|52:158|361:151,1,450.000017166138,4|0,0:0|0:0,0:0:0:0:
494,145,42606,1,4,0:0:0:0:
256,192,42768,12,2,44300,0:0:0:0:
194,252,44784,5,2,0:0:0:0:
301,249,44905,1,0,0:0:0:0:
58,250,45026,5,0,1:0:0:0:
371,249,45268,1,2,0:0:0:0:
176,246,45510,1,8,1:0:0:0:
489,245,45752,1,2,0:0:0:0:
176,246,45993,1,0,1:0:0:0:
489,245,46235,1,2,0:0:0:0:
58,250,46477,1,8,1:0:0:0:
371,249,46719,1,2,0:0:0:0:
0,248,46961,5,0,1:0:0:0:
384,256,47203,1,2,0:0:0:0:
45,146,47445,1,8,1:0:0:0:
429,154,47687,1,2,0:0:0:0:
512,248,47929,5,0,1:0:0:0:
128,256,48171,1,2,0:0:0:0:
467,146,48413,1,8,1:0:0:0:
83,154,48655,1,2,0:0:0:0:
416,164,48897,5,0,1:0:0:0:
246,241,49139,1,2,0:0:0:0:
341,188,49260,1,0,0:0:0:0:
71,150,49380,1,8,1:0:0:0:
310,245,49622,1,0,0:0:0:0:
289,144,49743,1,0,0:0:0:0:
105,231,49864,1,0,1:0:0:0:
266,241,50106,1,2,0:0:0:0:
241,147,50227,1,0,0:0:0:0:
441,150,50347,1,8,1:0:0:0:
202,245,50589,1,2,0:0:0:0:
304,239,50710,1,0,0:0:0:0:
496,80,50831,5,0,1:0:0:0:
6,135,51316,1,0,1:0:0:0:
496,80,51800,5,0,1:0:0:0:
6,135,52285,1,0,1:0:0:0:
492,191,52768,5,0,1:0:0:0:
180,200,53010,1,0,0:0:0:0:
420,201,53251,1,8,1:0:0:0:
258,202,53493,1,2,0:0:0:0:
20,191,53735,5,0,1:0:0:0:
332,200,53977,1,0,0:0:0:0:
92,201,54218,1,8,1:0:0:0:
254,202,54460,1,2,0:0:0:0:
477,203,54703,5,0,1:0:0:0:
67,197,54945,1,0,0:0:0:0:
477,203,55187,1,8,1:0:0:0:
67,197,55429,1,2,0:0:0:0:
387,198,55671,5,0,1:0:0:0:
142,194,55913,1,0,0:0:0:0:
387,198,56155,1,8,1:0:0:0:
142,194,56397,1,2,0:0:0:0:
479,100,56639,5,0,1:0:0:0:
248,318,56880,1,2,0:0:0:0:
257,209,57001,1,0,0:0:0:0:
466,219,57122,1,8,1:0:0:0:
365,264,57364,1,2,0:0:0:0:
255,209,57485,1,0,0:0:0:0:
46,219,57606,1,0,1:0:0:0:
255,271,57848,1,2,0:0:0:0:
346,195,57969,1,0,0:0:0:0:
144,96,58090,1,8,1:0:0:0:
343,189,58332,1,2,0:0:0:0:
444,191,58453,1,0,0:0:0:0:
77,187,58574,5,2,0:0:0:0:
435,187,59058,5,2,0:0:0:0:
77,187,59542,5,2,0:0:0:0:
436,195,60026,1,0,1:0:0:0:
63,192,60268,1,0,1:0:0:0:
281,183,60510,5,0,3:0:0:0:
212,77,60751,1,0,3:0:0:0:
470,84,60993,5,4,0:0:0:0:
233,183,61235,1,2,0:0:0:0:
348,112,61397,1,0,0:0:0:0:
195,174,61477,1,0,1:0:0:0:
108,306,61719,1,0,3:0:0:0:
447,260,61961,2,0,L|468:31,1,194.999991073609,8|0,1:0|0:0,0:0:0:0:
166,153,62445,5,0,1:0:0:0:
336,155,62687,1,2,0:0:0:0:
119,160,62929,1,8,1:0:0:0:
318,153,63171,1,0,0:0:0:0:
133,195,63332,1,0,0:0:0:0:
204,220,63413,1,0,3:0:0:0:
411,166,63655,1,0,3:0:0:0:
65,260,63897,2,0,L|44:31,1,194.999991073609,8|0,1:0|0:0,0:0:0:0:
308,223,64380,6,0,P|374:178|294:115,1,194.999991073609,0|2,1:0|0:0,0:0:0:0:
155,128,64784,1,0,0:0:0:0:
331,195,64864,1,0,1:0:0:0:
498,145,65106,1,2,0:0:0:0:
181,195,65348,1,0,3:0:0:0:
14,145,65590,1,2,0:0:0:0:
295,196,65832,1,8,1:0:0:0:
461,193,66074,1,0,0:0:0:0:
482,93,66195,1,0,0:0:0:0:
67,305,66316,5,0,1:0:0:0:
235,231,66558,1,2,0:0:0:0:
41,213,66719,1,0,2:0:0:0:
41,213,66800,1,8,1:0:0:0:
273,207,67042,1,2,0:0:0:0:
445,305,67284,5,0,1:0:0:0:
286,241,67445,1,0,0:0:0:0:
356,241,67526,1,0,3:0:0:0:
456,79,67687,1,0,0:0:0:0:
386,79,67768,1,8,1:0:0:0:
42,89,68010,1,0,3:0:0:0:
475,180,68251,1,4,0:0:0:0:
35,327,69219,6,0,B|28:173|28:173|176:192|176:192|191:66|191:66|25:47,1,584.999973220826,0|8,1:0|3:0,0:0:0:0:
392,100,70429,5,4,0:0:0:0:
76,106,70671,1,0,1:0:0:0:
246,95,70913,1,0,0:0:0:0:
112,180,71074,1,0,0:0:0:0:
350,298,71155,1,0,1:0:0:0:
424,112,71397,1,2,0:0:0:0:
162,298,71639,1,8,1:0:0:0:
88,112,71881,1,2,0:0:0:0:
483,99,72122,5,4,0:0:0:0:
178,347,73090,2,0,B|109:212|109:212|353:252|353:252|446:149|446:149|213:5,1,779.999964294435,0|2,1:0|0:0,0:0:0:0:
45,162,74542,6,0,L|23:101,8,48.7499977684022,0|0|0|0|0|0|0|0|2,0:0|0:0|0:0|0:0|0:0|0:0|0:0|0:0|0:0,0:0:0:0:
356,208,75993,5,0,1:0:0:0:
178,203,76235,1,2,0:0:0:0:
36,200,76397,1,0,0:0:0:0:
36,200,76477,1,8,1:0:0:0:
336,196,76719,1,2,2:0:0:0:
156,208,76961,5,0,1:0:0:0:
334,203,77203,1,2,0:0:0:0:
476,200,77365,1,0,0:0:0:0:
476,200,77445,1,8,1:0:0:0:
160,190,77687,1,2,2:0:0:0:
334,203,77929,5,0,1:0:0:0:
64,277,78171,1,2,0:0:0:0:
149,178,78332,1,0,0:0:0:0:
307,177,78413,1,8,1:0:0:0:
449,175,78655,1,2,0:0:0:0:
178,203,78897,5,0,1:0:0:0:
448,277,79139,1,2,0:0:0:0:
363,178,79300,1,0,0:0:0:0:
205,177,79381,1,8,1:0:0:0:
63,175,79623,1,2,0:0:0:0:
256,240,79864,5,0,1:0:0:0:
476,240,80106,1,2,0:0:0:0:
432,124,80268,1,0,0:0:0:0:
256,240,80348,1,8,1:0:0:0:
36,240,80590,1,2,0:0:0:0:
80,124,80751,1,0,0:0:0:0:
256,240,80832,1,0,1:0:0:0:
476,240,81074,1,2,0:0:0:0:
432,124,81235,1,0,0:0:0:0:
222,134,81316,5,0,1:0:0:0:
92,137,81558,1,0,0:0:0:0:
248,212,81719,1,0,0:0:0:0:
268,132,81800,5,0,1:0:0:0:
12,132,82042,1,0,0:0:0:0:
268,132,82284,1,8,1:0:0:0:
12,132,82526,1,0,0:0:0:0:
438,137,82768,1,0,1:0:0:0:
40,145,83010,1,2,0:0:0:0:
448,272,83251,6,0,L|461:220,7,48.7499977684022,4|0|0|0|0|0|0|0,0:0|0:0|0:0|0:0|0:0|0:0|0:0|0:0,0:0:0:0:
25,195,83735,5,0,1:0:0:0:
