osu file format v14

[General]
AudioFilename: audio.mp3
AudioLeadIn: 0
PreviewTime: 44847
Countdown: 0
SampleSet: Soft
StackLeniency: 0.7
Mode: 3
LetterboxInBreaks: 0
SpecialStyle: 0
WidescreenStoryboard: 1

[Editor]
DistanceSpacing: 1.2
BeatDivisor: 8
GridSize: 8
TimelineZoom: 2.499999

[Metadata]
Title:super anime groove 3d world
TitleUnicode:super anime groove 3d world
Artist:android52
ArtistUnicode:android52
Creator:Micleak
Version:funk's insane
Source:
Tags:japanese electronic future funk baq5 android52 presents WELCOME NEW GALAXY Recover Decoration Onodera Kosaki 小野寺 小咲 Hanazawa Kana 花澤香菜 Shō Shou Watanabe 渡辺翔 anime アニメ リカバーデコレーション Toshinori Moriya 森谷 敏紀 Nisekoi ニセコイ false fake love technical dump female thefunk
BeatmapID:3782106
BeatmapSetID:1827202

[Difficulty]
HPDrainRate:8
CircleSize:4
OverallDifficulty:8
ApproachRate:5
SliderMultiplier:1.4
SliderTickRate:1

[Events]
//Background and Video events
0,0,"RtjMFM8.jpg",0,0
//Break Periods
//Storyboard Layer 0 (Background)
//Storyboard Layer 1 (Fail)
//Storyboard Layer 2 (Pass)
//Storyboard Layer 3 (Foreground)
//Storyboard Layer 4 (Overlay)
//Storyboard Sound Samples

[TimingPoints]
4444,483.870967741935,4,2,1,35,1,0
45089,-100,4,2,1,35,0,1
68314,-100,4,2,1,35,0,0
112831,-100,4,2,1,35,0,1
136056,-100,4,2,1,35,0,0
157347,-100,4,2,1,35,0,1
180573,-100,4,2,1,35,0,0

[HitObjects]
64,192,331,5,0,0:0:0:0:
448,192,492,1,0,0:0:0:0:
192,192,573,1,0,0:0:0:0:
64,192,573,1,0,0:0:0:0:
192,192,1056,1,0,0:0:0:0:
64,192,1540,1,0,0:0:0:0:
320,192,1540,1,0,0:0:0:0:
448,192,2024,1,0,0:0:0:0:
64,192,2427,1,0,0:0:0:0:
192,192,2508,1,0,0:0:0:0:
320,192,2508,1,0,0:0:0:0:
448,192,2750,128,0,2992:0:0:0:0:
320,192,2992,128,0,3234:0:0:0:0:
192,192,3234,128,0,3476:0:0:0:0:
64,192,3476,1,0,0:0:0:0:
64,192,3718,1,0,0:0:0:0:
192,192,3718,1,0,0:0:0:0:
448,192,3718,1,0,0:0:0:0:
320,192,3798,1,0,0:0:0:0:
64,192,3879,1,0,0:0:0:0:
192,192,3960,1,0,0:0:0:0:
448,192,4040,1,0,0:0:0:0:
320,192,4121,1,0,0:0:0:0:
64,192,4202,1,0,0:0:0:0:
192,192,4262,1,0,0:0:0:0:
320,192,4323,1,0,0:0:0:0:
448,192,4383,1,0,0:0:0:0:
64,192,4443,1,0,0:0:0:0:
192,192,4443,1,0,0:0:0:0:
320,192,4504,1,0,0:0:0:0:
448,192,4564,1,0,0:0:0:0:
64,192,4625,1,0,0:0:0:0:
192,192,4685,1,0,0:0:0:0:
448,192,4766,1,0,0:0:0:0:
320,192,4847,1,0,0:0:0:0:
64,192,4927,1,0,0:0:0:0:
448,192,4927,1,0,0:0:0:0:
192,192,4988,1,0,0:0:0:0:
320,192,5048,1,0,0:0:0:0:
64,192,5109,1,0,0:0:0:0:
448,192,5169,1,0,0:0:0:0:
320,192,5250,1,0,0:0:0:0:
192,192,5331,1,0,0:0:0:0:
448,192,5411,1,0,0:0:0:0:
320,192,5411,1,0,0:0:0:0:
64,192,5492,1,0,0:0:0:0:
192,192,5573,1,0,0:0:0:0:
320,192,5653,1,0,0:0:0:0:
64,192,5734,1,0,0:0:0:0:
320,192,5814,1,0,0:0:0:0:
64,192,5895,1,0,0:0:0:0:
448,192,5895,1,0,0:0:0:0:
192,192,5956,1,0,0:0:0:0:
64,192,6016,1,0,0:0:0:0:
320,192,6077,1,0,0:0:0:0:
448,192,6137,1,0,0:0:0:0:
192,192,6198,1,0,0:0:0:0:
320,192,6258,1,0,0:0:0:0:
448,192,6318,1,0,0:0:0:0:
64,192,6379,1,0,0:0:0:0:
192,192,6379,1,0,0:0:0:0:
64,192,6621,1,0,0:0:0:0:
192,192,6702,1,0,0:0:0:0:
320,192,6782,1,0,0:0:0:0:
64,192,6863,1,0,0:0:0:0:
448,192,6863,1,0,0:0:0:0:
192,192,6923,1,0,0:0:0:0:
320,192,6984,1,0,0:0:0:0:
64,192,7044,1,0,0:0:0:0:
448,192,7105,1,0,0:0:0:0:
192,192,7185,1,0,0:0:0:0:
448,192,7266,1,0,0:0:0:0:
64,192,7347,1,0,0:0:0:0:
320,192,7347,1,0,0:0:0:0:
192,192,7407,1,0,0:0:0:0:
448,192,7468,1,0,0:0:0:0:
192,192,7528,1,0,0:0:0:0:
320,192,7589,1,0,0:0:0:0:
64,192,7669,1,0,0:0:0:0:
192,192,7750,1,0,0:0:0:0:
320,192,7831,1,0,0:0:0:0:
448,192,7831,1,0,0:0:0:0:
64,192,7891,1,0,0:0:0:0:
192,192,7952,1,0,0:0:0:0:
448,192,8012,1,0,0:0:0:0:
64,192,8073,1,0,0:0:0:0:
320,192,8133,1,0,0:0:0:0:
192,192,8193,1,0,0:0:0:0:
448,192,8254,1,0,0:0:0:0:
64,192,8314,1,0,0:0:0:0:
192,192,8314,1,0,0:0:0:0:
448,192,8375,1,0,0:0:0:0:
320,192,8435,1,0,0:0:0:0:
192,192,8496,1,0,0:0:0:0:
448,192,8556,1,0,0:0:0:0:
64,192,8617,1,0,0:0:0:0:
192,192,8677,1,0,0:0:0:0:
320,192,8738,1,0,0:0:0:0:
448,192,8798,1,0,0:0:0:0:
64,192,8798,1,0,0:0:0:0:
192,192,8859,1,0,0:0:0:0:
320,192,8919,1,0,0:0:0:0:
64,192,8980,1,0,0:0:0:0:
448,192,9040,1,0,0:0:0:0:
192,192,9202,1,0,0:0:0:0:
320,192,9282,1,0,0:0:0:0:
448,192,9282,1,0,0:0:0:0:
192,192,9363,1,0,0:0:0:0:
64,192,9443,1,0,0:0:0:0:
320,192,9524,1,0,0:0:0:0:
448,192,9605,1,0,0:0:0:0:
192,192,9685,1,0,0:0:0:0:
64,192,9766,1,0,0:0:0:0:
448,192,9766,1,0,0:0:0:0:
320,192,9827,1,0,0:0:0:0:
192,192,9887,1,0,0:0:0:0:
64,192,9948,1,0,0:0:0:0:
448,192,10008,1,0,0:0:0:0:
64,192,10089,1,0,0:0:0:0:
192,192,10169,1,0,0:0:0:0:
448,192,10250,1,0,0:0:0:0:
320,192,10250,1,0,0:0:0:0:
192,192,10310,1,0,0:0:0:0:
320,192,10371,1,0,0:0:0:0:
64,192,10431,1,0,0:0:0:0:
448,192,10492,1,0,0:0:0:0:
192,192,10573,1,0,0:0:0:0:
320,192,10653,1,0,0:0:0:0:
448,192,10734,1,0,0:0:0:0:
64,192,10734,1,0,0:0:0:0:
320,192,10794,1,0,0:0:0:0:
192,192,10855,1,0,0:0:0:0:
448,192,10915,1,0,0:0:0:0:
64,192,10976,1,0,0:0:0:0:
448,192,11056,1,0,0:0:0:0:
320,192,11137,1,0,0:0:0:0:
192,192,11218,1,0,0:0:0:0:
64,192,11218,1,0,0:0:0:0:
320,192,11278,1,0,0:0:0:0:
192,192,11339,1,0,0:0:0:0:
448,192,11399,1,0,0:0:0:0:
64,192,11460,1,0,0:0:0:0:
320,192,11540,1,0,0:0:0:0:
192,192,11621,1,0,0:0:0:0:
64,192,11702,1,0,0:0:0:0:
448,192,11702,1,0,0:0:0:0:
192,192,11762,1,0,0:0:0:0:
320,192,11823,1,0,0:0:0:0:
64,192,11883,1,0,0:0:0:0:
448,192,11943,1,0,0:0:0:0:
320,192,12024,1,0,0:0:0:0:
192,192,12105,1,0,0:0:0:0:
64,192,12185,1,0,0:0:0:0:
448,192,12185,1,0,0:0:0:0:
64,192,12347,1,0,0:0:0:0:
448,192,12347,1,0,0:0:0:0:
448,192,12589,1,0,0:0:0:0:
320,192,12669,1,0,0:0:0:0:
64,192,12911,1,0,0:0:0:0:
192,192,12911,1,0,0:0:0:0:
64,192,13073,1,0,0:0:0:0:
192,192,13073,1,0,0:0:0:0:
448,192,13073,1,0,0:0:0:0:
192,192,13314,1,0,0:0:0:0:
320,192,13395,1,0,0:0:0:0:
192,192,13556,1,0,0:0:0:0:
448,192,13637,1,0,0:0:0:0:
320,192,13698,1,0,0:0:0:0:
192,192,13758,1,0,0:0:0:0:
64,192,13818,1,0,0:0:0:0:
448,192,13879,1,0,0:0:0:0:
320,192,13939,1,0,0:0:0:0:
192,192,14000,1,0,0:0:0:0:
64,192,14060,1,0,0:0:0:0:
320,192,14121,1,0,0:0:0:0:
448,192,14121,1,0,0:0:0:0:
64,192,14202,1,0,0:0:0:0:
192,192,14282,1,0,0:0:0:0:
320,192,14363,1,0,0:0:0:0:
448,192,14605,1,0,0:0:0:0:
64,192,14605,1,0,0:0:0:0:
192,192,14847,1,0,0:0:0:0:
192,192,15008,1,0,0:0:0:0:
320,192,15089,1,0,0:0:0:0:
448,192,15089,1,0,0:0:0:0:
64,192,15573,1,0,0:0:0:0:
448,192,15573,1,0,0:0:0:0:
320,192,15814,1,0,0:0:0:0:
320,192,15976,1,0,0:0:0:0:
64,192,16056,1,0,0:0:0:0:
192,192,16056,1,0,0:0:0:0:
64,192,16540,1,0,0:0:0:0:
448,192,16540,1,0,0:0:0:0:
448,192,16782,1,0,0:0:0:0:
64,192,17024,1,0,0:0:0:0:
192,192,17024,1,0,0:0:0:0:
192,192,17266,1,0,0:0:0:0:
64,192,17508,1,0,0:0:0:0:
448,192,17508,1,0,0:0:0:0:
320,192,17750,1,0,0:0:0:0:
320,192,17992,1,0,0:0:0:0:
448,192,17992,1,0,0:0:0:0:
192,192,18073,1,0,0:0:0:0:
64,192,18153,1,0,0:0:0:0:
320,192,18234,1,0,0:0:0:0:
192,192,18355,1,0,0:0:0:0:
64,192,18476,1,0,0:0:0:0:
448,192,18476,1,0,0:0:0:0:
192,192,18536,1,0,0:0:0:0:
320,192,18597,1,0,0:0:0:0:
448,192,18718,1,0,0:0:0:0:
192,192,18879,1,0,0:0:0:0:
320,192,18960,1,0,0:0:0:0:
448,192,18960,1,0,0:0:0:0:
64,192,19202,1,0,0:0:0:0:
448,192,19443,1,0,0:0:0:0:
64,192,19443,1,0,0:0:0:0:
192,192,19685,1,0,0:0:0:0:
320,192,19766,1,0,0:0:0:0:
192,192,19927,1,0,0:0:0:0:
64,192,19927,1,0,0:0:0:0:
448,192,20169,1,0,0:0:0:0:
64,192,20411,1,0,0:0:0:0:
448,192,20411,1,0,0:0:0:0:
192,192,20532,1,0,0:0:0:0:
320,192,20774,1,0,0:0:0:0:
192,192,20895,1,0,0:0:0:0:
64,192,20895,1,0,0:0:0:0:
320,192,21056,128,0,21137:0:0:0:0:
448,192,21056,128,0,21137:0:0:0:0:
192,192,21298,1,0,0:0:0:0:
64,192,21379,1,0,0:0:0:0:
448,192,21379,1,0,0:0:0:0:
64,192,21540,1,0,0:0:0:0:
192,192,21621,1,0,0:0:0:0:
320,192,21863,1,0,0:0:0:0:
192,192,21863,1,0,0:0:0:0:
448,192,21943,1,0,0:0:0:0:
320,192,22024,1,0,0:0:0:0:
192,192,22105,1,0,0:0:0:0:
448,192,22347,1,0,0:0:0:0:
64,192,22347,1,0,0:0:0:0:
64,192,22589,1,0,0:0:0:0:
64,192,22750,1,0,0:0:0:0:
192,192,22831,1,0,0:0:0:0:
320,192,22831,1,0,0:0:0:0:
64,192,23314,1,0,0:0:0:0:
320,192,23314,1,0,0:0:0:0:
320,192,23556,1,0,0:0:0:0:
320,192,23718,1,0,0:0:0:0:
192,192,23798,1,0,0:0:0:0:
448,192,23798,1,0,0:0:0:0:
64,192,24282,1,0,0:0:0:0:
448,192,24282,1,0,0:0:0:0:
320,192,24524,1,0,0:0:0:0:
192,192,24766,1,0,0:0:0:0:
448,192,24766,1,0,0:0:0:0:
192,192,25008,1,0,0:0:0:0:
64,192,25250,1,0,0:0:0:0:
448,192,25250,1,0,0:0:0:0:
448,192,25492,1,0,0:0:0:0:
192,192,25734,1,0,0:0:0:0:
64,192,25734,1,0,0:0:0:0:
320,192,25814,1,0,0:0:0:0:
448,192,25895,1,0,0:0:0:0:
64,192,25976,1,0,0:0:0:0:
320,192,26097,1,0,0:0:0:0:
448,192,26218,1,0,0:0:0:0:
64,192,26218,1,0,0:0:0:0:
320,192,26298,1,0,0:0:0:0:
192,192,26379,1,0,0:0:0:0:
448,192,26460,1,0,0:0:0:0:
64,192,26540,1,0,0:0:0:0:
192,192,26621,1,0,0:0:0:0:
448,192,26702,1,0,0:0:0:0:
320,192,26702,1,0,0:0:0:0:
64,192,26782,1,0,0:0:0:0:
320,192,26863,1,0,0:0:0:0:
192,192,26943,1,0,0:0:0:0:
448,192,27185,1,0,0:0:0:0:
64,192,27185,1,0,0:0:0:0:
320,192,27548,128,0,27669:0:0:0:0:
192,192,27669,1,0,0:0:0:0:
64,192,27669,1,0,0:0:0:0:
192,192,27911,128,0,28153:0:0:0:0:
448,192,28153,1,0,0:0:0:0:
320,192,28153,128,0,28314:0:0:0:0:
64,192,28314,128,0,28556:0:0:0:0:
192,192,28556,1,0,0:0:0:0:
448,192,28637,1,0,0:0:0:0:
320,192,28637,1,0,0:0:0:0:
192,192,28758,1,0,0:0:0:0:
320,192,28879,1,0,0:0:0:0:
192,192,29000,1,0,0:0:0:0:
320,192,29121,1,0,0:0:0:0:
448,192,29121,1,0,0:0:0:0:
192,192,29242,1,0,0:0:0:0:
448,192,29363,1,0,0:0:0:0:
64,192,29484,1,0,0:0:0:0:
192,192,29605,1,0,0:0:0:0:
448,192,29605,128,0,29847:0:0:0:0:
64,192,29847,128,0,30089:0:0:0:0:
320,192,30089,1,0,0:0:0:0:
448,192,30089,128,0,30331:0:0:0:0:
192,192,30331,128,0,30573:0:0:0:0:
448,192,30573,1,0,0:0:0:0:
64,192,30573,128,0,31056:0:0:0:0:
320,192,30814,1,0,0:0:0:0:
192,192,30976,128,0,31056:0:0:0:0:
448,192,31056,1,0,0:0:0:0:
320,192,31056,1,0,0:0:0:0:
320,192,31298,128,0,31540:0:0:0:0:
64,192,31460,1,0,0:0:0:0:
192,192,31540,1,0,0:0:0:0:
448,192,31540,1,0,0:0:0:0:
64,192,31782,128,0,32024:0:0:0:0:
448,192,32024,128,0,32266:0:0:0:0:
320,192,32024,1,0,0:0:0:0:
64,192,32266,128,0,32508:0:0:0:0:
320,192,32427,1,0,0:0:0:0:
192,192,32508,128,0,32750:0:0:0:0:
448,192,32508,1,0,0:0:0:0:
320,192,32750,1,0,0:0:0:0:
320,192,32992,128,0,33234:0:0:0:0:
192,192,32992,1,0,0:0:0:0:
448,192,33234,1,0,0:0:0:0:
64,192,33395,1,0,0:0:0:0:
448,192,33476,1,0,0:0:0:0:
320,192,33476,128,0,33718:0:0:0:0:
64,192,33718,128,0,33960:0:0:0:0:
320,192,33960,1,0,0:0:0:0:
448,192,33960,128,0,34202:0:0:0:0:
192,192,34202,128,0,34443:0:0:0:0:
320,192,34363,1,0,0:0:0:0:
448,192,34443,128,0,34927:0:0:0:0:
64,192,34443,1,0,0:0:0:0:
192,192,34685,1,0,0:0:0:0:
320,192,34847,128,0,34927:0:0:0:0:
192,192,34927,1,0,0:0:0:0:
64,192,34927,1,0,0:0:0:0:
192,192,35169,128,0,35411:0:0:0:0:
320,192,35331,1,0,0:0:0:0:
64,192,35411,1,0,0:0:0:0:
448,192,35411,128,0,35653:0:0:0:0:
64,192,35653,128,0,35895:0:0:0:0:
320,192,35895,1,0,0:0:0:0:
448,192,35895,128,0,36137:0:0:0:0:
64,192,36137,128,0,36379:0:0:0:0:
192,192,36298,1,0,0:0:0:0:
448,192,36379,1,0,0:0:0:0:
320,192,36379,128,0,36621:0:0:0:0:
192,192,36621,1,0,0:0:0:0:
64,192,36863,1,0,0:0:0:0:
448,192,36863,1,0,0:0:0:0:
192,192,37105,1,0,0:0:0:0:
320,192,37266,1,0,0:0:0:0:
64,192,37347,1,0,0:0:0:0:
192,192,37347,128,0,37468:0:0:0:0:
64,192,37589,1,0,0:0:0:0:
320,192,37589,128,0,37710:0:0:0:0:
64,192,37831,1,0,0:0:0:0:
192,192,37831,128,0,37952:0:0:0:0:
320,192,38073,1,0,0:0:0:0:
64,192,38073,128,0,38193:0:0:0:0:
448,192,38314,1,0,0:0:0:0:
320,192,38314,128,0,38435:0:0:0:0:
448,192,38556,1,0,0:0:0:0:
192,192,38556,128,0,38677:0:0:0:0:
448,192,38798,1,0,0:0:0:0:
320,192,38798,128,0,39040:0:0:0:0:
192,192,39040,1,0,0:0:0:0:
448,192,39040,128,0,39282:0:0:0:0:
320,192,39202,1,0,0:0:0:0:
192,192,39282,1,0,0:0:0:0:
64,192,39282,128,0,39524:0:0:0:0:
192,192,39524,1,0,0:0:0:0:
448,192,39524,128,0,39766:0:0:0:0:
192,192,39766,1,0,0:0:0:0:
64,192,39766,128,0,40008:0:0:0:0:
448,192,40008,1,0,0:0:0:0:
192,192,40008,128,0,40250:0:0:0:0:
320,192,40250,1,0,0:0:0:0:
448,192,40250,128,0,40492:0:0:0:0:
320,192,40492,1,0,0:0:0:0:
64,192,40492,128,0,40734:0:0:0:0:
320,192,40734,1,0,0:0:0:0:
448,192,40734,128,0,40976:0:0:0:0:
192,192,40895,1,0,0:0:0:0:
320,192,40976,1,0,0:0:0:0:
64,192,40976,1,0,0:0:0:0:
64,192,41137,1,0,0:0:0:0:
320,192,41218,1,0,0:0:0:0:
448,192,41218,128,0,41460:0:0:0:0:
192,192,41460,128,0,41702:0:0:0:0:
64,192,41702,128,0,41943:0:0:0:0:
448,192,41943,1,0,0:0:0:0:
320,192,41943,128,0,42427:0:0:0:0:
192,192,42427,1,0,0:0:0:0:
64,192,42669,1,0,0:0:0:0:
320,192,42669,1,0,0:0:0:0:
448,192,42669,128,0,43637:0:0:0:0:
64,192,43637,1,0,0:0:0:0:
192,192,43718,1,0,0:0:0:0:
320,192,43798,1,0,0:0:0:0:
64,192,43879,1,0,0:0:0:0:
448,192,43960,1,0,0:0:0:0:
192,192,44040,1,0,0:0:0:0:
320,192,44121,1,0,0:0:0:0:
64,192,44121,1,0,0:0:0:0:
192,192,44363,1,0,0:0:0:0:
448,192,44363,1,0,0:0:0:0:
448,192,44847,1,0,0:0:0:0:
192,192,44968,1,0,0:0:0:0:
64,192,45089,1,0,0:0:0:0:
448,192,45089,1,0,0:0:0:0:
192,192,45149,1,0,0:0:0:0:
320,192,45210,1,0,0:0:0:0:
64,192,45270,1,0,0:0:0:0:
320,192,45331,1,0,0:0:0:0:
192,192,45411,1,0,0:0:0:0:
448,192,45573,1,0,0:0:0:0:
64,192,45573,1,0,0:0:0:0:
320,192,45633,1,0,0:0:0:0:
192,192,45693,1,0,0:0:0:0:
448,192,45754,1,0,0:0:0:0:
192,192,45814,1,0,0:0:0:0:
320,192,45895,1,0,0:0:0:0:
448,192,46056,1,0,0:0:0:0:
64,192,46056,1,0,0:0:0:0:
192,192,46117,1,0,0:0:0:0:
320,192,46177,1,0,0:0:0:0:
64,192,46238,1,0,0:0:0:0:
320,192,46298,1,0,0:0:0:0:
192,192,46379,1,0,0:0:0:0:
448,192,46540,1,0,0:0:0:0:
64,192,46540,1,0,0:0:0:0:
320,192,46601,1,0,0:0:0:0:
192,192,46661,1,0,0:0:0:0:
448,192,46722,1,0,0:0:0:0:
192,192,46782,1,0,0:0:0:0:
320,192,46863,1,0,0:0:0:0:
448,192,47024,1,0,0:0:0:0:
192,192,47024,1,0,0:0:0:0:
64,192,47085,1,0,0:0:0:0:
320,192,47145,1,0,0:0:0:0:
192,192,47206,1,0,0:0:0:0:
64,192,47266,1,0,0:0:0:0:
192,192,47347,1,0,0:0:0:0:
64,192,47508,1,0,0:0:0:0:
320,192,47508,1,0,0:0:0:0:
448,192,47568,1,0,0:0:0:0:
192,192,47629,1,0,0:0:0:0:
320,192,47689,1,0,0:0:0:0:
448,192,47750,1,0,0:0:0:0:
320,192,47831,1,0,0:0:0:0:
448,192,47992,1,0,0:0:0:0:
192,192,47992,1,0,0:0:0:0:
64,192,48052,1,0,0:0:0:0:
320,192,48113,1,0,0:0:0:0:
192,192,48173,1,0,0:0:0:0:
64,192,48234,1,0,0:0:0:0:
192,192,48314,1,0,0:0:0:0:
64,192,48476,1,0,0:0:0:0:
320,192,48476,1,0,0:0:0:0:
448,192,48536,1,0,0:0:0:0:
192,192,48597,1,0,0:0:0:0:
320,192,48657,1,0,0:0:0:0:
448,192,48718,1,0,0:0:0:0:
320,192,48798,1,0,0:0:0:0:
192,192,48960,1,0,0:0:0:0:
64,192,48960,1,0,0:0:0:0:
448,192,49020,1,0,0:0:0:0:
320,192,49081,1,0,0:0:0:0:
192,192,49141,1,0,0:0:0:0:
64,192,49202,1,0,0:0:0:0:
192,192,49323,1,0,0:0:0:0:
320,192,49443,1,0,0:0:0:0:
448,192,49443,1,0,0:0:0:0:
64,192,49504,1,0,0:0:0:0:
192,192,49564,1,0,0:0:0:0:
320,192,49625,1,0,0:0:0:0:
448,192,49685,1,0,0:0:0:0:
320,192,49806,1,0,0:0:0:0:
64,192,49927,1,0,0:0:0:0:
192,192,49927,1,0,0:0:0:0:
448,192,49988,1,0,0:0:0:0:
320,192,50048,1,0,0:0:0:0:
192,192,50109,1,0,0:0:0:0:
64,192,50169,1,0,0:0:0:0:
192,192,50290,1,0,0:0:0:0:
320,192,50411,1,0,0:0:0:0:
448,192,50411,1,0,0:0:0:0:
64,192,50472,1,0,0:0:0:0:
192,192,50532,1,0,0:0:0:0:
320,192,50593,1,0,0:0:0:0:
448,192,50653,1,0,0:0:0:0:
320,192,50774,1,0,0:0:0:0:
64,192,50895,1,0,0:0:0:0:
192,192,50895,1,0,0:0:0:0:
320,192,50956,1,0,0:0:0:0:
448,192,51016,1,0,0:0:0:0:
64,192,51077,1,0,0:0:0:0:
192,192,51137,1,0,0:0:0:0:
192,192,51298,1,0,0:0:0:0:
320,192,51379,1,0,0:0:0:0:
448,192,51379,1,0,0:0:0:0:
192,192,51439,1,0,0:0:0:0:
64,192,51500,1,0,0:0:0:0:
448,192,51560,1,0,0:0:0:0:
320,192,51621,1,0,0:0:0:0:
320,192,51782,1,0,0:0:0:0:
64,192,51863,1,0,0:0:0:0:
192,192,51863,1,0,0:0:0:0:
320,192,51923,1,0,0:0:0:0:
448,192,51984,1,0,0:0:0:0:
64,192,52044,1,0,0:0:0:0:
192,192,52105,1,0,0:0:0:0:
192,192,52266,1,0,0:0:0:0:
320,192,52347,1,0,0:0:0:0:
448,192,52347,1,0,0:0:0:0:
192,192,52407,1,0,0:0:0:0:
64,192,52468,1,0,0:0:0:0:
448,192,52528,1,0,0:0:0:0:
320,192,52589,1,0,0:0:0:0:
320,192,52750,1,0,0:0:0:0:
64,192,52831,1,0,0:0:0:0:
448,192,52831,1,0,0:0:0:0:
192,192,52891,1,0,0:0:0:0:
448,192,52952,1,0,0:0:0:0:
320,192,53012,1,0,0:0:0:0:
192,192,53073,1,0,0:0:0:0:
448,192,53153,1,0,0:0:0:0:
448,192,53314,1,0,0:0:0:0:
64,192,53314,1,0,0:0:0:0:
320,192,53375,1,0,0:0:0:0:
64,192,53435,1,0,0:0:0:0:
192,192,53496,1,0,0:0:0:0:
320,192,53556,1,0,0:0:0:0:
64,192,53637,1,0,0:0:0:0:
448,192,53798,1,0,0:0:0:0:
64,192,53798,1,0,0:0:0:0:
192,192,53859,1,0,0:0:0:0:
448,192,53919,1,0,0:0:0:0:
320,192,53980,1,0,0:0:0:0:
192,192,54040,1,0,0:0:0:0:
448,192,54121,1,0,0:0:0:0:
448,192,54282,1,0,0:0:0:0:
64,192,54282,1,0,0:0:0:0:
320,192,54343,1,0,0:0:0:0:
64,192,54403,1,0,0:0:0:0:
192,192,54464,1,0,0:0:0:0:
320,192,54524,1,0,0:0:0:0:
64,192,54605,1,0,0:0:0:0:
192,192,54766,1,0,0:0:0:0:
448,192,54766,1,0,0:0:0:0:
64,192,54827,1,0,0:0:0:0:
320,192,54887,1,0,0:0:0:0:
192,192,54948,1,0,0:0:0:0:
448,192,55008,1,0,0:0:0:0:
192,192,55089,1,0,0:0:0:0:
320,192,55250,1,0,0:0:0:0:
64,192,55250,1,0,0:0:0:0:
448,192,55310,1,0,0:0:0:0:
192,192,55371,1,0,0:0:0:0:
320,192,55431,1,0,0:0:0:0:
64,192,55492,1,0,0:0:0:0:
320,192,55573,1,0,0:0:0:0:
192,192,55734,1,0,0:0:0:0:
448,192,55734,1,0,0:0:0:0:
64,192,55794,1,0,0:0:0:0:
320,192,55855,1,0,0:0:0:0:
192,192,55915,1,0,0:0:0:0:
448,192,55976,1,0,0:0:0:0:
192,192,56056,1,0,0:0:0:0:
320,192,56218,1,0,0:0:0:0:
64,192,56218,1,0,0:0:0:0:
448,192,56278,1,0,0:0:0:0:
192,192,56339,1,0,0:0:0:0:
320,192,56399,1,0,0:0:0:0:
64,192,56460,1,0,0:0:0:0:
320,192,56540,1,0,0:0:0:0:
64,192,56702,1,0,0:0:0:0:
192,192,56702,1,0,0:0:0:0:
448,192,56762,1,0,0:0:0:0:
64,192,56823,1,0,0:0:0:0:
192,192,56883,1,0,0:0:0:0:
320,192,56943,1,0,0:0:0:0:
192,192,57064,1,0,0:0:0:0:
320,192,57185,1,0,0:0:0:0:
448,192,57185,1,0,0:0:0:0:
64,192,57246,1,0,0:0:0:0:
448,192,57306,1,0,0:0:0:0:
320,192,57367,1,0,0:0:0:0:
192,192,57427,1,0,0:0:0:0:
320,192,57548,1,0,0:0:0:0:
192,192,57669,1,0,0:0:0:0:
64,192,57669,1,0,0:0:0:0:
448,192,57730,1,0,0:0:0:0:
64,192,57790,1,0,0:0:0:0:
192,192,57851,1,0,0:0:0:0:
320,192,57911,1,0,0:0:0:0:
192,192,58032,1,0,0:0:0:0:
448,192,58153,1,0,0:0:0:0:
320,192,58153,1,0,0:0:0:0:
64,192,58214,1,0,0:0:0:0:
448,192,58274,1,0,0:0:0:0:
320,192,58335,1,0,0:0:0:0:
192,192,58395,1,0,0:0:0:0:
320,192,58516,1,0,0:0:0:0:
192,192,58637,1,0,0:0:0:0:
320,192,58698,1,0,0:0:0:0:
448,192,58758,1,0,0:0:0:0:
64,192,58818,1,0,0:0:0:0:
192,192,58879,1,0,0:0:0:0:
192,192,59040,1,0,0:0:0:0:
320,192,59121,1,0,0:0:0:0:
192,192,59181,1,0,0:0:0:0:
64,192,59242,1,0,0:0:0:0:
448,192,59302,1,0,0:0:0:0:
320,192,59363,1,0,0:0:0:0:
320,192,59524,1,0,0:0:0:0:
192,192,59605,1,0,0:0:0:0:
320,192,59665,1,0,0:0:0:0:
448,192,59726,1,0,0:0:0:0:
64,192,59786,1,0,0:0:0:0:
192,192,59847,1,0,0:0:0:0:
192,192,60008,1,0,0:0:0:0:
320,192,60089,1,0,0:0:0:0:
448,192,60089,1,0,0:0:0:0:
192,192,60149,1,0,0:0:0:0:
64,192,60210,1,0,0:0:0:0:
448,192,60270,1,0,0:0:0:0:
64,192,60331,1,0,0:0:0:0:
192,192,60331,1,0,0:0:0:0:
320,192,60573,1,0,0:0:0:0:
192,192,60573,1,0,0:0:0:0:
448,192,60814,1,0,0:0:0:0:
64,192,60814,1,0,0:0:0:0:
64,192,61056,1,0,0:0:0:0:
192,192,61056,1,0,0:0:0:0:
320,192,61137,1,0,0:0:0:0:
448,192,61218,1,0,0:0:0:0:
192,192,61298,1,0,0:0:0:0:
320,192,61419,1,0,0:0:0:0:
64,192,61540,1,0,0:0:0:0:
448,192,61540,1,0,0:0:0:0:
192,192,61601,1,0,0:0:0:0:
320,192,61661,1,0,0:0:0:0:
64,192,61722,1,0,0:0:0:0:
448,192,61782,1,0,0:0:0:0:
192,192,61863,1,0,0:0:0:0:
64,192,61943,1,0,0:0:0:0:
320,192,62024,1,0,0:0:0:0:
448,192,62024,1,0,0:0:0:0:
192,192,62085,1,0,0:0:0:0:
64,192,62145,1,0,0:0:0:0:
320,192,62266,1,0,0:0:0:0:
192,192,62387,1,0,0:0:0:0:
64,192,62508,1,0,0:0:0:0:
448,192,62508,1,0,0:0:0:0:
192,192,62589,1,0,0:0:0:0:
320,192,62669,1,0,0:0:0:0:
64,192,62750,1,0,0:0:0:0:
448,192,62810,1,0,0:0:0:0:
320,192,62871,1,0,0:0:0:0:
192,192,62992,1,0,0:0:0:0:
64,192,62992,1,0,0:0:0:0:
320,192,63052,1,0,0:0:0:0:
448,192,63113,1,0,0:0:0:0:
192,192,63173,1,0,0:0:0:0:
64,192,63234,1,0,0:0:0:0:
320,192,63314,1,0,0:0:0:0:
192,192,63395,1,0,0:0:0:0:
64,192,63476,1,0,0:0:0:0:
448,192,63476,1,0,0:0:0:0:
192,192,63718,1,0,0:0:0:0:
64,192,63778,1,0,0:0:0:0:
320,192,63960,1,0,0:0:0:0:
448,192,63960,1,0,0:0:0:0:
192,192,64202,1,0,0:0:0:0:
320,192,64323,1,0,0:0:0:0:
64,192,64443,1,0,0:0:0:0:
448,192,64443,1,0,0:0:0:0:
192,192,64524,1,0,0:0:0:0:
320,192,64605,1,0,0:0:0:0:
64,192,64685,1,0,0:0:0:0:
192,192,64746,1,0,0:0:0:0:
448,192,64806,1,0,0:0:0:0:
192,192,64927,1,0,0:0:0:0:
64,192,64927,1,0,0:0:0:0:
320,192,65008,1,0,0:0:0:0:
448,192,65089,1,0,0:0:0:0:
320,192,65169,1,0,0:0:0:0:
64,192,65250,1,0,0:0:0:0:
192,192,65331,1,0,0:0:0:0:
320,192,65411,1,0,0:0:0:0:
448,192,65411,1,0,0:0:0:0:
192,192,65492,1,0,0:0:0:0:
64,192,65573,1,0,0:0:0:0:
448,192,65653,1,0,0:0:0:0:
320,192,65734,1,0,0:0:0:0:
64,192,65814,1,0,0:0:0:0:
192,192,65895,1,0,0:0:0:0:
320,192,65895,1,0,0:0:0:0:
448,192,65992,1,0,0:0:0:0:
192,192,66137,1,0,0:0:0:0:
320,192,66258,1,0,0:0:0:0:
64,192,66379,1,0,0:0:0:0:
192,192,66379,1,0,0:0:0:0:
320,192,66500,1,0,0:0:0:0:
448,192,66621,1,0,0:0:0:0:
320,192,66702,1,0,0:0:0:0:
64,192,66782,1,0,0:0:0:0:
192,192,66863,1,0,0:0:0:0:
448,192,66863,1,0,0:0:0:0:
320,192,66932,1,0,0:0:0:0:
64,192,67001,1,0,0:0:0:0:
192,192,67070,1,0,0:0:0:0:
320,192,67139,1,0,0:0:0:0:
448,192,67208,1,0,0:0:0:0:
192,192,67278,1,0,0:0:0:0:
64,192,67347,1,0,0:0:0:0:
320,192,67347,1,0,0:0:0:0:
448,192,67416,1,0,0:0:0:0:
192,192,67485,1,0,0:0:0:0:
64,192,67554,1,0,0:0:0:0:
448,192,67623,1,0,0:0:0:0:
192,192,67710,1,0,0:0:0:0:
64,192,67831,1,0,0:0:0:0:
448,192,67831,1,0,0:0:0:0:
192,192,67992,1,0,0:0:0:0:
320,192,68073,1,0,0:0:0:0:
448,192,68073,1,0,0:0:0:0:
320,192,68234,1,0,0:0:0:0:
192,192,68314,1,0,0:0:0:0:
64,192,68314,1,0,0:0:0:0:
448,192,68314,1,0,0:0:0:0:
448,192,68556,1,0,0:0:0:0:
320,192,68798,1,0,0:0:0:0:
192,192,69040,1,0,0:0:0:0:
64,192,69282,1,0,0:0:0:0:
448,192,69282,1,0,0:0:0:0:
320,192,69282,1,0,0:0:0:0:
192,192,69363,1,0,0:0:0:0:
192,192,69766,1,0,0:0:0:0:
320,192,69887,1,0,0:0:0:0:
64,192,70008,1,0,0:0:0:0:
448,192,70008,1,0,0:0:0:0:
192,192,70068,1,0,0:0:0:0:
448,192,70250,1,0,0:0:0:0:
192,192,70492,1,0,0:0:0:0:
448,192,70492,1,0,0:0:0:0:
320,192,70734,1,0,0:0:0:0:
192,192,70734,1,0,0:0:0:0:
64,192,70976,1,0,0:0:0:0:
320,192,70976,1,0,0:0:0:0:
192,192,71137,1,0,0:0:0:0:
320,192,71218,1,0,0:0:0:0:
448,192,71298,1,0,0:0:0:0:
64,192,71379,1,0,0:0:0:0:
192,192,71460,1,0,0:0:0:0:
320,192,71540,1,0,0:0:0:0:
448,192,71621,1,0,0:0:0:0:
64,192,71702,1,0,0:0:0:0:
192,192,71702,1,0,0:0:0:0:
448,192,71771,1,0,0:0:0:0:
320,192,71840,1,0,0:0:0:0:
192,192,71909,1,0,0:0:0:0:
448,192,71978,1,0,0:0:0:0:
64,192,72047,1,0,0:0:0:0:
192,192,72116,1,0,0:0:0:0:
448,192,72185,1,0,0:0:0:0:
320,192,72185,1,0,0:0:0:0:
192,192,72246,1,0,0:0:0:0:
64,192,72306,1,0,0:0:0:0:
448,192,72367,1,0,0:0:0:0:
320,192,72427,1,0,0:0:0:0:
64,192,72508,1,0,0:0:0:0:
192,192,72589,1,0,0:0:0:0:
448,192,72669,1,0,0:0:0:0:
64,192,72669,1,0,0:0:0:0:
320,192,72730,1,0,0:0:0:0:
192,192,72790,1,0,0:0:0:0:
448,192,72851,1,0,0:0:0:0:
64,192,72911,1,0,0:0:0:0:
192,192,72992,1,0,0:0:0:0:
320,192,73073,1,0,0:0:0:0:
64,192,73153,1,0,0:0:0:0:
192,192,73153,1,0,0:0:0:0:
448,192,73234,1,0,0:0:0:0:
320,192,73314,1,0,0:0:0:0:
192,192,73395,1,0,0:0:0:0:
448,192,73476,1,0,0:0:0:0:
192,192,73556,1,0,0:0:0:0:
448,192,73637,1,0,0:0:0:0:
64,192,73637,1,0,0:0:0:0:
320,192,73698,1,0,0:0:0:0:
448,192,73758,1,0,0:0:0:0:
192,192,73818,1,0,0:0:0:0:
64,192,73879,1,0,0:0:0:0:
320,192,73939,1,0,0:0:0:0:
192,192,74000,1,0,0:0:0:0:
64,192,74060,1,0,0:0:0:0:
448,192,74121,1,0,0:0:0:0:
320,192,74121,1,0,0:0:0:0:
448,192,74363,1,0,0:0:0:0:
320,192,74443,1,0,0:0:0:0:
192,192,74524,1,0,0:0:0:0:
448,192,74605,1,0,0:0:0:0:
64,192,74605,1,0,0:0:0:0:
320,192,74665,1,0,0:0:0:0:
192,192,74726,1,0,0:0:0:0:
448,192,74786,1,0,0:0:0:0:
64,192,74847,1,0,0:0:0:0:
320,192,74927,1,0,0:0:0:0:
64,192,75008,1,0,0:0:0:0:
448,192,75089,1,0,0:0:0:0:
192,192,75089,1,0,0:0:0:0:
320,192,75149,1,0,0:0:0:0:
64,192,75210,1,0,0:0:0:0:
320,192,75270,1,0,0:0:0:0:
192,192,75331,1,0,0:0:0:0:
448,192,75411,1,0,0:0:0:0:
320,192,75492,1,0,0:0:0:0:
192,192,75573,1,0,0:0:0:0:
64,192,75573,1,0,0:0:0:0:
448,192,75633,1,0,0:0:0:0:
320,192,75693,1,0,0:0:0:0:
64,192,75754,1,0,0:0:0:0:
448,192,75814,1,0,0:0:0:0:
192,192,75875,1,0,0:0:0:0:
320,192,75935,1,0,0:0:0:0:
64,192,75996,1,0,0:0:0:0:
448,192,76056,1,0,0:0:0:0:
320,192,76056,1,0,0:0:0:0:
64,192,76117,1,0,0:0:0:0:
192,192,76177,1,0,0:0:0:0:
320,192,76238,1,0,0:0:0:0:
64,192,76298,1,0,0:0:0:0:
448,192,76359,1,0,0:0:0:0:
320,192,76419,1,0,0:0:0:0:
192,192,76480,1,0,0:0:0:0:
64,192,76540,1,0,0:0:0:0:
448,192,76540,1,0,0:0:0:0:
320,192,76601,1,0,0:0:0:0:
192,192,76661,1,0,0:0:0:0:
448,192,76722,1,0,0:0:0:0:
64,192,76782,1,0,0:0:0:0:
320,192,76943,1,0,0:0:0:0:
192,192,77024,1,0,0:0:0:0:
64,192,77024,1,0,0:0:0:0:
320,192,77105,1,0,0:0:0:0:
448,192,77185,1,0,0:0:0:0:
192,192,77266,1,0,0:0:0:0:
64,192,77347,1,0,0:0:0:0:
320,192,77427,1,0,0:0:0:0:
448,192,77508,1,0,0:0:0:0:
64,192,77508,1,0,0:0:0:0:
192,192,77568,1,0,0:0:0:0:
320,192,77629,1,0,0:0:0:0:
448,192,77689,1,0,0:0:0:0:
64,192,77750,1,0,0:0:0:0:
448,192,77831,1,0,0:0:0:0:
320,192,77911,1,0,0:0:0:0:
64,192,77992,1,0,0:0:0:0:
192,192,77992,1,0,0:0:0:0:
320,192,78052,1,0,0:0:0:0:
192,192,78113,1,0,0:0:0:0:
448,192,78173,1,0,0:0:0:0:
64,192,78234,1,0,0:0:0:0:
320,192,78314,1,0,0:0:0:0:
192,192,78395,1,0,0:0:0:0:
64,192,78476,1,0,0:0:0:0:
448,192,78476,1,0,0:0:0:0:
192,192,78536,1,0,0:0:0:0:
320,192,78597,1,0,0:0:0:0:
64,192,78657,1,0,0:0:0:0:
448,192,78718,1,0,0:0:0:0:
64,192,78798,1,0,0:0:0:0:
192,192,78879,1,0,0:0:0:0:
320,192,78960,1,0,0:0:0:0:
448,192,78960,1,0,0:0:0:0:
192,192,79020,1,0,0:0:0:0:
320,192,79081,1,0,0:0:0:0:
64,192,79141,1,0,0:0:0:0:
448,192,79202,1,0,0:0:0:0:
192,192,79282,1,0,0:0:0:0:
320,192,79363,1,0,0:0:0:0:
448,192,79443,1,0,0:0:0:0:
64,192,79443,1,0,0:0:0:0:
320,192,79504,1,0,0:0:0:0:
192,192,79564,1,0,0:0:0:0:
448,192,79625,1,0,0:0:0:0:
64,192,79685,1,0,0:0:0:0:
192,192,79766,1,0,0:0:0:0:
320,192,79847,1,0,0:0:0:0:
64,192,79927,1,0,0:0:0:0:
448,192,79927,1,0,0:0:0:0:
64,192,80089,1,0,0:0:0:0:
448,192,80089,1,0,0:0:0:0:
64,192,80331,1,0,0:0:0:0:
192,192,80411,1,0,0:0:0:0:
320,192,80653,1,0,0:0:0:0:
448,192,80653,1,0,0:0:0:0:
64,192,80814,1,0,0:0:0:0:
320,192,80814,1,0,0:0:0:0:
448,192,80814,1,0,0:0:0:0:
320,192,81056,1,0,0:0:0:0:
192,192,81137,1,0,0:0:0:0:
320,192,81298,1,0,0:0:0:0:
64,192,81379,1,0,0:0:0:0:
192,192,81439,1,0,0:0:0:0:
320,192,81500,1,0,0:0:0:0:
448,192,81560,1,0,0:0:0:0:
64,192,81621,1,0,0:0:0:0:
192,192,81681,1,0,0:0:0:0:
320,192,81742,1,0,0:0:0:0:
448,192,81802,1,0,0:0:0:0:
64,192,81863,1,0,0:0:0:0:
192,192,81863,1,0,0:0:0:0:
320,192,81943,1,0,0:0:0:0:
448,192,82024,1,0,0:0:0:0:
192,192,82105,1,0,0:0:0:0:
320,192,82226,1,0,0:0:0:0:
64,192,82347,1,0,0:0:0:0:
192,192,82347,1,0,0:0:0:0:
320,192,82427,1,0,0:0:0:0:
448,192,82589,1,0,0:0:0:0:
448,192,82710,1,0,0:0:0:0:
320,192,82770,1,0,0:0:0:0:
64,192,82831,1,0,0:0:0:0:
192,192,82831,1,0,0:0:0:0:
448,192,82911,1,0,0:0:0:0:
192,192,82992,1,0,0:0:0:0:
320,192,83073,1,0,0:0:0:0:
192,192,83193,1,0,0:0:0:0:
64,192,83314,1,0,0:0:0:0:
448,192,83314,1,0,0:0:0:0:
192,192,83556,1,0,0:0:0:0:
192,192,83677,1,0,0:0:0:0:
64,192,83738,1,0,0:0:0:0:
320,192,83798,1,0,0:0:0:0:
448,192,83798,1,0,0:0:0:0:
192,192,83879,1,0,0:0:0:0:
64,192,83960,1,0,0:0:0:0:
320,192,84040,1,0,0:0:0:0:
192,192,84161,1,0,0:0:0:0:
64,192,84282,1,0,0:0:0:0:
448,192,84282,1,0,0:0:0:0:
320,192,84403,1,0,0:0:0:0:
64,192,84524,1,0,0:0:0:0:
192,192,84585,1,0,0:0:0:0:
320,192,84645,1,0,0:0:0:0:
64,192,84766,1,0,0:0:0:0:
192,192,84766,1,0,0:0:0:0:
448,192,84887,1,0,0:0:0:0:
320,192,85008,1,0,0:0:0:0:
192,192,85068,1,0,0:0:0:0:
448,192,85250,1,0,0:0:0:0:
64,192,85250,1,0,0:0:0:0:
192,192,85371,1,0,0:0:0:0:
448,192,85492,1,0,0:0:0:0:
320,192,85552,1,0,0:0:0:0:
192,192,85613,1,0,0:0:0:0:
64,192,85734,1,0,0:0:0:0:
320,192,85734,1,0,0:0:0:0:
448,192,85794,1,0,0:0:0:0:
192,192,85855,1,0,0:0:0:0:
64,192,85915,1,0,0:0:0:0:
448,192,85976,1,0,0:0:0:0:
320,192,86097,1,0,0:0:0:0:
448,192,86218,1,0,0:0:0:0:
64,192,86218,1,0,0:0:0:0:
192,192,86298,1,0,0:0:0:0:
320,192,86379,1,0,0:0:0:0:
64,192,86460,1,0,0:0:0:0:
320,192,86581,1,0,0:0:0:0:
448,192,86641,1,0,0:0:0:0:
64,192,86702,1,0,0:0:0:0:
192,192,86702,1,0,0:0:0:0:
320,192,86943,1,0,0:0:0:0:
192,192,87064,1,0,0:0:0:0:
64,192,87185,1,0,0:0:0:0:
448,192,87185,1,0,0:0:0:0:
64,192,87427,1,0,0:0:0:0:
192,192,87548,1,0,0:0:0:0:
320,192,87669,1,0,0:0:0:0:
448,192,87669,1,0,0:0:0:0:
192,192,87790,1,0,0:0:0:0:
448,192,87911,1,0,0:0:0:0:
320,192,87972,1,0,0:0:0:0:
448,192,88153,1,0,0:0:0:0:
64,192,88153,1,0,0:0:0:0:
192,192,88234,1,0,0:0:0:0:
320,192,88314,1,0,0:0:0:0:
192,192,88395,1,0,0:0:0:0:
64,192,88516,1,0,0:0:0:0:
192,192,88577,1,0,0:0:0:0:
448,192,88637,1,0,0:0:0:0:
320,192,88637,1,0,0:0:0:0:
64,192,88798,128,0,88879:0:0:0:0:
192,192,88798,128,0,88879:0:0:0:0:
320,192,89040,1,0,0:0:0:0:
64,192,89121,1,0,0:0:0:0:
448,192,89121,1,0,0:0:0:0:
64,192,89363,1,0,0:0:0:0:
448,192,89363,1,0,0:0:0:0:
320,192,89443,1,0,0:0:0:0:
192,192,89605,1,0,0:0:0:0:
64,192,89605,1,0,0:0:0:0:
320,192,89685,1,0,0:0:0:0:
448,192,89766,1,0,0:0:0:0:
192,192,89847,1,0,0:0:0:0:
320,192,89968,1,0,0:0:0:0:
448,192,90089,1,0,0:0:0:0:
64,192,90089,1,0,0:0:0:0:
64,192,90331,1,0,0:0:0:0:
64,192,90452,1,0,0:0:0:0:
192,192,90512,1,0,0:0:0:0:
320,192,90573,1,0,0:0:0:0:
448,192,90573,1,0,0:0:0:0:
64,192,90653,1,0,0:0:0:0:
192,192,90734,1,0,0:0:0:0:
320,192,90814,1,0,0:0:0:0:
192,192,90976,1,0,0:0:0:0:
320,192,91056,1,0,0:0:0:0:
64,192,91056,1,0,0:0:0:0:
320,192,91298,1,0,0:0:0:0:
320,192,91419,1,0,0:0:0:0:
448,192,91480,1,0,0:0:0:0:
64,192,91540,1,0,0:0:0:0:
192,192,91540,1,0,0:0:0:0:
448,192,91621,1,0,0:0:0:0:
320,192,91702,1,0,0:0:0:0:
192,192,91782,1,0,0:0:0:0:
192,192,91943,1,0,0:0:0:0:
64,192,92024,1,0,0:0:0:0:
448,192,92024,1,0,0:0:0:0:
320,192,92145,1,0,0:0:0:0:
192,192,92266,1,0,0:0:0:0:
320,192,92347,1,0,0:0:0:0:
448,192,92427,1,0,0:0:0:0:
64,192,92508,1,0,0:0:0:0:
192,192,92508,1,0,0:0:0:0:
448,192,92629,1,0,0:0:0:0:
320,192,92750,1,0,0:0:0:0:
192,192,92831,1,0,0:0:0:0:
64,192,92992,1,0,0:0:0:0:
448,192,92992,1,0,0:0:0:0:
320,192,93073,1,0,0:0:0:0:
64,192,93153,1,0,0:0:0:0:
192,192,93234,1,0,0:0:0:0:
320,192,93294,1,0,0:0:0:0:
448,192,93476,1,0,0:0:0:0:
64,192,93476,1,0,0:0:0:0:
192,192,93536,1,0,0:0:0:0:
320,192,93597,1,0,0:0:0:0:
448,192,93657,1,0,0:0:0:0:
64,192,93718,1,0,0:0:0:0:
192,192,93839,1,0,0:0:0:0:
64,192,93960,1,0,0:0:0:0:
448,192,93960,1,0,0:0:0:0:
320,192,94040,1,0,0:0:0:0:
192,192,94121,5,0,0:0:0:0:
448,192,94202,1,0,0:0:0:0:
192,192,94323,1,0,0:0:0:0:
64,192,94383,1,0,0:0:0:0:
448,192,94443,1,0,0:0:0:0:
320,192,94443,1,0,0:0:0:0:
192,192,94504,1,0,0:0:0:0:
448,192,94564,1,0,0:0:0:0:
64,192,94685,1,0,0:0:0:0:
192,192,94806,1,0,0:0:0:0:
64,192,94927,1,0,0:0:0:0:
448,192,94927,1,0,0:0:0:0:
448,192,95169,1,0,0:0:0:0:
320,192,95290,5,0,0:0:0:0:
192,192,95411,1,0,0:0:0:0:
64,192,95411,1,0,0:0:0:0:
320,192,95492,1,0,0:0:0:0:
64,192,95573,1,0,0:0:0:0:
448,192,95653,1,0,0:0:0:0:
320,192,95714,1,0,0:0:0:0:
192,192,95774,1,0,0:0:0:0:
448,192,95895,1,0,0:0:0:0:
320,192,95895,1,0,0:0:0:0:
192,192,95976,1,0,0:0:0:0:
64,192,96056,1,0,0:0:0:0:
192,192,96137,1,0,0:0:0:0:
320,192,96298,1,0,0:0:0:0:
448,192,96379,1,0,0:0:0:0:
64,192,96379,1,0,0:0:0:0:
320,192,96500,1,0,0:0:0:0:
64,192,96621,1,0,0:0:0:0:
192,192,96742,1,0,0:0:0:0:
320,192,96863,1,0,0:0:0:0:
448,192,96863,1,0,0:0:0:0:
64,192,96984,1,0,0:0:0:0:
448,192,97105,1,0,0:0:0:0:
64,192,97226,1,0,0:0:0:0:
192,192,97347,1,0,0:0:0:0:
448,192,97347,128,0,97589:0:0:0:0:
64,192,97589,128,0,97831:0:0:0:0:
320,192,97831,1,0,0:0:0:0:
448,192,97831,128,0,98073:0:0:0:0:
192,192,98073,128,0,98314:0:0:0:0:
448,192,98314,1,0,0:0:0:0:
64,192,98314,128,0,98677:0:0:0:0:
320,192,98556,1,0,0:0:0:0:
192,192,98677,128,0,98798:0:0:0:0:
448,192,98798,1,0,0:0:0:0:
320,192,98798,1,0,0:0:0:0:
320,192,99040,128,0,99282:0:0:0:0:
64,192,99202,1,0,0:0:0:0:
192,192,99282,1,0,0:0:0:0:
448,192,99282,1,0,0:0:0:0:
64,192,99524,128,0,99645:0:0:0:0:
320,192,99766,1,0,0:0:0:0:
448,192,99766,128,0,99887:0:0:0:0:
64,192,100008,128,0,100129:0:0:0:0:
192,192,100169,1,0,0:0:0:0:
448,192,100250,1,0,0:0:0:0:
320,192,100250,128,0,100371:0:0:0:0:
192,192,100492,1,0,0:0:0:0:
64,192,100734,1,0,0:0:0:0:
320,192,100734,1,0,0:0:0:0:
448,192,100976,1,0,0:0:0:0:
192,192,101137,1,0,0:0:0:0:
448,192,101218,1,0,0:0:0:0:
320,192,101218,1,0,0:0:0:0:
64,192,101460,1,0,0:0:0:0:
320,192,101702,1,0,0:0:0:0:
448,192,101702,1,0,0:0:0:0:
192,192,101943,1,0,0:0:0:0:
320,192,102105,1,0,0:0:0:0:
64,192,102185,1,0,0:0:0:0:
448,192,102185,1,0,0:0:0:0:
192,192,102427,1,0,0:0:0:0:
320,192,102548,1,0,0:0:0:0:
192,192,102669,1,0,0:0:0:0:
64,192,102669,1,0,0:0:0:0:
192,192,102911,1,0,0:0:0:0:
320,192,103073,1,0,0:0:0:0:
64,192,103153,1,0,0:0:0:0:
448,192,103153,1,0,0:0:0:0:
64,192,103395,1,0,0:0:0:0:
320,192,103637,1,0,0:0:0:0:
448,192,103637,1,0,0:0:0:0:
64,192,103879,1,0,0:0:0:0:
192,192,104040,1,0,0:0:0:0:
448,192,104121,1,0,0:0:0:0:
320,192,104121,1,0,0:0:0:0:
192,192,104363,1,0,0:0:0:0:
64,192,104605,1,0,0:0:0:0:
448,192,104605,1,0,0:0:0:0:
192,192,104847,1,0,0:0:0:0:
320,192,105008,1,0,0:0:0:0:
64,192,105089,1,0,0:0:0:0:
192,192,105089,128,0,105210:0:0:0:0:
64,192,105331,1,0,0:0:0:0:
320,192,105331,128,0,105452:0:0:0:0:
64,192,105573,1,0,0:0:0:0:
192,192,105573,128,0,105693:0:0:0:0:
320,192,105814,1,0,0:0:0:0:
64,192,105814,128,0,105935:0:0:0:0:
192,192,105935,1,0,0:0:0:0:
448,192,106056,1,0,0:0:0:0:
320,192,106056,128,0,106177:0:0:0:0:
448,192,106298,1,0,0:0:0:0:
192,192,106298,128,0,106419:0:0:0:0:
448,192,106540,1,0,0:0:0:0:
320,192,106540,128,0,106782:0:0:0:0:
192,192,106782,1,0,0:0:0:0:
448,192,106782,128,0,107024:0:0:0:0:
320,192,106943,1,0,0:0:0:0:
192,192,107024,1,0,0:0:0:0:
64,192,107024,128,0,107266:0:0:0:0:
192,192,107266,1,0,0:0:0:0:
448,192,107266,128,0,107508:0:0:0:0:
192,192,107508,1,0,0:0:0:0:
64,192,107508,128,0,107750:0:0:0:0:
448,192,107750,1,0,0:0:0:0:
192,192,107750,128,0,107992:0:0:0:0:
320,192,107992,1,0,0:0:0:0:
448,192,107992,128,0,108234:0:0:0:0:
320,192,108234,1,0,0:0:0:0:
64,192,108234,128,0,108476:0:0:0:0:
320,192,108476,1,0,0:0:0:0:
448,192,108476,128,0,108718:0:0:0:0:
64,192,108718,1,0,0:0:0:0:
320,192,108718,1,0,0:0:0:0:
192,192,108879,1,0,0:0:0:0:
320,192,108960,1,0,0:0:0:0:
448,192,108960,128,0,109202:0:0:0:0:
192,192,109202,128,0,109443:0:0:0:0:
64,192,109443,128,0,109685:0:0:0:0:
448,192,109685,1,0,0:0:0:0:
320,192,109685,128,0,110169:0:0:0:0:
192,192,110169,1,0,0:0:0:0:
64,192,110411,1,0,0:0:0:0:
320,192,110411,1,0,0:0:0:0:
448,192,110411,128,0,111379:0:0:0:0:
64,192,111379,1,0,0:0:0:0:
192,192,111460,1,0,0:0:0:0:
320,192,111540,1,0,0:0:0:0:
64,192,111621,1,0,0:0:0:0:
448,192,111702,1,0,0:0:0:0:
192,192,111782,1,0,0:0:0:0:
320,192,111863,1,0,0:0:0:0:
64,192,111863,1,0,0:0:0:0:
448,192,112105,1,0,0:0:0:0:
448,192,112589,1,0,0:0:0:0:
192,192,112710,1,0,0:0:0:0:
64,192,112831,1,0,0:0:0:0:
448,192,112831,1,0,0:0:0:0:
192,192,112891,1,0,0:0:0:0:
448,192,112952,1,0,0:0:0:0:
64,192,113012,1,0,0:0:0:0:
320,192,113073,1,0,0:0:0:0:
192,192,113113,1,0,0:0:0:0:
448,192,113314,1,0,0:0:0:0:
64,192,113314,1,0,0:0:0:0:
320,192,113375,1,0,0:0:0:0:
64,192,113435,1,0,0:0:0:0:
448,192,113496,1,0,0:0:0:0:
192,192,113556,1,0,0:0:0:0:
320,192,113597,1,0,0:0:0:0:
448,192,113798,1,0,0:0:0:0:
64,192,113798,1,0,0:0:0:0:
192,192,113859,1,0,0:0:0:0:
448,192,113919,1,0,0:0:0:0:
64,192,113980,1,0,0:0:0:0:
320,192,114040,1,0,0:0:0:0:
192,192,114081,1,0,0:0:0:0:
448,192,114282,1,0,0:0:0:0:
64,192,114282,1,0,0:0:0:0:
320,192,114343,1,0,0:0:0:0:
64,192,114403,1,0,0:0:0:0:
448,192,114464,1,0,0:0:0:0:
192,192,114524,1,0,0:0:0:0:
320,192,114564,1,0,0:0:0:0:
448,192,114766,1,0,0:0:0:0:
192,192,114766,1,0,0:0:0:0:
64,192,114827,1,0,0:0:0:0:
320,192,114887,1,0,0:0:0:0:
64,192,114948,1,0,0:0:0:0:
448,192,115008,1,0,0:0:0:0:
192,192,115048,1,0,0:0:0:0:
64,192,115250,1,0,0:0:0:0:
320,192,115250,1,0,0:0:0:0:
448,192,115310,1,0,0:0:0:0:
192,192,115371,1,0,0:0:0:0:
448,192,115431,1,0,0:0:0:0:
64,192,115492,1,0,0:0:0:0:
320,192,115532,1,0,0:0:0:0:
448,192,115734,1,0,0:0:0:0:
192,192,115734,1,0,0:0:0:0:
64,192,115794,1,0,0:0:0:0:
320,192,115855,1,0,0:0:0:0:
64,192,115915,1,0,0:0:0:0:
448,192,115976,1,0,0:0:0:0:
192,192,116016,1,0,0:0:0:0:
64,192,116218,1,0,0:0:0:0:
320,192,116218,1,0,0:0:0:0:
448,192,116278,1,0,0:0:0:0:
192,192,116339,1,0,0:0:0:0:
448,192,116399,1,0,0:0:0:0:
64,192,116460,1,0,0:0:0:0:
320,192,116500,1,0,0:0:0:0:
320,192,116702,1,0,0:0:0:0:
448,192,116702,1,0,0:0:0:0:
64,192,116762,1,0,0:0:0:0:
192,192,116823,1,0,0:0:0:0:
320,192,116883,1,0,0:0:0:0:
64,192,116943,1,0,0:0:0:0:
320,192,117105,1,0,0:0:0:0:
192,192,117185,1,0,0:0:0:0:
64,192,117185,1,0,0:0:0:0:
448,192,117246,1,0,0:0:0:0:
320,192,117306,1,0,0:0:0:0:
192,192,117367,1,0,0:0:0:0:
448,192,117427,1,0,0:0:0:0:
192,192,117589,1,0,0:0:0:0:
448,192,117669,1,0,0:0:0:0:
320,192,117669,1,0,0:0:0:0:
64,192,117730,1,0,0:0:0:0:
192,192,117790,1,0,0:0:0:0:
320,192,117851,1,0,0:0:0:0:
64,192,117911,1,0,0:0:0:0:
320,192,118073,1,0,0:0:0:0:
192,192,118153,1,0,0:0:0:0:
64,192,118153,1,0,0:0:0:0:
448,192,118214,1,0,0:0:0:0:
320,192,118274,1,0,0:0:0:0:
192,192,118335,1,0,0:0:0:0:
448,192,118395,1,0,0:0:0:0:
192,192,118556,1,0,0:0:0:0:
448,192,118637,1,0,0:0:0:0:
320,192,118637,1,0,0:0:0:0:
64,192,118698,1,0,0:0:0:0:
448,192,118758,1,0,0:0:0:0:
192,192,118818,1,0,0:0:0:0:
320,192,118879,1,0,0:0:0:0:
320,192,119040,1,0,0:0:0:0:
192,192,119121,1,0,0:0:0:0:
64,192,119121,1,0,0:0:0:0:
448,192,119181,1,0,0:0:0:0:
64,192,119242,1,0,0:0:0:0:
320,192,119302,1,0,0:0:0:0:
192,192,119363,1,0,0:0:0:0:
192,192,119524,1,0,0:0:0:0:
448,192,119605,1,0,0:0:0:0:
320,192,119605,1,0,0:0:0:0:
64,192,119665,1,0,0:0:0:0:
448,192,119726,1,0,0:0:0:0:
192,192,119786,1,0,0:0:0:0:
320,192,119847,1,0,0:0:0:0:
320,192,120008,1,0,0:0:0:0:
192,192,120089,1,0,0:0:0:0:
64,192,120089,1,0,0:0:0:0:
448,192,120149,1,0,0:0:0:0:
64,192,120210,1,0,0:0:0:0:
320,192,120270,1,0,0:0:0:0:
192,192,120331,1,0,0:0:0:0:
192,192,120492,1,0,0:0:0:0:
64,192,120573,1,0,0:0:0:0:
448,192,120573,1,0,0:0:0:0:
320,192,120633,1,0,0:0:0:0:
64,192,120693,1,0,0:0:0:0:
448,192,120754,1,0,0:0:0:0:
192,192,120814,1,0,0:0:0:0:
320,192,120855,1,0,0:0:0:0:
448,192,121056,1,0,0:0:0:0:
64,192,121056,1,0,0:0:0:0:
192,192,121117,1,0,0:0:0:0:
448,192,121177,1,0,0:0:0:0:
64,192,121238,1,0,0:0:0:0:
320,192,121298,1,0,0:0:0:0:
192,192,121339,1,0,0:0:0:0:
448,192,121540,1,0,0:0:0:0:
64,192,121540,1,0,0:0:0:0:
320,192,121601,1,0,0:0:0:0:
64,192,121661,1,0,0:0:0:0:
448,192,121722,1,0,0:0:0:0:
192,192,121782,1,0,0:0:0:0:
320,192,121823,1,0,0:0:0:0:
448,192,122024,1,0,0:0:0:0:
64,192,122024,1,0,0:0:0:0:
192,192,122085,1,0,0:0:0:0:
448,192,122145,1,0,0:0:0:0:
64,192,122206,1,0,0:0:0:0:
320,192,122266,1,0,0:0:0:0:
192,192,122306,1,0,0:0:0:0:
192,192,122508,1,0,0:0:0:0:
448,192,122508,1,0,0:0:0:0:
320,192,122568,1,0,0:0:0:0:
64,192,122629,1,0,0:0:0:0:
320,192,122689,1,0,0:0:0:0:
448,192,122750,1,0,0:0:0:0:
192,192,122790,1,0,0:0:0:0:
320,192,122992,1,0,0:0:0:0:
64,192,122992,1,0,0:0:0:0:
192,192,123052,1,0,0:0:0:0:
448,192,123113,1,0,0:0:0:0:
192,192,123173,1,0,0:0:0:0:
64,192,123234,1,0,0:0:0:0:
320,192,123274,1,0,0:0:0:0:
192,192,123476,1,0,0:0:0:0:
448,192,123476,1,0,0:0:0:0:
320,192,123536,1,0,0:0:0:0:
64,192,123597,1,0,0:0:0:0:
320,192,123657,1,0,0:0:0:0:
448,192,123718,1,0,0:0:0:0:
192,192,123758,1,0,0:0:0:0:
320,192,123960,1,0,0:0:0:0:
64,192,123960,1,0,0:0:0:0:
192,192,124020,1,0,0:0:0:0:
448,192,124081,1,0,0:0:0:0:
192,192,124141,1,0,0:0:0:0:
64,192,124202,1,0,0:0:0:0:
320,192,124242,1,0,0:0:0:0:
192,192,124443,1,0,0:0:0:0:
64,192,124443,1,0,0:0:0:0:
448,192,124504,1,0,0:0:0:0:
320,192,124564,1,0,0:0:0:0:
192,192,124625,1,0,0:0:0:0:
448,192,124685,1,0,0:0:0:0:
192,192,124847,1,0,0:0:0:0:
320,192,124927,1,0,0:0:0:0:
448,192,124927,1,0,0:0:0:0:
64,192,124988,1,0,0:0:0:0:
192,192,125048,1,0,0:0:0:0:
320,192,125109,1,0,0:0:0:0:
64,192,125169,1,0,0:0:0:0:
320,192,125331,1,0,0:0:0:0:
64,192,125411,1,0,0:0:0:0:
192,192,125411,1,0,0:0:0:0:
448,192,125472,1,0,0:0:0:0:
320,192,125532,1,0,0:0:0:0:
192,192,125593,1,0,0:0:0:0:
448,192,125653,1,0,0:0:0:0:
192,192,125814,1,0,0:0:0:0:
320,192,125895,1,0,0:0:0:0:
448,192,125895,1,0,0:0:0:0:
64,192,125956,1,0,0:0:0:0:
192,192,126016,1,0,0:0:0:0:
320,192,126077,1,0,0:0:0:0:
64,192,126137,1,0,0:0:0:0:
320,192,126298,1,0,0:0:0:0:
64,192,126379,1,0,0:0:0:0:
448,192,126439,1,0,0:0:0:0:
64,192,126500,1,0,0:0:0:0:
320,192,126560,1,0,0:0:0:0:
192,192,126621,1,0,0:0:0:0:
192,192,126782,1,0,0:0:0:0:
448,192,126863,1,0,0:0:0:0:
64,192,126923,1,0,0:0:0:0:
448,192,126984,1,0,0:0:0:0:
192,192,127044,1,0,0:0:0:0:
320,192,127105,1,0,0:0:0:0:
320,192,127266,1,0,0:0:0:0:
64,192,127347,1,0,0:0:0:0:
448,192,127407,1,0,0:0:0:0:
64,192,127468,1,0,0:0:0:0:
320,192,127528,1,0,0:0:0:0:
192,192,127589,1,0,0:0:0:0:
192,192,127750,1,0,0:0:0:0:
320,192,127831,1,0,0:0:0:0:
448,192,127831,1,0,0:0:0:0:
64,192,127891,1,0,0:0:0:0:
448,192,127952,1,0,0:0:0:0:
320,192,128012,1,0,0:0:0:0:
192,192,128073,1,0,0:0:0:0:
64,192,128073,1,0,0:0:0:0:
320,192,128314,1,0,0:0:0:0:
192,192,128314,1,0,0:0:0:0:
64,192,128556,1,0,0:0:0:0:
448,192,128556,1,0,0:0:0:0:
64,192,128798,1,0,0:0:0:0:
192,192,128798,1,0,0:0:0:0:
320,192,128879,1,0,0:0:0:0:
448,192,128960,1,0,0:0:0:0:
192,192,129040,1,0,0:0:0:0:
320,192,129161,1,0,0:0:0:0:
64,192,129282,1,0,0:0:0:0:
448,192,129282,1,0,0:0:0:0:
320,192,129343,1,0,0:0:0:0:
192,192,129403,1,0,0:0:0:0:
448,192,129464,1,0,0:0:0:0:
64,192,129524,1,0,0:0:0:0:
448,192,129605,1,0,0:0:0:0:
320,192,129685,1,0,0:0:0:0:
192,192,129766,1,0,0:0:0:0:
64,192,129766,1,0,0:0:0:0:
448,192,129827,1,0,0:0:0:0:
320,192,129887,1,0,0:0:0:0:
64,192,130008,1,0,0:0:0:0:
192,192,130129,1,0,0:0:0:0:
448,192,130250,1,0,0:0:0:0:
64,192,130250,1,0,0:0:0:0:
320,192,130331,1,0,0:0:0:0:
192,192,130411,1,0,0:0:0:0:
448,192,130492,1,0,0:0:0:0:
64,192,130552,1,0,0:0:0:0:
192,192,130613,1,0,0:0:0:0:
320,192,130734,1,0,0:0:0:0:
448,192,130734,1,0,0:0:0:0:
192,192,130794,1,0,0:0:0:0:
64,192,130855,1,0,0:0:0:0:
448,192,130915,1,0,0:0:0:0:
320,192,130976,1,0,0:0:0:0:
64,192,131056,1,0,0:0:0:0:
320,192,131137,1,0,0:0:0:0:
448,192,131218,1,0,0:0:0:0:
64,192,131218,1,0,0:0:0:0:
320,192,131460,1,0,0:0:0:0:
448,192,131520,1,0,0:0:0:0:
192,192,131702,1,0,0:0:0:0:
64,192,131702,1,0,0:0:0:0:
320,192,131943,1,0,0:0:0:0:
192,192,132064,1,0,0:0:0:0:
448,192,132185,1,0,0:0:0:0:
64,192,132185,1,0,0:0:0:0:
320,192,132266,1,0,0:0:0:0:
192,192,132347,1,0,0:0:0:0:
64,192,132427,1,0,0:0:0:0:
320,192,132488,1,0,0:0:0:0:
192,192,132548,1,0,0:0:0:0:
320,192,132669,1,0,0:0:0:0:
448,192,132669,1,0,0:0:0:0:
192,192,132750,1,0,0:0:0:0:
64,192,132831,1,0,0:0:0:0:
320,192,132911,1,0,0:0:0:0:
192,192,132992,1,0,0:0:0:0:
448,192,133073,1,0,0:0:0:0:
192,192,133153,1,0,0:0:0:0:
64,192,133153,1,0,0:0:0:0:
320,192,133234,1,0,0:0:0:0:
64,192,133314,1,0,0:0:0:0:
448,192,133395,1,0,0:0:0:0:
320,192,133476,1,0,0:0:0:0:
64,192,133556,1,0,0:0:0:0:
320,192,133637,1,0,0:0:0:0:
192,192,133637,1,0,0:0:0:0:
448,192,133734,1,0,0:0:0:0:
320,192,133879,1,0,0:0:0:0:
192,192,134000,1,0,0:0:0:0:
448,192,134121,1,0,0:0:0:0:
320,192,134121,1,0,0:0:0:0:
192,192,134242,1,0,0:0:0:0:
64,192,134363,1,0,0:0:0:0:
192,192,134443,1,0,0:0:0:0:
448,192,134524,1,0,0:0:0:0:
320,192,134605,1,0,0:0:0:0:
64,192,134605,1,0,0:0:0:0:
192,192,134674,1,0,0:0:0:0:
448,192,134743,1,0,0:0:0:0:
320,192,134812,1,0,0:0:0:0:
192,192,134881,1,0,0:0:0:0:
64,192,134950,1,0,0:0:0:0:
320,192,135020,1,0,0:0:0:0:
448,192,135089,1,0,0:0:0:0:
192,192,135089,1,0,0:0:0:0:
64,192,135158,1,0,0:0:0:0:
320,192,135227,1,0,0:0:0:0:
448,192,135296,1,0,0:0:0:0:
64,192,135365,1,0,0:0:0:0:
320,192,135452,1,0,0:0:0:0:
64,192,135573,1,0,0:0:0:0:
448,192,135573,1,0,0:0:0:0:
192,192,135734,1,0,0:0:0:0:
320,192,135814,1,0,0:0:0:0:
448,192,135814,1,0,0:0:0:0:
320,192,135976,1,0,0:0:0:0:
192,192,136056,1,0,0:0:0:0:
64,192,136056,1,0,0:0:0:0:
448,192,136056,1,0,0:0:0:0:
448,192,136298,1,0,0:0:0:0:
320,192,136540,1,0,0:0:0:0:
192,192,136782,1,0,0:0:0:0:
64,192,137024,1,0,0:0:0:0:
448,192,137024,1,0,0:0:0:0:
320,192,137024,1,0,0:0:0:0:
192,192,137105,1,0,0:0:0:0:
192,192,137508,1,0,0:0:0:0:
320,192,137629,1,0,0:0:0:0:
64,192,137750,1,0,0:0:0:0:
448,192,137750,1,0,0:0:0:0:
192,192,137810,1,0,0:0:0:0:
448,192,137992,1,0,0:0:0:0:
192,192,138234,1,0,0:0:0:0:
448,192,138234,1,0,0:0:0:0:
320,192,138476,1,0,0:0:0:0:
192,192,138476,1,0,0:0:0:0:
64,192,138718,1,0,0:0:0:0:
320,192,138718,1,0,0:0:0:0:
192,192,138879,1,0,0:0:0:0:
320,192,138960,1,0,0:0:0:0:
448,192,139040,1,0,0:0:0:0:
64,192,139121,1,0,0:0:0:0:
192,192,139202,1,0,0:0:0:0:
320,192,139282,1,0,0:0:0:0:
448,192,139363,1,0,0:0:0:0:
64,192,139443,1,0,0:0:0:0:
192,192,139443,1,0,0:0:0:0:
448,192,139524,1,0,0:0:0:0:
320,192,139605,1,0,0:0:0:0:
192,192,139685,1,0,0:0:0:0:
448,192,139766,1,0,0:0:0:0:
64,192,139847,1,0,0:0:0:0:
320,192,139927,1,0,0:0:0:0:
448,192,139927,128,0,141137:0:0:0:0:
64,192,140411,1,0,0:0:0:0:
320,192,140411,1,0,0:0:0:0:
64,192,140895,1,0,0:0:0:0:
192,192,140895,1,0,0:0:0:0:
64,192,141137,128,0,141500:0:0:0:0:
192,192,141379,1,0,0:0:0:0:
448,192,141379,1,0,0:0:0:0:
320,192,141500,128,0,141863:0:0:0:0:
448,192,141802,1,0,0:0:0:0:
192,192,141863,128,0,142831:0:0:0:0:
64,192,141863,1,0,0:0:0:0:
320,192,142105,1,0,0:0:0:0:
64,192,142347,1,0,0:0:0:0:
448,192,142347,1,0,0:0:0:0:
64,192,142589,1,0,0:0:0:0:
320,192,142770,1,0,0:0:0:0:
448,192,142831,128,0,143314:0:0:0:0:
64,192,142831,1,0,0:0:0:0:
192,192,143073,1,0,0:0:0:0:
192,192,143314,1,0,0:0:0:0:
64,192,143314,128,0,143798:0:0:0:0:
320,192,143476,1,0,0:0:0:0:
192,192,143677,1,0,0:0:0:0:
320,192,143798,1,0,0:0:0:0:
448,192,143798,1,0,0:0:0:0:
192,192,144040,1,0,0:0:0:0:
448,192,144040,128,0,144121:0:0:0:0:
64,192,144282,128,0,144443:0:0:0:0:
320,192,144282,1,0,0:0:0:0:
192,192,144443,1,0,0:0:0:0:
320,192,144685,128,0,144766:0:0:0:0:
64,192,144766,1,0,0:0:0:0:
448,192,144766,1,0,0:0:0:0:
192,192,144927,128,0,145008:0:0:0:0:
64,192,145169,128,0,145492:0:0:0:0:
320,192,145250,1,0,0:0:0:0:
448,192,145250,1,0,0:0:0:0:
192,192,145492,128,0,145734:0:0:0:0:
64,192,145734,1,0,0:0:0:0:
448,192,145734,128,0,146137:0:0:0:0:
320,192,145976,1,0,0:0:0:0:
192,192,146137,1,0,0:0:0:0:
448,192,146218,128,0,146460:0:0:0:0:
64,192,146218,1,0,0:0:0:0:
320,192,146460,128,0,146621:0:0:0:0:
448,192,146621,1,0,0:0:0:0:
192,192,146702,1,0,0:0:0:0:
320,192,146702,128,0,147064:0:0:0:0:
448,192,147064,1,0,0:0:0:0:
192,192,147125,1,0,0:0:0:0:
64,192,147185,128,0,147427:0:0:0:0:
320,192,147185,1,0,0:0:0:0:
320,192,147427,128,0,147669:0:0:0:0:
192,192,147669,1,0,0:0:0:0:
64,192,147669,1,0,0:0:0:0:
192,192,147831,128,0,147911:0:0:0:0:
320,192,147992,1,0,0:0:0:0:
192,192,148073,1,0,0:0:0:0:
64,192,148153,1,0,0:0:0:0:
448,192,148153,128,0,148314:0:0:0:0:
320,192,148314,128,0,148395:0:0:0:0:
64,192,148395,128,0,148516:0:0:0:0:
192,192,148516,128,0,148637:0:0:0:0:
320,192,148637,1,0,0:0:0:0:
448,192,148637,128,0,148798:0:0:0:0:
192,192,148798,128,0,148879:0:0:0:0:
64,192,148879,128,0,149040:0:0:0:0:
320,192,149040,128,0,149121:0:0:0:0:
192,192,149121,1,0,0:0:0:0:
448,192,149121,1,0,0:0:0:0:
320,192,149242,1,0,0:0:0:0:
64,192,149302,1,0,0:0:0:0:
448,192,149363,128,0,149524:0:0:0:0:
320,192,149524,128,0,149605:0:0:0:0:
192,192,149605,1,0,0:0:0:0:
64,192,149605,1,0,0:0:0:0:
64,192,149726,128,0,149847:0:0:0:0:
192,192,149847,1,0,0:0:0:0:
320,192,149907,1,0,0:0:0:0:
448,192,149968,128,0,150089:0:0:0:0:
64,192,150089,1,0,0:0:0:0:
192,192,150089,1,0,0:0:0:0:
192,192,150250,128,0,150331:0:0:0:0:
320,192,150331,128,0,150452:0:0:0:0:
64,192,150452,128,0,150573:0:0:0:0:
448,192,150573,128,0,150734:0:0:0:0:
192,192,150573,1,0,0:0:0:0:
320,192,150734,1,0,0:0:0:0:
64,192,150814,128,0,150976:0:0:0:0:
192,192,150976,128,0,151298:0:0:0:0:
448,192,151056,1,0,0:0:0:0:
320,192,151056,1,0,0:0:0:0:
64,192,151298,128,0,151540:0:0:0:0:
448,192,151540,128,0,151782:0:0:0:0:
320,192,151540,128,0,152024:0:0:0:0:
192,192,151782,128,0,152024:0:0:0:0:
448,192,152024,1,0,0:0:0:0:
64,192,152024,1,0,0:0:0:0:
192,192,152266,128,0,152750:0:0:0:0:
320,192,152347,128,0,152750:0:0:0:0:
64,192,152508,1,0,0:0:0:0:
448,192,152508,1,0,0:0:0:0:
64,192,152750,128,0,152992:0:0:0:0:
192,192,152992,1,0,0:0:0:0:
448,192,152992,128,0,153718:0:0:0:0:
320,192,152992,128,0,153718:0:0:0:0:
64,192,153234,1,0,0:0:0:0:
192,192,153476,1,0,0:0:0:0:
64,192,153476,1,0,0:0:0:0:
64,192,153718,128,0,153960:0:0:0:0:
448,192,153960,1,0,0:0:0:0:
320,192,153960,1,0,0:0:0:0:
192,192,154081,1,0,0:0:0:0:
448,192,154202,1,0,0:0:0:0:
320,192,154282,1,0,0:0:0:0:
64,192,154363,1,0,0:0:0:0:
192,192,154443,1,0,0:0:0:0:
448,192,154443,1,0,0:0:0:0:
320,192,154524,1,0,0:0:0:0:
64,192,154605,1,0,0:0:0:0:
192,192,154685,1,0,0:0:0:0:
448,192,154766,1,0,0:0:0:0:
320,192,154847,1,0,0:0:0:0:
192,192,154927,1,0,0:0:0:0:
64,192,154927,1,0,0:0:0:0:
448,192,155008,1,0,0:0:0:0:
192,192,155089,1,0,0:0:0:0:
320,192,155169,1,0,0:0:0:0:
64,192,155230,1,0,0:0:0:0:
448,192,155290,1,0,0:0:0:0:
192,192,155351,1,0,0:0:0:0:
64,192,155411,1,0,0:0:0:0:
448,192,155411,1,0,0:0:0:0:
320,192,155653,1,0,0:0:0:0:
192,192,156056,1,0,0:0:0:0:
192,192,156379,1,0,0:0:0:0:
64,192,156379,1,0,0:0:0:0:
448,192,156540,1,0,0:0:0:0:
64,192,157105,1,0,0:0:0:0:
320,192,157226,1,0,0:0:0:0:
448,192,157347,1,0,0:0:0:0:
64,192,157347,1,0,0:0:0:0:
320,192,157407,1,0,0:0:0:0:
192,192,157468,1,0,0:0:0:0:
448,192,157528,1,0,0:0:0:0:
192,192,157589,1,0,0:0:0:0:
320,192,157669,1,0,0:0:0:0:
64,192,157831,1,0,0:0:0:0:
448,192,157831,1,0,0:0:0:0:
192,192,157891,1,0,0:0:0:0:
320,192,157952,1,0,0:0:0:0:
64,192,158012,1,0,0:0:0:0:
320,192,158073,1,0,0:0:0:0:
192,192,158153,1,0,0:0:0:0:
64,192,158314,1,0,0:0:0:0:
448,192,158314,1,0,0:0:0:0:
320,192,158375,1,0,0:0:0:0:
192,192,158435,1,0,0:0:0:0:
448,192,158496,1,0,0:0:0:0:
192,192,158556,1,0,0:0:0:0:
320,192,158637,1,0,0:0:0:0:
64,192,158798,1,0,0:0:0:0:
448,192,158798,1,0,0:0:0:0:
192,192,158859,1,0,0:0:0:0:
320,192,158919,1,0,0:0:0:0:
64,192,158980,1,0,0:0:0:0:
320,192,159040,1,0,0:0:0:0:
192,192,159121,1,0,0:0:0:0:
64,192,159282,1,0,0:0:0:0:
320,192,159282,1,0,0:0:0:0:
448,192,159343,1,0,0:0:0:0:
192,192,159403,1,0,0:0:0:0:
320,192,159464,1,0,0:0:0:0:
448,192,159524,1,0,0:0:0:0:
320,192,159605,1,0,0:0:0:0:
448,192,159766,1,0,0:0:0:0:
192,192,159766,1,0,0:0:0:0:
64,192,159827,1,0,0:0:0:0:
320,192,159887,1,0,0:0:0:0:
192,192,159948,1,0,0:0:0:0:
64,192,160008,1,0,0:0:0:0:
192,192,160089,1,0,0:0:0:0:
64,192,160250,1,0,0:0:0:0:
320,192,160250,1,0,0:0:0:0:
448,192,160310,1,0,0:0:0:0:
192,192,160371,1,0,0:0:0:0:
320,192,160431,1,0,0:0:0:0:
448,192,160492,1,0,0:0:0:0:
320,192,160573,1,0,0:0:0:0:
448,192,160734,1,0,0:0:0:0:
192,192,160734,1,0,0:0:0:0:
64,192,160794,1,0,0:0:0:0:
320,192,160855,1,0,0:0:0:0:
192,192,160915,1,0,0:0:0:0:
64,192,160976,1,0,0:0:0:0:
192,192,161056,1,0,0:0:0:0:
192,192,161218,1,0,0:0:0:0:
64,192,161218,1,0,0:0:0:0:
448,192,161278,1,0,0:0:0:0:
320,192,161339,1,0,0:0:0:0:
192,192,161399,1,0,0:0:0:0:
64,192,161460,1,0,0:0:0:0:
192,192,161581,1,0,0:0:0:0:
320,192,161702,1,0,0:0:0:0:
448,192,161702,1,0,0:0:0:0:
64,192,161762,1,0,0:0:0:0:
192,192,161823,1,0,0:0:0:0:
320,192,161883,1,0,0:0:0:0:
448,192,161943,1,0,0:0:0:0:
320,192,162064,1,0,0:0:0:0:
64,192,162185,1,0,0:0:0:0:
192,192,162185,1,0,0:0:0:0:
448,192,162246,1,0,0:0:0:0:
320,192,162306,1,0,0:0:0:0:
192,192,162367,1,0,0:0:0:0:
64,192,162427,1,0,0:0:0:0:
192,192,162548,1,0,0:0:0:0:
320,192,162669,1,0,0:0:0:0:
448,192,162669,1,0,0:0:0:0:
64,192,162730,1,0,0:0:0:0:
192,192,162790,1,0,0:0:0:0:
320,192,162851,1,0,0:0:0:0:
448,192,162911,1,0,0:0:0:0:
320,192,163032,1,0,0:0:0:0:
448,192,163153,1,0,0:0:0:0:
320,192,163153,1,0,0:0:0:0:
192,192,163214,1,0,0:0:0:0:
64,192,163274,1,0,0:0:0:0:
448,192,163335,1,0,0:0:0:0:
320,192,163395,1,0,0:0:0:0:
320,192,163556,1,0,0:0:0:0:
192,192,163637,1,0,0:0:0:0:
64,192,163637,1,0,0:0:0:0:
320,192,163698,1,0,0:0:0:0:
448,192,163758,1,0,0:0:0:0:
64,192,163818,1,0,0:0:0:0:
192,192,163879,1,0,0:0:0:0:
192,192,164040,1,0,0:0:0:0:
448,192,164121,1,0,0:0:0:0:
320,192,164121,1,0,0:0:0:0:
192,192,164181,1,0,0:0:0:0:
64,192,164242,1,0,0:0:0:0:
448,192,164302,1,0,0:0:0:0:
320,192,164363,1,0,0:0:0:0:
320,192,164524,1,0,0:0:0:0:
192,192,164605,1,0,0:0:0:0:
64,192,164605,1,0,0:0:0:0:
320,192,164665,1,0,0:0:0:0:
448,192,164726,1,0,0:0:0:0:
64,192,164786,1,0,0:0:0:0:
192,192,164847,1,0,0:0:0:0:
192,192,165008,1,0,0:0:0:0:
448,192,165089,1,0,0:0:0:0:
64,192,165089,1,0,0:0:0:0:
320,192,165149,1,0,0:0:0:0:
64,192,165210,1,0,0:0:0:0:
192,192,165270,1,0,0:0:0:0:
320,192,165331,1,0,0:0:0:0:
64,192,165411,1,0,0:0:0:0:
64,192,165573,1,0,0:0:0:0:
448,192,165573,1,0,0:0:0:0:
192,192,165633,1,0,0:0:0:0:
448,192,165693,1,0,0:0:0:0:
320,192,165754,1,0,0:0:0:0:
192,192,165814,1,0,0:0:0:0:
448,192,165895,1,0,0:0:0:0:
64,192,166056,1,0,0:0:0:0:
448,192,166056,1,0,0:0:0:0:
320,192,166117,1,0,0:0:0:0:
64,192,166177,1,0,0:0:0:0:
192,192,166238,1,0,0:0:0:0:
320,192,166298,1,0,0:0:0:0:
64,192,166379,1,0,0:0:0:0:
64,192,166540,1,0,0:0:0:0:
448,192,166540,1,0,0:0:0:0:
192,192,166601,1,0,0:0:0:0:
448,192,166661,1,0,0:0:0:0:
320,192,166722,1,0,0:0:0:0:
192,192,166782,1,0,0:0:0:0:
448,192,166863,1,0,0:0:0:0:
320,192,167024,1,0,0:0:0:0:
64,192,167024,1,0,0:0:0:0:
448,192,167085,1,0,0:0:0:0:
192,192,167145,1,0,0:0:0:0:
320,192,167206,1,0,0:0:0:0:
64,192,167266,1,0,0:0:0:0:
320,192,167347,1,0,0:0:0:0:
192,192,167508,1,0,0:0:0:0:
448,192,167508,1,0,0:0:0:0:
64,192,167568,1,0,0:0:0:0:
320,192,167629,1,0,0:0:0:0:
192,192,167689,1,0,0:0:0:0:
448,192,167750,1,0,0:0:0:0:
192,192,167831,1,0,0:0:0:0:
320,192,167992,1,0,0:0:0:0:
64,192,167992,1,0,0:0:0:0:
448,192,168052,1,0,0:0:0:0:
192,192,168113,1,0,0:0:0:0:
320,192,168173,1,0,0:0:0:0:
64,192,168234,1,0,0:0:0:0:
320,192,168314,1,0,0:0:0:0:
192,192,168476,1,0,0:0:0:0:
448,192,168476,1,0,0:0:0:0:
64,192,168536,1,0,0:0:0:0:
320,192,168597,1,0,0:0:0:0:
192,192,168657,1,0,0:0:0:0:
448,192,168718,1,0,0:0:0:0:
192,192,168798,1,0,0:0:0:0:
448,192,168960,1,0,0:0:0:0:
320,192,168960,1,0,0:0:0:0:
64,192,169020,1,0,0:0:0:0:
448,192,169081,1,0,0:0:0:0:
320,192,169141,1,0,0:0:0:0:
192,192,169202,1,0,0:0:0:0:
320,192,169323,1,0,0:0:0:0:
192,192,169443,1,0,0:0:0:0:
64,192,169443,1,0,0:0:0:0:
448,192,169504,1,0,0:0:0:0:
64,192,169564,1,0,0:0:0:0:
192,192,169625,1,0,0:0:0:0:
320,192,169685,1,0,0:0:0:0:
192,192,169806,1,0,0:0:0:0:
320,192,169927,1,0,0:0:0:0:
448,192,169927,1,0,0:0:0:0:
64,192,169988,1,0,0:0:0:0:
448,192,170048,1,0,0:0:0:0:
320,192,170109,1,0,0:0:0:0:
192,192,170169,1,0,0:0:0:0:
320,192,170290,1,0,0:0:0:0:
64,192,170411,1,0,0:0:0:0:
192,192,170411,1,0,0:0:0:0:
448,192,170472,1,0,0:0:0:0:
64,192,170532,1,0,0:0:0:0:
192,192,170593,1,0,0:0:0:0:
320,192,170653,1,0,0:0:0:0:
192,192,170774,1,0,0:0:0:0:
320,192,170895,1,0,0:0:0:0:
192,192,170956,1,0,0:0:0:0:
64,192,171016,1,0,0:0:0:0:
448,192,171077,1,0,0:0:0:0:
320,192,171137,1,0,0:0:0:0:
320,192,171298,1,0,0:0:0:0:
192,192,171379,1,0,0:0:0:0:
320,192,171439,1,0,0:0:0:0:
448,192,171500,1,0,0:0:0:0:
64,192,171560,1,0,0:0:0:0:
192,192,171621,1,0,0:0:0:0:
192,192,171782,1,0,0:0:0:0:
320,192,171863,1,0,0:0:0:0:
192,192,171923,1,0,0:0:0:0:
64,192,171984,1,0,0:0:0:0:
448,192,172044,1,0,0:0:0:0:
320,192,172105,1,0,0:0:0:0:
320,192,172266,1,0,0:0:0:0:
192,192,172347,1,0,0:0:0:0:
64,192,172347,1,0,0:0:0:0:
320,192,172407,1,0,0:0:0:0:
448,192,172468,1,0,0:0:0:0:
64,192,172528,1,0,0:0:0:0:
448,192,172589,1,0,0:0:0:0:
320,192,172589,1,0,0:0:0:0:
192,192,172831,1,0,0:0:0:0:
320,192,172831,1,0,0:0:0:0:
448,192,173314,1,0,0:0:0:0:
320,192,173314,1,0,0:0:0:0:
192,192,173395,1,0,0:0:0:0:
64,192,173476,1,0,0:0:0:0:
320,192,173556,1,0,0:0:0:0:
192,192,173677,1,0,0:0:0:0:
448,192,173798,1,0,0:0:0:0:
64,192,173798,1,0,0:0:0:0:
320,192,173859,1,0,0:0:0:0:
192,192,173919,1,0,0:0:0:0:
448,192,173980,1,0,0:0:0:0:
64,192,174040,1,0,0:0:0:0:
320,192,174121,1,0,0:0:0:0:
448,192,174202,1,0,0:0:0:0:
192,192,174282,1,0,0:0:0:0:
64,192,174282,1,0,0:0:0:0:
320,192,174343,1,0,0:0:0:0:
448,192,174403,1,0,0:0:0:0:
192,192,174524,1,0,0:0:0:0:
320,192,174645,1,0,0:0:0:0:
448,192,174766,1,0,0:0:0:0:
64,192,174766,1,0,0:0:0:0:
320,192,174847,1,0,0:0:0:0:
192,192,174927,1,0,0:0:0:0:
448,192,175008,1,0,0:0:0:0:
64,192,175068,1,0,0:0:0:0:
192,192,175129,1,0,0:0:0:0:
320,192,175250,1,0,0:0:0:0:
448,192,175250,1,0,0:0:0:0:
192,192,175310,1,0,0:0:0:0:
64,192,175371,1,0,0:0:0:0:
320,192,175431,1,0,0:0:0:0:
448,192,175492,1,0,0:0:0:0:
192,192,175573,1,0,0:0:0:0:
320,192,175653,1,0,0:0:0:0:
448,192,175734,1,0,0:0:0:0:
64,192,175734,1,0,0:0:0:0:
320,192,175976,1,0,0:0:0:0:
448,192,176036,1,0,0:0:0:0:
192,192,176218,1,0,0:0:0:0:
64,192,176218,1,0,0:0:0:0:
320,192,176460,1,0,0:0:0:0:
192,192,176581,1,0,0:0:0:0:
448,192,176702,1,0,0:0:0:0:
64,192,176702,1,0,0:0:0:0:
320,192,176782,1,0,0:0:0:0:
192,192,176863,1,0,0:0:0:0:
448,192,176943,1,0,0:0:0:0:
320,192,177004,1,0,0:0:0:0:
64,192,177064,1,0,0:0:0:0:
320,192,177185,1,0,0:0:0:0:
448,192,177185,1,0,0:0:0:0:
192,192,177266,1,0,0:0:0:0:
64,192,177347,1,0,0:0:0:0:
192,192,177427,1,0,0:0:0:0:
448,192,177508,1,0,0:0:0:0:
320,192,177589,1,0,0:0:0:0:
192,192,177669,1,0,0:0:0:0:
64,192,177669,1,0,0:0:0:0:
320,192,177750,1,0,0:0:0:0:
448,192,177831,1,0,0:0:0:0:
64,192,177911,1,0,0:0:0:0:
192,192,177992,1,0,0:0:0:0:
448,192,178073,1,0,0:0:0:0:
320,192,178153,1,0,0:0:0:0:
192,192,178153,1,0,0:0:0:0:
64,192,178250,1,0,0:0:0:0:
320,192,178395,1,0,0:0:0:0:
192,192,178516,1,0,0:0:0:0:
448,192,178637,1,0,0:0:0:0:
320,192,178637,1,0,0:0:0:0:
192,192,178758,1,0,0:0:0:0:
64,192,178879,1,0,0:0:0:0:
192,192,178960,1,0,0:0:0:0:
448,192,179040,1,0,0:0:0:0:
320,192,179121,1,0,0:0:0:0:
64,192,179121,1,0,0:0:0:0:
192,192,179190,1,0,0:0:0:0:
448,192,179259,1,0,0:0:0:0:
320,192,179328,1,0,0:0:0:0:
192,192,179397,1,0,0:0:0:0:
64,192,179467,1,0,0:0:0:0:
320,192,179536,1,0,0:0:0:0:
448,192,179605,1,0,0:0:0:0:
192,192,179605,1,0,0:0:0:0:
64,192,179674,1,0,0:0:0:0:
320,192,179743,1,0,0:0:0:0:
448,192,179812,1,0,0:0:0:0:
64,192,179881,1,0,0:0:0:0:
320,192,179968,1,0,0:0:0:0:
448,192,180089,1,0,0:0:0:0:
64,192,180089,1,0,0:0:0:0:
320,192,180250,1,0,0:0:0:0:
192,192,180331,1,0,0:0:0:0:
64,192,180331,1,0,0:0:0:0:
192,192,180492,1,0,0:0:0:0:
320,192,180573,1,0,0:0:0:0:
448,192,180573,1,0,0:0:0:0:
64,192,180573,1,0,0:0:0:0:
448,192,180814,1,0,0:0:0:0:
320,192,181056,1,0,0:0:0:0:
192,192,181298,1,0,0:0:0:0:
64,192,181540,1,0,0:0:0:0:
448,192,181540,1,0,0:0:0:0:
320,192,181540,1,0,0:0:0:0:
192,192,181621,1,0,0:0:0:0:
192,192,182024,1,0,0:0:0:0:
320,192,182145,1,0,0:0:0:0:
64,192,182266,1,0,0:0:0:0:
448,192,182266,1,0,0:0:0:0:
192,192,182327,1,0,0:0:0:0:
448,192,182508,1,0,0:0:0:0:
192,192,182750,1,0,0:0:0:0:
448,192,182750,1,0,0:0:0:0:
320,192,182992,1,0,0:0:0:0:
192,192,182992,1,0,0:0:0:0:
64,192,183234,1,0,0:0:0:0:
320,192,183234,1,0,0:0:0:0:
192,192,183395,1,0,0:0:0:0:
320,192,183476,1,0,0:0:0:0:
448,192,183556,1,0,0:0:0:0:
64,192,183637,1,0,0:0:0:0:
192,192,183718,1,0,0:0:0:0:
320,192,183798,1,0,0:0:0:0:
448,192,183879,1,0,0:0:0:0:
64,192,183960,1,0,0:0:0:0:
192,192,183960,1,0,0:0:0:0:
320,192,184040,1,0,0:0:0:0:
448,192,184121,1,0,0:0:0:0:
192,192,184202,1,0,0:0:0:0:
64,192,184282,1,0,0:0:0:0:
192,192,184363,1,0,0:0:0:0:
448,192,184443,1,0,0:0:0:0:
320,192,184443,1,0,0:0:0:0:
64,192,184443,1,0,0:0:0:0:
448,192,184685,1,0,0:0:0:0:
320,192,184927,1,0,0:0:0:0:
192,192,185169,1,0,0:0:0:0:
64,192,185411,1,0,0:0:0:0:
320,192,185411,1,0,0:0:0:0:
448,192,185411,1,0,0:0:0:0:
192,192,185492,1,0,0:0:0:0:
448,192,185895,1,0,0:0:0:0:
320,192,185976,1,0,0:0:0:0:
192,192,186056,1,0,0:0:0:0:
448,192,186137,1,0,0:0:0:0:
64,192,186379,1,0,0:0:0:0:
448,192,186863,1,0,0:0:0:0:
320,192,186932,1,0,0:0:0:0:
192,192,187001,1,0,0:0:0:0:
64,192,187070,1,0,0:0:0:0:
320,192,187139,1,0,0:0:0:0:
192,192,187208,1,0,0:0:0:0:
64,192,187278,1,0,0:0:0:0:
320,192,187347,128,0,187831:0:0:0:0:
448,192,187347,128,0,187831:0:0:0:0:
192,192,188133,1,0,0:0:0:0:
320,192,188193,1,0,0:0:0:0:
448,192,188254,1,0,0:0:0:0:
64,192,188314,1,0,0:0:0:0:
192,192,188314,1,0,0:0:0:0:
320,192,188375,1,0,0:0:0:0:
448,192,188435,1,0,0:0:0:0:
64,192,188496,1,0,0:0:0:0:
192,192,188556,1,0,0:0:0:0:
448,192,188637,1,0,0:0:0:0:
320,192,188718,1,0,0:0:0:0:
64,192,188798,1,0,0:0:0:0:
448,192,188798,1,0,0:0:0:0:
192,192,188859,1,0,0:0:0:0:
320,192,188919,1,0,0:0:0:0:
64,192,188980,1,0,0:0:0:0:
448,192,189040,1,0,0:0:0:0:
320,192,189121,1,0,0:0:0:0:
192,192,189202,1,0,0:0:0:0:
448,192,189282,1,0,0:0:0:0:
320,192,189282,1,0,0:0:0:0:
64,192,189363,1,0,0:0:0:0:
192,192,189443,1,0,0:0:0:0:
320,192,189524,1,0,0:0:0:0:
64,192,189605,1,0,0:0:0:0:
320,192,189685,1,0,0:0:0:0:
64,192,189766,1,0,0:0:0:0:
448,192,189766,1,0,0:0:0:0:
192,192,189827,1,0,0:0:0:0:
64,192,189887,1,0,0:0:0:0:
320,192,189948,1,0,0:0:0:0:
448,192,190008,1,0,0:0:0:0:
192,192,190068,1,0,0:0:0:0:
320,192,190129,1,0,0:0:0:0:
448,192,190189,1,0,0:0:0:0:
64,192,190250,1,0,0:0:0:0:
192,192,190250,1,0,0:0:0:0:
64,192,190492,1,0,0:0:0:0:
192,192,190573,1,0,0:0:0:0:
320,192,190653,1,0,0:0:0:0:
64,192,190734,1,0,0:0:0:0:
448,192,190734,1,0,0:0:0:0:
192,192,190794,1,0,0:0:0:0:
320,192,190855,1,0,0:0:0:0:
64,192,190915,1,0,0:0:0:0:
448,192,190976,1,0,0:0:0:0:
192,192,191056,1,0,0:0:0:0:
448,192,191137,1,0,0:0:0:0:
64,192,191218,1,0,0:0:0:0:
320,192,191218,1,0,0:0:0:0:
192,192,191278,1,0,0:0:0:0:
448,192,191339,1,0,0:0:0:0:
192,192,191399,1,0,0:0:0:0:
320,192,191460,1,0,0:0:0:0:
64,192,191540,1,0,0:0:0:0:
192,192,191621,1,0,0:0:0:0:
320,192,191702,1,0,0:0:0:0:
448,192,191702,1,0,0:0:0:0:
64,192,191762,1,0,0:0:0:0:
192,192,191823,1,0,0:0:0:0:
448,192,191883,1,0,0:0:0:0:
64,192,191943,1,0,0:0:0:0:
320,192,192004,1,0,0:0:0:0:
192,192,192064,1,0,0:0:0:0:
448,192,192125,1,0,0:0:0:0:
64,192,192185,1,0,0:0:0:0:
192,192,192185,1,0,0:0:0:0:
448,192,192246,1,0,0:0:0:0:
320,192,192306,1,0,0:0:0:0:
192,192,192367,1,0,0:0:0:0:
448,192,192427,1,0,0:0:0:0:
64,192,192488,1,0,0:0:0:0:
192,192,192548,1,0,0:0:0:0:
320,192,192609,1,0,0:0:0:0:
448,192,192669,1,0,0:0:0:0:
64,192,192669,1,0,0:0:0:0:
192,192,192730,1,0,0:0:0:0:
320,192,192790,1,0,0:0:0:0:
64,192,192851,1,0,0:0:0:0:
448,192,192911,1,0,0:0:0:0:
192,192,193073,1,0,0:0:0:0:
320,192,193153,1,0,0:0:0:0:
448,192,193153,1,0,0:0:0:0:
192,192,193234,1,0,0:0:0:0:
64,192,193314,1,0,0:0:0:0:
320,192,193395,1,0,0:0:0:0:
448,192,193476,1,0,0:0:0:0:
192,192,193556,1,0,0:0:0:0:
64,192,193637,1,0,0:0:0:0:
448,192,193637,1,0,0:0:0:0:
320,192,193698,1,0,0:0:0:0:
192,192,193758,1,0,0:0:0:0:
64,192,193818,1,0,0:0:0:0:
448,192,193879,1,0,0:0:0:0:
64,192,193960,1,0,0:0:0:0:
192,192,194040,1,0,0:0:0:0:
448,192,194121,1,0,0:0:0:0:
320,192,194121,1,0,0:0:0:0:
192,192,194181,1,0,0:0:0:0:
320,192,194242,1,0,0:0:0:0:
64,192,194302,1,0,0:0:0:0:
448,192,194363,1,0,0:0:0:0:
192,192,194443,1,0,0:0:0:0:
320,192,194524,1,0,0:0:0:0:
448,192,194605,1,0,0:0:0:0:
64,192,194605,1,0,0:0:0:0:
320,192,194665,1,0,0:0:0:0:
192,192,194726,1,0,0:0:0:0:
448,192,194786,1,0,0:0:0:0:
64,192,194847,1,0,0:0:0:0:
448,192,194927,1,0,0:0:0:0:
320,192,195008,1,0,0:0:0:0:
192,192,195089,1,0,0:0:0:0:
64,192,195089,1,0,0:0:0:0:
320,192,195149,1,0,0:0:0:0:
192,192,195210,1,0,0:0:0:0:
448,192,195270,1,0,0:0:0:0:
64,192,195331,1,0,0:0:0:0:
320,192,195411,1,0,0:0:0:0:
192,192,195492,1,0,0:0:0:0:
64,192,195573,1,0,0:0:0:0:
448,192,195573,1,0,0:0:0:0:
192,192,195633,1,0,0:0:0:0:
320,192,195693,1,0,0:0:0:0:
448,192,195754,1,0,0:0:0:0:
64,192,195814,1,0,0:0:0:0:
192,192,195875,1,0,0:0:0:0:
320,192,195935,1,0,0:0:0:0:
448,192,195996,1,0,0:0:0:0:
192,192,196056,1,0,0:0:0:0:
64,192,196056,1,0,0:0:0:0:
