osu file format v14

[General]
AudioFilename: audio.mp3
AudioLeadIn: 0
PreviewTime: -1
Countdown: 0
SampleSet: Normal
StackLeniency: 0.7
Mode: 0
LetterboxInBreaks: 0
WidescreenStoryboard: 0

[Editor]
Bookmarks: 91954,166954,174454,196954
DistanceSpacing: 0.5
BeatDivisor: 4
GridSize: 8
TimelineZoom: 1.8

[Metadata]
Title:Fall In Love
TitleUnicode:Fall In Love
Artist:android52
ArtistUnicode:android52
Creator:small
Version:collab ft. big dick saiyo & bick dig me
Source:
Tags:android52 fall in love hello dedass
BeatmapID:1922428
BeatmapSetID:920568

[Difficulty]
HPDrainRate:6
CircleSize:4
OverallDifficulty:8
ApproachRate:9.6
SliderMultiplier:1.8
SliderTickRate:1

[Events]
//Background and Video events
0,0,"a2698520928_10.jpg",0,0
//Break Periods
//Storyboard Layer 0 (Background)
//Storyboard Layer 1 (Fail)
//Storyboard Layer 2 (Pass)
//Storyboard Layer 3 (Foreground)
//Storyboard Sound Samples

[TimingPoints]
1954.44675147633,468.75,4,1,0,60,1,0
3829,-66.6666666666667,4,1,0,60,0,0
4415,-100,4,1,0,60,0,0
7579,-66.6666666666667,4,1,0,60,0,0
8165,-100,4,1,0,60,0,0
10157,-142.857142857143,4,1,0,60,0,0
13204,-100,4,1,0,60,0,0
16954,-86.9565217391304,4,1,0,60,0,0
31485,-200,4,1,0,60,0,0
31954,-58.8235294117647,4,1,0,60,0,0
41798,-62.5,4,1,0,60,0,0
42149,-58.8235294117647,4,1,0,60,0,0
43204,-66.6666666666667,4,1,0,60,0,0
44845,-30.3030303030303,4,1,0,60,0,0
46602,-58.8235294117647,4,1,0,60,0,0
46954,-76.9230769230769,4,1,0,60,0,0
53048,-66.6666666666667,4,1,0,60,0,0
54220,-33.3333333333333,4,1,0,60,0,0
54454,-62.5,4,1,0,60,0,0
60079,-55.5555555555556,4,1,0,60,0,0
61485,-35.7142857142857,4,1,0,60,0,0
61954,-55.5555555555556,4,1,0,60,0,0
65235,-62.5,4,1,0,60,0,0
65704,-58.8235294117647,4,1,0,60,0,0
67579,-52.6315789473684,4,1,0,60,0,0
68985,-62.5,4,1,0,60,0,0
69454,-55.5555555555556,4,1,0,60,0,0
71329,-52.6315789473684,4,1,0,60,0,0
71798,-66.6666666666667,4,1,0,60,0,0
73204,-55.5555555555556,4,1,0,60,0,0
75782,-166.666666666667,4,1,0,60,0,0
76251,-55.5555555555556,4,1,0,60,0,0
79298,-66.6666666666667,4,1,0,60,0,0
80235,-166.666666666667,4,1,0,60,0,0
80704,-58.8235294117647,4,1,0,60,0,0
82579,-52.6315789473684,4,1,0,60,0,0
84454,-58.8235294117647,4,1,0,60,0,0
90782,-166.666666666667,4,1,0,60,0,0
91954,-100,4,1,0,60,0,0
98673,-100,4,1,0,5,0,0
98751,-100,4,1,0,60,0,0
98907,-100,4,1,0,5,0,0
98985,-100,4,1,0,60,0,0
99141,-100,4,1,0,5,0,0
99220,-100,4,1,0,60,0,0
99376,-100,4,1,0,5,0,0
99454,-100,4,1,0,60,0,0
100157,-50,4,1,0,60,0,0
100391,-50,4,1,0,5,0,0
100509,-50,4,1,0,60,0,0
100743,-50,4,1,0,5,0,0
100860,-50,4,1,0,60,0,0
101329,-50,4,1,0,5,0,0
101563,-50,4,1,0,60,0,0
101798,-50,4,1,0,5,0,0
102032,-50,4,1,0,60,0,0
102266,-50,4,1,0,5,0,0
102384,-50,4,1,0,60,0,0
102579,-50,4,1,0,5,0,0
102735,-50,4,1,0,60,0,0
102970,-50,4,1,0,5,0,0
103204,-50,4,1,0,60,0,0
104454,-500,4,1,0,60,0,0
104610,-500,4,1,0,5,0,0
104766,-250,4,1,0,50,0,0
104845,-250,4,1,0,5,0,0
105079,-166.666666666667,4,1,0,40,0,0
105196,-166.666666666667,4,1,0,5,0,0
105391,-125,4,1,0,30,0,0
105548,-125,4,1,0,5,0,0
105704,-100,4,1,0,20,0,0
105782,-100,4,1,0,5,0,0
106837,-500,4,1,0,5,0,0
106954,-66.6666666666667,4,1,0,60,0,0
109884,-66.6666666666667,4,1,0,5,0,0
110001,-66.6666666666667,4,1,0,60,0,0
110118,-66.6666666666667,4,1,0,5,0,0
110235,-66.6666666666667,4,1,0,60,0,0
110352,-66.6666666666667,4,1,0,5,0,0
110470,-66.6666666666667,4,1,0,60,0,0
110587,-66.6666666666667,4,1,0,5,0,0
110704,-66.6666666666667,4,1,0,60,0,0
113399,-66.6666666666667,4,1,0,5,0,0
113516,-66.6666666666667,4,1,0,60,0,0
113634,-66.6666666666667,4,1,0,5,0,0
113751,-66.6666666666667,4,1,0,60,0,0
113868,-66.6666666666667,4,1,0,5,0,0
113985,-66.6666666666667,4,1,0,60,0,0
114102,-66.6666666666667,4,1,0,5,0,0
114220,-66.6666666666667,4,1,0,60,0,0
114337,-66.6666666666667,4,1,0,5,0,0
114454,-66.6666666666667,4,1,0,60,0,0
115391,-66.6666666666667,4,1,0,5,0,0
115509,-66.6666666666667,4,1,0,60,0,0
116095,-133.333333333333,4,1,0,60,0,0
116329,-133.333333333333,4,1,0,5,0,0
116446,-133.333333333333,4,1,0,60,0,0
116973,-66.6666666666667,4,1,0,60,0,0
117266,-66.6666666666667,4,1,0,5,0,0
117345,-66.6666666666667,4,1,0,60,0,0
117794,-333.333333333333,4,1,0,60,0,0
118204,-66.6666666666667,4,1,0,60,0,0
118790,-66.6666666666667,4,1,0,5,0,0
118907,-66.6666666666667,4,1,0,60,0,0
119141,-66.6666666666667,4,1,0,5,0,0
119259,-66.6666666666667,4,1,0,60,0,0
119493,-66.6666666666667,4,1,0,60,0,0
120079,-66.6666666666667,4,1,0,5,0,0
120196,-66.6666666666667,4,1,0,60,0,0
121016,-66.6666666666667,4,1,0,5,0,0
121095,-66.6666666666667,4,1,0,60,0,0
121485,-33.3333333333333,4,1,0,60,0,0
121954,-45.4545454545455,4,1,0,60,0,0
125704,-25,4,1,0,60,0,0
125821,-25,4,1,0,5,0,0
125938,-90.9090909090909,4,1,0,60,0,0
127110,-57.1428571428571,4,1,0,60,0,0
127345,-25,4,1,0,60,0,0
127462,-40,4,1,0,5,0,0
127579,-25,4,1,0,60,0,0
127696,-40,4,1,0,5,0,0
127813,-40,4,1,0,60,0,0
128985,-25,4,1,0,60,0,0
129102,-25,4,1,0,5,0,0
129220,-66.6666666666667,4,1,0,60,0,0
129337,-66.6666666666667,4,1,0,5,0,0
129454,-25,4,1,0,60,0,0
129571,-25,4,1,0,5,0,0
129688,-40,4,1,0,60,0,0
130626,-57.1428571428571,4,1,0,60,0,0
131095,-25,4,1,0,60,0,0
131212,-25,4,1,0,5,0,0
131329,-25,4,1,0,60,0,0
131446,-25,4,1,0,5,0,0
131563,-40,4,1,0,60,0,0
132266,-57.1428571428571,4,1,0,60,0,0
132735,-25,4,1,0,60,0,0
132852,-25,4,1,0,5,0,0
132970,-66.6666666666667,4,1,0,60,0,0
133087,-66.6666666666667,4,1,0,5,0,0
133204,-25,4,1,0,60,0,0
133321,-25,4,1,0,5,0,0
133438,-40,4,1,0,60,0,0
134376,-57.1428571428571,4,1,0,60,0,0
134845,-40,4,1,0,60,0,0
135079,-50,4,1,0,60,0,0
135431,-66.6666666666667,4,1,0,60,0,0
135782,-40,4,1,0,60,0,0
137423,-50,4,1,0,60,0,0
137657,-25,4,1,0,60,0,0
137891,-50,4,1,0,60,0,0
138829,-25,4,1,0,60,0,0
139063,-50,4,1,0,60,0,0
140235,-25,4,1,0,60,0,0
140352,-25,4,1,0,5,0,0
140470,-66.6666666666667,4,1,0,60,0,0
140587,-66.6666666666667,4,1,0,5,0,0
140704,-25,4,1,0,60,0,0
140821,-25,4,1,0,5,0,0
140938,-50,4,1,0,60,0,0
142579,-25,4,1,0,60,0,0
142696,-25,4,1,0,5,0,0
142813,-50,4,1,0,60,0,0
143985,-25,4,1,0,60,0,0
144102,-25,4,1,0,5,0,0
144220,-66.6666666666667,4,1,0,60,0,0
144337,-66.6666666666667,4,1,0,5,0,0
144454,-25,4,1,0,60,0,0
144571,-25,4,1,0,5,0,0
144688,-50,4,1,0,60,0,0
145157,-50,4,1,0,60,0,0
146095,-25,4,1,0,60,0,0
146212,-25,4,1,0,5,0,0
146329,-25,4,1,0,60,0,0
146446,-25,4,1,0,5,0,0
146563,-50,4,1,0,60,0,0
147735,-25,4,1,0,60,0,0
147852,-25,4,1,0,5,0,0
147970,-50,4,1,0,60,0,0
148087,-50,4,1,0,5,0,0
148204,-25,4,1,0,60,0,0
148321,-25,4,1,0,5,0,0
148438,-50,4,1,0,60,0,0
149845,-25,4,1,0,60,0,0
149962,-25,4,1,0,5,0,0
150079,-33.3333333333333,4,1,0,60,0,0
150196,-33.3333333333333,4,1,0,5,0,0
150313,-50,4,1,0,60,0,0
150548,-50,4,1,0,5,0,0
150665,-100,4,1,0,60,0,0
150899,-100,4,1,0,5,0,0
151016,-50,4,1,0,60,0,0
151954,-25,4,1,0,60,0,0
152071,-25,4,1,0,5,0,0
152423,-100,4,1,0,60,0,0
153595,-33.3333333333333,4,1,0,60,0,0
153712,-33.3333333333333,4,1,0,5,0,0
153829,-33.3333333333333,4,1,0,60,0,0
153946,-33.3333333333333,4,1,0,5,0,0
154063,-100,4,1,0,60,0,0
155235,-25,4,1,0,60,0,0
155352,-25,4,1,0,5,0,0
155704,-25,4,1,0,60,0,0
155938,-100,4,1,0,60,0,0
156173,-100,4,1,0,60,0,0
157345,-25,4,1,0,60,0,0
157462,-25,4,1,0,5,0,0
157579,-25,4,1,0,60,0,0
157696,-25,4,1,0,5,0,0
157813,-100,4,1,0,60,0,0
158985,-25,4,1,0,60,0,0
159688,-100,4,1,0,60,0,0
160391,-50,4,1,0,60,0,0
161095,-25,4,1,0,60,0,0
161212,-25,4,1,0,5,0,0
161329,-25,4,1,0,60,0,0
161446,-25,4,1,0,5,0,0
161563,-40,4,1,0,60,0,0
162735,-25,4,1,0,60,0,0
162970,-40,4,1,0,60,0,0
163204,-25,4,1,0,60,0,0
165079,-66.6666666666667,4,1,0,60,0,0
165548,-50,4,1,0,60,0,0
166016,-33.3333333333333,4,1,0,60,0,0
166485,-25,4,1,0,60,0,0
166720,-50,4,1,0,60,0,0
166954,-40,4,1,0,60,0,0
168360,-45.4545454545455,4,1,0,60,0,0
168829,-40,4,1,0,60,0,0

[HitObjects]
429,238,1954,6,0,P|458:187|444:118,1,90
153,74,2423,2,0,P|183:123|251:145,1,90,8|0,0:0|0:0,0:0:0:0:
389,174,2774,1,0,0:0:0:0:
389,174,2891,2,0,P|330:166|271:207,1,90
96,274,3360,2,0,L|80:182,1,90,8|0,0:0|0:0,0:0:0:0:
399,119,3829,2,0,B|391:55|266:82|312:163|425:207|411:111|388:47|319:64,1,270.000010299683,4|8,0:0|0:0,0:0:0:0:
163,41,4532,1,0,0:0:0:0:
163,41,4649,1,0,0:0:0:0:
163,41,4766,2,0,P|138:87|142:149,1,90
370,320,5235,2,0,P|393:268|390:211,1,90,8|0,0:0|0:0,0:0:0:0:
128,49,5704,6,0,P|150:84|225:105,1,90
404,265,6173,2,0,P|387:218|331:187,1,90,8|0,0:0|0:0,0:0:0:0:
61,193,6524,1,0,0:0:0:0:
61,193,6641,2,0,P|107:215|168:200,1,90
246,38,7110,2,0,P|234:87|262:143,1,90,8|0,0:0|0:0,0:0:0:0:
362,300,7579,2,0,B|423:251|335:143|278:217|282:338|365:288|410:250|386:208,1,270.000010299683,4|8,0:0|0:0,0:0:0:0:
400,68,8282,1,0,0:0:0:0:
400,68,8399,1,0,0:0:0:0:
400,68,8516,2,0,L|272:89,1,90
90,184,8985,2,0,L|217:205,1,90,8|0,0:0|0:0,0:0:0:0:
432,272,9454,6,0,L|455:154,1,90
449,183,9806,1,0,0:0:0:0:
449,183,9923,1,8,0:0:0:0:
146,43,10157,2,0,P|169:73|202:89,1,62.9999980773926
454,30,10509,2,0,P|416:38|390:74,1,62.9999980773926
343,282,10860,2,0,P|321:227|263:181,1,125.999996154785,8|4,0:0|0:0,0:0:0:0:
202,301,11563,5,0,0:0:0:0:
252,109,11798,1,8,0:0:0:0:
428,254,12032,2,0,P|404:222|371:206,1,62.9999980773926
105,274,12384,2,0,P|143:267|169:231,1,62.9999980773926
220,25,12735,2,0,P|241:80|291:117,1,94.499997116089,8|0,0:0|0:0,0:0:0:0:
303,121,13204,2,0,B|212:111|212:111|117:157,1,180,4|8,0:0|0:0,0:0:0:0:
396,326,14141,2,0,B|436:242|436:242|426:139,1,180,0|8,0:0|0:0,0:0:0:0:
256,192,15079,1,0,0:0:0:0:
256,192,15313,12,8,16485,0:0:0:0:
112,279,16954,6,0,P|102:229|65:179,1,103.500001974106
165,173,17423,2,0,P|175:123|215:72,1,103.500001974106,8|0,0:0|0:0,0:0:0:0:
261,24,17774,1,0,0:0:0:0:
283,125,17891,2,0,P|293:175|332:223,1,103.500001974106
468,285,18360,2,0,P|417:282|357:306,1,103.500001974106,8|0,0:0|0:0,0:0:0:0:
105,318,18829,6,0,L|94:208,1,103.500001974106,4|0,0:0|0:0,0:0:0:0:
81,54,19298,2,0,P|125:87|154:144,1,103.500001974106,8|0,0:0|0:0,0:0:0:0:
210,192,19649,1,0,0:0:0:0:
246,57,19766,2,0,B|252:107|312:154,1,103.500001974106
324,225,20235,2,0,B|273:200|214:215,1,103.500001974106,8|0,0:0|0:0,0:0:0:0:
175,309,20587,1,0,0:0:0:0:
129,214,20704,6,0,L|80:119,1,103.500001974106
37,38,21173,1,8,0:0:0:0:
133,166,21407,1,0,0:0:0:0:
133,166,21524,1,0,0:0:0:0:
133,166,21641,2,0,P|189:213|251:215,1,103.500001974106
344,209,22110,2,0,P|307:272|316:333,1,103.500001974106,8|0,0:0|0:0,0:0:0:0:
239,147,22579,5,4,0:0:0:0:
343,86,22813,2,0,P|385:57|416:12,2,103.500001974106,0|8|0,0:0|0:0|0:0,0:0:0:0:
353,156,23399,1,0,0:0:0:0:
239,29,23516,2,0,P|184:38|142:79,1,103.500001974106
102,227,23985,2,0,P|111:282|152:323,1,103.500001974106,8|0,0:0|0:0,0:0:0:0:
430,180,24454,6,0,P|416:125|370:88,1,103.500001974106,4|0,0:0|0:0,0:0:0:0:
386,49,24806,1,0,0:0:0:0:
345,170,24923,2,0,L|319:256,1,51.7500009870529,8|0,0:0|0:0,0:0:0:0:
265,323,25157,2,0,P|245:253|201:214,1,103.500001974106
330,219,25470,2,0,P|287:160|232:138,1,103.500001974106
220,219,25860,1,8,0:0:0:0:
124,75,26016,6,0,P|144:145|188:184,1,103.500001974106
59,179,26329,2,0,P|101:237|156:259,1,103.500001974106
114,59,26798,1,8,0:0:0:0:
275,51,27032,6,0,L|264:138,1,51.7500009870529
342,120,27266,2,0,L|331:207,1,51.7500009870529
410,190,27501,2,0,L|399:277,1,51.7500009870529
376,352,27735,1,8,0:0:0:0:
376,352,27852,2,0,P|314:280|269:275,1,138.000002632141
212,323,28204,2,0,P|241:257|219:116,1,207.000003948212,4|8,0:0|0:0,0:0:0:0:
414,337,28907,5,0,0:0:0:0:
367,165,29141,1,0,0:0:0:0:
414,337,29376,1,0,0:0:0:0:
284,49,29845,5,0,0:0:0:0:
237,222,30080,1,0,0:0:0:0:
284,49,30314,1,0,0:0:0:0:
144,342,30782,5,0,0:0:0:0:
97,170,31016,1,0,0:0:0:0:
144,342,31251,1,0,0:0:0:0:
465,112,31485,2,0,P|422:112|403:141,1,67.5,8|0,0:0|0:0,0:0:0:0:
433,167,31954,6,0,B|350:142|350:142|276:160,1,153.000002918243
164,281,32306,2,0,L|129:199,1,76.5000014591217,0|8,0:0|0:0,0:0:0:0:
226,87,32657,2,0,P|242:53|276:35,1,76.5000014591217
318,87,32891,2,0,P|301:120|267:138,1,76.5000014591217
321,313,33126,2,0,L|358:324,3,38.2500007295609
370,217,33360,2,0,L|292:246,1,76.5000014591217,8|0,0:0|0:0,0:0:0:0:
249,349,33595,2,0,L|173:314,1,76.5000014591217
50,195,33829,6,0,B|144:236|144:236|281:213,1,229.500004377365
399,112,34298,1,8,0:0:0:0:
344,264,34532,5,0,0:0:0:0:
308,151,34649,2,0,L|284:64,1,76.5000014591217
243,283,34884,1,0,0:0:0:0:
208,171,35001,2,0,L|184:84,1,76.5000014591217
71,38,35235,2,0,B|37:81|37:81|63:117|63:117|36:187,1,153.000002918243,8|0,0:0|0:0,0:0:0:0:
94,329,35704,6,0,B|159:174,1,153.000002918243
216,78,36056,2,0,L|250:157,1,76.5000014591217,0|8,0:0|0:0,0:0:0:0:
300,45,36290,2,0,L|334:124,1,76.5000014591217
418,188,36524,2,0,L|403:160,3,19.1250003647804
338,218,36759,2,0,L|323:190,3,19.1250003647804
208,308,36993,5,0,0:0:0:0:
174,239,37110,1,8,0:0:0:0:
176,164,37227,1,0,0:0:0:0:
214,98,37345,2,0,L|263:33,1,76.5000014591217
452,78,37579,6,0,L|245:119,1,153.000002918243
54,59,38048,2,0,B|83:113|83:113|192:167,1,153.000002918243,8|0,0:0|0:0,0:0:0:0:
238,185,38399,1,0,0:0:0:0:
308,214,38516,1,0,0:0:0:0:
379,243,38633,1,0,0:0:0:0:
449,272,38751,2,0,P|485:288|495:291,2,38.2500007295609
321,352,38985,2,0,B|191:293|191:293|136:203,1,229.500004377365,8|0,0:0|0:0,0:0:0:0:
104,41,39454,6,0,L|72:201,1,153.000002918243
34,346,39923,2,0,L|51:279,1,51.0000009727478,0|8,0:0|0:0,0:0:0:0:
172,176,40157,2,0,P|162:214|161:224,2,38.2500007295609
235,299,40391,2,0,P|244:260|245:250,2,38.2500007295609
350,206,40626,2,0,P|340:244|339:254,2,38.2500007295609
413,329,40860,2,0,P|422:290|423:280,2,38.2500007295609,8|0|0,0:0|0:0|0:0,0:0:0:0:
495,108,41095,2,0,B|504:61|504:61|465:14,1,76.5000014591217
289,100,41329,6,0,B|350:163|350:163|497:179,1,229.500004377365
476,275,41798,2,0,L|398:266,1,48,8|0,0:0|0:0,0:0:0:0:
315,278,41954,2,0,L|237:269,1,48
119,176,42149,2,0,L|210:158,1,76.5000014591217
185,253,42384,1,0,0:0:0:0:
282,200,42501,2,0,L|331:142,1,76.5000014591217
467,42,42735,2,0,L|456:209,1,153.000002918243,8|0,0:0|0:0,0:0:0:0:
402,318,43204,6,0,B|341:224|294:347|221:258,1,202.500007724762
167,274,43673,2,0,L|183:192,1,67.5000025749208,8|0,0:0|0:0,0:0:0:0:
296,56,44024,2,0,L|268:206,1,135.000005149842
344,293,44493,2,0,L|360:211,2,67.5000025749208,0|8|0,0:0|0:0|0:0,0:0:0:0:
385,98,44845,2,0,P|351:66|373:98,1,148.500001416206
464,275,45079,5,0,0:0:0:0:
161,350,45431,1,0,0:0:0:0:
214,88,45782,1,0,0:0:0:0:
86,78,46485,2,0,P|123:89|133:91,2,38.2500007295609,8|0|0,0:0|0:0|0:0,0:0:0:0:
73,198,46720,2,0,L|208:165,1,76.5000014591217
255,90,46954,6,0,P|234:142|257:220,1,116.999994644165
316,308,47423,2,0,P|264:287|186:310,1,116.999994644165
177,302,47774,1,0,0:0:0:0:
82,338,47891,2,0,P|102:286|79:208,1,116.999994644165
38,115,48360,2,0,P|90:135|167:112,1,116.999994644165
312,55,48829,5,0,0:0:0:0:
437,230,49063,1,0,0:0:0:0:
437,230,49181,1,0,0:0:0:0:
437,230,49298,2,0,P|393:192|301:205,1,116.999994644165
217,133,49766,1,0,0:0:0:0:
92,308,50000,1,0,0:0:0:0:
92,308,50118,1,0,0:0:0:0:
92,308,50235,2,0,P|136:270|228:283,1,116.999994644165
418,87,50704,6,0,B|344:166|463:173|382:267,1,175.499991966248
426,295,51173,2,0,P|340:261|276:280,1,116.999994644165
196,297,51641,2,0,P|234:231|220:176,1,116.999994644165
154,84,52110,2,0,P|234:109|293:86,1,116.999994644165
425,35,52579,5,0,0:0:0:0:
403,238,52813,1,0,0:0:0:0:
403,238,52931,1,0,0:0:0:0:
403,238,53048,2,0,P|362:174|305:154,1,135.000005149842
286,185,53399,5,0,0:0:0:0:
381,40,53634,2,0,L|296:63,1,45.0000017166138
212,87,53868,1,0,0:0:0:0:
163,98,53985,1,0,0:0:0:0:
116,110,54102,1,0,0:0:0:0:
70,124,54220,2,0,L|35:133,2,33.7500012874604
353,307,54454,5,0,0:0:0:0:
399,81,54688,1,0,0:0:0:0:
221,309,54923,1,0,0:0:0:0:
212,66,55157,1,0,0:0:0:0:
420,294,55391,5,0,0:0:0:0:
145,122,55626,1,0,0:0:0:0:
227,344,55860,1,0,0:0:0:0:
254,73,56095,1,0,0:0:0:0:
105,279,56329,5,0,0:0:0:0:
387,231,56563,1,0,0:0:0:0:
86,119,56798,1,0,0:0:0:0:
411,101,57032,1,0,0:0:0:0:
349,314,57266,5,0,0:0:0:0:
290,78,57501,1,0,0:0:0:0:
152,321,57735,1,0,0:0:0:0:
193,65,57970,1,0,0:0:0:0:
258,235,58204,5,0,0:0:0:0:
314,255,58321,1,0,0:0:0:0:
370,235,58438,1,0,0:0:0:0:
400,183,58555,1,0,0:0:0:0:
391,125,58672,1,0,0:0:0:0:
346,85,58789,1,0,0:0:0:0:
286,83,58907,1,0,0:0:0:0:
234,96,59024,1,0,0:0:0:0:
197,127,59141,5,0,0:0:0:0:
153,106,59258,1,0,0:0:0:0:
153,58,59375,1,0,0:0:0:0:
197,37,59492,1,0,0:0:0:0:
241,38,59610,1,0,0:0:0:0:
265,62,59727,1,0,0:0:0:0:
280,93,59844,1,0,0:0:0:0:
285,127,59961,1,0,0:0:0:0:
279,160,60079,6,0,P|253:205|220:231,1,53.9999983520508
112,189,60313,2,0,L|101:237,2,40.4999987640381
347,284,60548,2,0,P|353:234|333:188,1,80.9999975280763
182,241,60782,2,0,P|169:289|184:337,1,80.9999975280763
462,179,61016,2,0,P|449:130|413:95,1,80.9999975280763
253,241,61251,2,0,P|265:289|301:324,1,80.9999975280763
459,179,61485,2,0,P|305:59|135:88,1,377.999988464356
62,225,61954,6,0,L|42:38,1,161.999995056153
71,315,62306,1,0,0:0:0:0:
219,110,62423,2,0,P|216:43|186:101,1,161.999995056153
315,260,62891,5,0,0:0:0:0:
305,286,63009,1,0,0:0:0:0:
367,117,63126,5,0,0:0:0:0:
358,143,63244,1,0,0:0:0:0:
272,99,63360,2,0,L|237:207,1,107.999996704102
399,335,63595,2,0,P|317:288|257:293,1,107.999996704102
200,353,63829,6,0,B|114:243|244:230|177:151,1,215.999993408203
115,103,64298,1,0,0:0:0:0:
203,80,64415,5,0,0:0:0:0:
241,73,64533,1,0,0:0:0:0:
335,48,64650,5,0,0:0:0:0:
375,41,64766,1,0,0:0:0:0:
406,129,64884,5,0,0:0:0:0:
415,167,65002,1,0,0:0:0:0:
443,260,65119,5,0,0:0:0:0:
450,300,65235,2,0,B|328:272|350:353|239:334,1,216
199,357,65704,2,0,P|220:257|208:173,1,153.000002918243
145,233,66056,1,0,0:0:0:0:
287,182,66173,2,0,L|434:122,1,153.000002918243
310,28,66641,5,0,0:0:0:0:
283,38,66759,1,0,0:0:0:0:
190,111,66876,5,0,0:0:0:0:
165,124,66993,1,0,0:0:0:0:
302,150,67110,1,0,0:0:0:0:
302,150,67228,1,0,0:0:0:0:
302,150,67345,2,0,L|223:190,1,76.5000014591217
106,191,67579,6,0,B|166:226|166:226|180:333,1,170.999995433807
388,333,67891,2,0,B|327:297|327:297|314:191,1,170.999995433807
375,86,68282,2,0,L|213:103,1,113.999996955872
62,58,68516,2,0,L|81:147,1,85.4999977169037
142,44,68751,2,0,L|161:127,1,85.4999977169037
220,30,68985,2,0,L|275:272,1,240
303,325,69454,6,0,B|187:287|187:287|98:293,1,161.999995056153
91,77,69806,1,0,0:0:0:0:
120,180,69923,2,0,P|187:118|190:45,1,161.999995056153
392,66,70391,5,0,0:0:0:0:
370,78,70509,1,0,0:0:0:0:
240,137,70626,5,0,0:0:0:0:
262,149,70744,1,0,0:0:0:0:
403,194,70860,5,0,0:0:0:0:
381,206,70978,1,0,0:0:0:0:
116,256,71095,6,0,L|244:286,1,107.999996704102
370,300,71329,2,0,P|307:235|315:126,1,170.999995433807
396,148,71641,1,0,0:0:0:0:
229,200,71798,2,0,B|199:170|185:156|109:176|59:163,1,90.0000034332277
229,200,72032,2,0,B|207:178|196:167|176:91|189:41,1,90.0000034332277
229,200,72266,2,0,B|214:185|207:178|283:158|333:171,1,90.0000034332277
229,200,72501,2,0,B|221:192|218:189|238:265|225:315,1,90.0000034332277
229,200,72735,2,0,P|190:140|96:93,1,135.000005149842
125,210,73204,6,0,P|196:297|280:273,1,161.999995056153
207,347,73556,1,0,0:0:0:0:
229,200,73673,2,0,L|251:91,1,107.999996704102
388,122,73907,2,0,L|393:143,3,20.2499993820191
451,278,74141,5,0,0:0:0:0:
434,231,74259,1,0,0:0:0:0:
329,230,74376,5,0,0:0:0:0:
308,276,74494,1,0,0:0:0:0:
203,275,74610,5,0,0:0:0:0:
186,228,74728,1,0,0:0:0:0:
137,116,74845,2,0,P|95:96|106:137,1,107.999996704102
230,255,75079,6,0,P|310:291|375:268,1,107.999996704102
287,332,75313,1,0,0:0:0:0:
305,204,75431,2,0,P|294:114|251:80,1,107.999996704102
261,136,75665,1,0,0:0:0:0:
368,122,75782,2,0,B|454:79|371:49|498:24,1,161.999995056153
436,258,76720,1,0,0:0:0:0:
111,274,76954,6,0,B|262:334|262:334|350:310,1,242.999992584229
337,359,77423,2,0,P|284:222|308:142,1,161.999995056153
88,151,77891,2,0,P|137:134|170:86,1,80.9999975280763
423,193,78126,2,0,P|373:176|340:128,1,80.9999975280763
299,360,78360,2,0,P|282:310|234:277,1,80.9999975280763
80,332,78595,2,0,P|102:267|97:187,1,107.999996704102
80,214,78829,6,0,L|352:180,1,269.999991760254
445,36,79298,2,0,L|436:121,1,67.5000025749208
296,318,79532,2,0,L|304:230,1,67.5000025749208
191,34,79766,2,0,L|181:121,1,67.5000025749208
42,316,80001,2,0,L|50:228,1,67.5000025749208
335,167,80235,2,0,P|301:130|267:123,1,80.9999975280763
243,93,80704,6,0,B|255:268|255:268|219:314,1,229.500004377365
185,276,81173,2,0,P|274:232|391:254,1,153.000002918243
445,56,81641,2,0,P|441:86|425:98,2,38.2500007295609
459,317,81876,2,0,P|398:266|360:270,1,76.5000014591217
208,158,82110,2,0,P|245:155|277:136,1,76.5000014591217
267,117,82345,2,0,L|286:255,1,76.5000014591217
406,193,82579,6,0,B|346:158|346:158|332:51,1,170.999995433807
124,51,82891,2,0,B|185:87|185:87|198:193,1,170.999995433807
137,298,83282,2,0,L|299:280,1,113.999996955872
450,326,83516,2,0,L|431:236,1,85.4999977169037
370,340,83751,2,0,L|351:257,1,85.4999977169037
292,354,83985,2,0,L|237:112,1,240
418,304,84454,6,0,L|441:132,1,161.999995056153
330,210,84806,1,0,0:0:0:0:
309,89,84923,2,0,P|196:151|125:139,1,161.999995056153
122,338,85391,2,0,P|81:268|40:258,1,80.9999975280763
266,289,85626,2,0,P|238:261|199:249,1,80.9999975280763
312,162,85860,2,0,P|231:162|202:193,1,80.9999975280763
140,278,86095,2,0,P|209:310|289:303,1,107.999996704102
240,361,86329,6,0,L|277:171,1,161.999995056153
452,237,86681,1,0,0:0:0:0:
390,46,86798,2,0,P|431:116|472:126,1,80.9999975280763
245,94,87033,2,0,P|273:122|312:134,1,80.9999975280763
199,221,87267,2,0,P|280:221|309:190,1,80.9999975280763
441,309,87501,2,0,P|402:318|363:307,1,80.9999975280763
132,80,87735,2,0,B|89:225|89:225|147:331,1,242.999992584229
111,353,88204,6,0,P|191:304|297:295,1,161.999995056153
243,342,88556,1,0,0:0:0:0:
355,277,88673,2,0,P|304:208|204:204,1,161.999995056153
110,58,89141,2,0,P|180:17|190:-24,1,80.9999975280763
158,202,89376,2,0,P|186:174|198:135,1,80.9999975280763
285,248,89610,2,0,P|285:167|254:138,1,80.9999975280763
349,87,89845,2,0,L|343:46,2,40.4999987640381
336,323,90079,6,0,P|372:243|349:178,1,107.999996704102
413,266,90313,1,0,0:0:0:0:
285,248,90431,2,0,P|195:259|161:302,1,107.999996704102
217,292,90665,1,0,0:0:0:0:
197,161,90782,2,0,B|227:66|130:110|148:22,1,161.999995056153
112,288,91954,6,0,B|112:192|240:192|240:352|80:352|80:256,1,270
112,192,92891,2,0,B|112:128|192:128|192:256|32:256|32:112,1,270
240,128,93829,2,0,B|336:128|336:160|256:240|176:112|352:64,1,270
416,112,94649,1,0,0:0:0:0:
448,192,94766,2,0,P|400:224|352:224,1,90
336,288,95235,2,0,P|384:320|432:320,1,90
400,80,95704,6,0,B|352:32|288:96|368:144|448:112|384:192,1,180
336,256,96407,1,0,0:0:0:0:
336,256,96524,1,0,0:0:0:0:
336,256,96641,2,0,B|366:287|368:320|368:320|332:344|288:336,1,135
235,326,97110,2,0,B|228:310|228:310|231:303|231:303|222:300|222:300|205:277|205:277|194:273|194:273|202:266|202:266|185:227,1,90
112,272,97579,1,0,0:0:0:0:
52,101,98282,5,0,0:0:0:0:
98,181,98399,1,0,0:0:0:0:
185,150,98516,2,0,L|205:66,1,60
201,82,98751,2,0,P|240:39|264:37,1,60
254,38,98985,2,0,P|299:51|315:79,1,60
313,70,99220,2,0,L|352:122,1,60
291,195,99454,1,0,0:0:0:0:
411,47,100157,6,0,B|341:93|432:174|373:272,1,240
372,272,100509,2,0,P|278:331|166:281,1,240
168,283,100860,2,0,B|131:212|134:127|283:53|357:178|325:241,1,360
86,177,101563,2,0,P|94:271|195:315,1,180
162,221,101915,1,0,0:0:0:0:
171,136,102032,2,0,P|241:187|245:273,1,180
245,273,102384,2,0,P|271:168|366:126,1,180
326,131,102735,2,0,P|223:171|152:92,1,180
243,70,103204,1,0,0:0:0:0:
109,320,104141,6,0,P|69:313|110:313,1,120
97,234,104454,2,0,L|92:212,1,12
160,166,104766,2,0,L|176:138,1,24
258,113,105079,2,0,L|299:98,1,35.9999989013672
399,148,105391,2,0,L|449:170,1,48
459,299,105704,2,0,L|492:354,1,60
256,192,106016,12,0,106837,0:0:0:0:
77,255,106954,6,0,B|135:207|135:207|136:154,1,101.250003862381
137,170,107188,1,0,0:0:0:0:
233,66,107423,2,0,B|244:140|244:140|289:168,1,101.250003862381
274,161,107657,1,0,0:0:0:0:
354,48,107833,1,0,0:0:0:0:
354,48,107891,2,0,B|399:99|399:99|398:155,1,101.250003862381
398,132,108126,1,0,0:0:0:0:
251,246,108360,2,0,B|221:226|238:185|238:185|271:210|251:246,1,135.000005149842
52,232,108829,6,0,B|56:146|56:146|91:116,1,101.250003862381
67,136,109063,1,0,0:0:0:0:
176,221,109298,2,0,B|180:307|180:307|215:337,1,101.250003862381
191,316,109532,1,0,0:0:0:0:
81,35,109766,2,0,P|105:105|151:122,1,101.250003862381
125,116,110001,2,0,P|194:128|220:156,1,101.250003862381
215,148,110235,2,0,P|218:214|252:239,1,101.250003862381
242,235,110470,2,0,P|291:238|313:282,1,101.250003862381
312,280,110704,6,0,B|400:320|400:320|488:280|488:280|472:160|472:160|376:136|376:136|344:184|344:184|328:192|328:192|336:184|336:184|320:192|320:192|336:176|336:176|312:192|312:192,1,540.000020599366
140,73,111876,2,0,P|102:138|101:200,1,135.000005149842
170,299,112345,2,0,P|208:234|209:172,1,135.000005149842
264,56,112755,1,0,0:0:0:0:
264,56,112813,2,0,P|291:140|270:177,1,135.000005149842
168,165,113282,2,0,P|135:115|173:113,1,90.0000034332277
139,113,113516,6,0,P|187:121|226:90,1,101.250003862381
226,90,113751,2,0,P|246:179|226:197,1,101.250003862381
246,177,113985,2,0,P|294:185|333:154,1,101.250003862381
332,154,114220,2,0,P|283:231|256:229,1,101.250003862381
366,247,114454,1,0,0:0:0:0:
235,212,114630,5,0,0:0:0:0:
235,212,114688,2,0,P|266:248|258:336,1,135.000005149842
149,143,115156,2,0,P|118:179|128:268,1,135.000005149842
217,190,115509,2,0,P|247:149|226:70,1,135.000005149842
298,94,116095,2,0,B|272:72|272:72|230:87,1,67.5000025749208
264,143,116448,2,0,B|293:164|293:164|334:149,1,67.5000025749208
330,277,117032,2,0,B|400:248|400:248|331:265,1,135.000005149842
292,232,117384,2,0,B|224:256|224:256|291:244,1,135.000005149842
121,213,117813,2,0,L|128:232,1,17.9999994506836
117,85,118204,6,0,L|218:73,1,101.250003862381
217,73,118438,1,0,0:0:0:0:
210,163,118673,2,0,L|337:198,1,101.250003862381
307,189,118907,2,0,B|307:142|357:121|394:251,1,168.750006437302
393,249,119259,2,0,B|416:158|442:127|456:227,1,135.000005149842
401,319,119610,2,0,L|328:323,1,67.5000025749208
240,297,119845,6,0,B|217:144|187:165|170:209,1,168.750006437302
172,202,120196,2,0,B|185:127|202:65|227:126,1,135.000005149842
265,46,120548,2,0,L|336:47,1,67.5000025749208
403,103,120782,2,0,P|370:174|323:205,1,135.000005149842
325,204,121095,2,0,P|258:225|222:282,1,135.000005149842
65,57,121485,2,0,B|80:72|80:72|88:88|88:88|104:80|104:80|96:104|96:104|112:96|112:96|104:120|104:120|120:112|120:112|112:136|112:136|128:128|128:128|120:152|120:152|136:144|136:144|128:168|128:168|144:160|144:160|136:184|136:184|152:176|152:176|144:200|144:200|187:190|187:190|198:195|198:195|208:200|208:200|216:208|216:208|224:217|224:217|272:272|272:272|280:280,1,472.500018024445
256,256,121954,6,0,B|312:160|312:160|400:136,1,202.500007724762
424,208,122306,2,0,B|416:256|416:256|360:280,1,99.0000030212403
133,293,122657,2,0,P|72:273|52:212,1,99.0000030212403
133,212,122891,2,0,P|109:156|51:138,1,99.0000030212403
120,64,123126,2,0,P|144:40|160:56,2,49.5000015106202
224,64,123360,2,0,P|285:83|309:141,1,99.0000030212403
224,148,123594,2,0,P|248:206|309:225,1,99.0000030212403
336,136,123829,6,0,P|336:72|352:144,1,198.000006042481
352,224,124181,2,0,P|376:208|352:232,1,99.0000030212403
176,312,124532,1,0,0:0:0:0:
120,256,124649,2,0,P|99:162|200:136,1,198.000006042481
176,208,125001,2,0,P|248:216|256:96,1,198.000006042481
212,62,125352,1,0,0:0:0:0:
133,75,125470,1,0,0:0:0:0:
74,127,125587,1,0,0:0:0:0:
57,203,125704,6,0,B|56:275|90:282|90:282|107:254|57:201,1,180
173,148,125938,5,0,0:0:0:0:
252,143,126056,1,0,0:0:0:0:
320,176,126173,2,0,L|353:232,1,49.5000015106202
224,296,126407,1,0,0:0:0:0:
144,282,126525,1,0,0:0:0:0:
85,235,126642,2,0,L|65:173,1,49.5000015106202
80,72,126876,2,0,L|117:26,1,49.5000015106202
185,94,127110,2,0,L|263:66,1,78.7500007510185
218,179,127345,6,0,B|156:208|189:249|189:249|241:240|216:166,1,180
310,194,127579,2,0,B|268:252|327:262|327:262|369:223|312:193,1,180
51,142,127813,6,0,B|91:86|91:86|171:54,1,112.5
290,45,128048,1,0,0:0:0:0:
370,45,128165,2,0,B|370:109|370:109|450:165,1,112.5
401,273,128399,1,0,0:0:0:0:
329,241,128516,2,0,B|289:297|289:297|249:257,1,112.5
215,190,128751,2,0,B|212:141|212:141|168:187,1,112.5
125,301,128985,6,0,B|53:221|61:157|61:157|133:165,1,180
160,143,129220,6,0,P|154:195|192:238,1,67.5000025749208
240,234,129454,6,0,B|276:133|337:110|337:110|363:177,1,180
416,157,129688,6,0,L|472:292,1,112.5
217,294,129923,1,0,0:0:0:0:
138,319,130040,2,0,P|189:203|231:215,1,112.5
253,82,130274,1,0,0:0:0:0:
332,57,130391,2,0,P|281:173|239:161,1,112.5
248,256,130626,2,0,B|260:320|260:320|313:350,1,78.7500007510185
344,280,130860,2,0,B|352:215|352:215|308:167,1,78.7500007510185
337,111,131095,6,0,B|315:80|315:80|216:103|216:103|239:176,1,180
287,150,131329,2,0,B|303:187|303:187|185:212|185:212|177:178,1,180
173,287,131563,6,0,P|267:205|263:194,1,112.5
114,70,131798,1,0,0:0:0:0:
41,111,131916,2,0,P|83:220|108:217,1,112.5
175,326,132150,1,0,0:0:0:0:
140,249,132268,2,0,P|176:176|232:184,1,78.7500007510185
224,232,132501,2,0,P|248:202|250:163,1,78.7500007510185
226,46,132735,6,0,B|343:62|343:62|415:146,1,180
292,188,132970,6,0,L|187:173,1,67.5000025749208
127,306,133204,6,0,B|239:327|239:327|347:275,1,180
414,268,133438,6,0,P|415:146|405:144,1,112.5
272,66,133673,1,0,0:0:0:0:
199,26,133790,2,0,B|151:90|151:90|165:147,1,112.5
44,290,134024,1,0,0:0:0:0:
123,326,134141,2,0,B|116:244|140:224|140:224|160:220,1,112.5
266,323,134376,2,0,P|305:253|304:216,1,78.7500007510185
376,280,134610,2,0,P|388:200|409:174,1,78.7500007510185
437,149,134845,6,0,L|356:61,1,112.5
286,142,135079,2,0,P|210:74|165:82,1,90
62,208,135313,1,0,0:0:0:0:
33,292,135431,2,0,P|111:323|143:311,1,67.5000025749208
229,231,135665,1,0,0:0:0:0:
200,147,135783,2,0,B|232:120|232:120|232:136|232:136|241:119|241:119|248:136|248:136|256:120|256:120|264:136|264:136|272:120|272:120|280:136|280:136|288:120|288:120|296:136|296:136|304:120|304:120|312:136|312:136|389:127,1,225
360,200,136485,5,0,0:0:0:0:
360,200,136602,1,0,0:0:0:0:
360,200,136720,1,0,0:0:0:0:
360,200,136837,1,0,0:0:0:0:
360,200,136954,2,0,P|376:320|320:360,1,112.5
208,320,137188,2,0,P|176:232|192:184,1,112.5
48,136,137423,2,0,P|73:65|108:57,1,90
208,120,137657,6,0,P|160:152|144:136,2,90
64,248,137891,5,0,0:0:0:0:
115,284,138009,1,0,0:0:0:0:
175,301,138126,2,0,P|226:298|271:272,1,90
157,201,138360,1,0,0:0:0:0:
208,165,138478,1,0,0:0:0:0:
268,148,138595,2,0,P|319:151|364:177,1,90
297,232,138829,6,0,P|407:254|445:199,1,180
346,155,139063,6,0,L|406:58,1,90
180,130,139298,2,0,L|206:23,1,90
298,265,139532,1,0,0:0:0:0:
369,237,139649,2,0,B|384:291|384:291|437:307,1,90
337,118,139884,1,0,0:0:0:0:
266,90,140001,2,0,B|251:144|251:144|198:160,1,90
128,57,140235,6,0,B|56:137|64:201|64:201|136:193,1,180
124,286,140470,6,0,L|216:215,1,67.5000025749208
317,302,140704,6,0,B|333:195|292:146|292:146|236:192,1,180
346,54,140938,5,0,0:0:0:0:
387,124,141056,1,0,0:0:0:0:
385,204,141173,1,0,0:0:0:0:
349,276,141290,1,0,0:0:0:0:
278,235,141407,2,0,P|226:193|200:191,1,90
72,137,141641,1,0,0:0:0:0:
64,46,141759,2,0,P|135:51|155:86,1,90
202,231,141993,1,0,0:0:0:0:
244,174,142110,2,0,P|259:130|247:178,1,180
405,67,142462,1,0,0:0:0:0:
472,129,142579,6,0,B|363:200|328:195|328:195|338:134,1,180
245,50,142813,6,0,P|143:83|143:110,1,90
189,150,143048,2,0,P|131:154|91:190,1,90
211,303,143282,1,0,0:0:0:0:
293,323,143399,2,0,P|356:252|388:250,1,90
277,153,143634,1,0,0:0:0:0:
327,85,143751,2,0,P|286:0|296:-30,1,90
106,74,143985,6,0,B|43:109|54:142|54:142|86:142|107:72,1,180
162,175,144220,6,0,P|157:229|149:243,1,67.5000025749208
287,229,144454,6,0,B|257:295|285:315|285:315|312:296|288:228,1,180
377,222,144688,6,0,P|433:277|484:283,1,90
394,141,144923,6,0,P|397:116|389:92,2,45
311,150,145157,2,0,P|243:91|246:71,1,90
68,176,145391,1,0,0:0:0:0:
150,175,145509,2,0,P|143:267|116:292,1,90
372,304,145743,1,0,0:0:0:0:
277,310,145860,2,0,P|329:227|348:222,1,90
386,214,146095,6,0,B|425:126|404:51|404:51|343:52,1,180
234,56,146329,2,0,B|171:91|182:124|182:124|214:124|235:54,1,180
76,153,146563,6,0,B|88:207|88:207|206:213,1,90
215,220,146798,2,0,B|203:274|203:274|85:280,1,90
76,296,147032,2,0,B|88:350|88:350|206:356,1,90
251,316,147266,1,0,0:0:0:0:
319,272,147384,1,0,0:0:0:0:
339,193,147501,1,0,0:0:0:0:
299,122,147618,1,0,0:0:0:0:
262,50,147735,6,0,B|355:71|355:71|402:133|365:181,1,180
241,188,147970,6,0,B|263:233|263:233|229:267,1,90
101,225,148204,6,0,B|69:282|93:330|93:330|172:353|201:307|201:307,1,180
294,306,148438,2,0,P|340:226|346:167,1,90
369,59,148673,1,0,0:0:0:0:
273,60,148790,2,0,P|326:129|343:140,1,90
124,243,149024,1,0,0:0:0:0:
60,195,149141,2,0,B|94:149|94:149|146:163,1,90
350,74,149376,5,0,0:0:0:0:
273,99,149494,1,0,0:0:0:0:
261,179,149611,1,0,0:0:0:0:
185,208,149728,1,0,0:0:0:0:
153,279,149845,6,0,B|134:306|134:306|203:339|281:250,1,180
341,284,150079,6,0,B|349:315|349:315|419:284|399:176,1,135.000005149842
264,73,150313,5,0,0:0:0:0:
197,81,150431,2,0,B|186:49|186:49|118:84|162:161,1,90
112,260,150665,5,0,0:0:0:0:
180,286,150782,2,0,B|192:316|192:316|183:329|159:320,1,45
181,163,151016,2,0,P|286:141|358:195,1,180
341,240,151485,2,0,P|236:262|164:208,1,180
256,104,151954,6,0,B|227:180|288:218|233:306,1,180
392,56,152423,6,0,P|424:88|440:144,1,90
336,176,152891,2,0,P|288:216|280:240,1,90
184,40,153243,1,0,0:0:0:0:
104,80,153360,2,0,P|132:114|144:144,1,45
96,216,153595,6,0,B|184:224|128:152|256:160,1,135.000005149842
212,160,153829,2,0,B|124:152|180:224|52:216,1,135.000005149842
168,336,154063,6,0,P|208:264|240:248,1,90
296,304,154532,2,0,P|360:240|360:208,1,90
344,128,154884,1,0,0:0:0:0:
272,104,155001,2,0,P|280:64|312:40,1,45
400,40,155235,6,0,B|464:104|352:184|400:240,1,180
112,40,155704,2,0,B|48:104|160:184|112:240,1,180
200,296,155938,6,0,L|224:232,1,45
256,96,156173,6,0,P|328:144|336:168,1,90
152,168,156641,2,0,P|161:254|148:275,1,90
312,288,156993,1,0,0:0:0:0:
368,256,157110,2,0,P|392:296|392:320,1,45
456,320,157345,6,0,P|432:208|368:152,1,180
448,192,157579,2,0,P|382:98|301:71,1,180
144,64,157813,5,0,0:0:0:0:
144,64,157931,1,0,0:0:0:0:
144,64,158048,2,0,L|184:112,1,45
104,192,158282,1,0,0:0:0:0:
104,192,158400,1,0,0:0:0:0:
104,192,158517,2,0,L|144:240,1,45
320,72,158751,5,0,0:0:0:0:
320,72,158868,1,0,0:0:0:0:
320,72,158985,2,0,B|348:138|382:131|382:131|386:98|319:70,1,180
256,208,159220,5,0,0:0:0:0:
256,208,159337,1,0,0:0:0:0:
256,208,159454,2,0,B|284:274|318:267|318:267|322:234|255:206,1,180
399,303,159688,2,0,P|439:254|446:232,1,45
350,192,159923,2,0,P|359:142|366:137,1,45
233,96,160157,2,0,P|209:53|204:51,1,45
115,152,160391,6,0,P|73:137|27:162,1,90
84,338,160626,2,0,P|96:296|134:274,1,90
225,213,160860,2,0,P|259:240|303:237,1,90
214,73,161095,6,0,P|271:76|213:77,1,180
371,139,161329,2,0,P|412:177|367:141,1,180
47,313,161563,2,0,B|85:245|85:245|143:247,1,112.5
344,221,161798,2,0,B|296:276|296:276|248:287,1,112.5
49,182,162032,2,0,B|127:137|127:137|182:127,1,112.5
322,63,162266,2,0,L|195:56,1,112.5
57,101,162501,2,0,P|175:146|188:145,1,112.5
442,172,162735,6,0,B|387:273|387:273|309:257|356:175,1,180
91,233,162970,2,0,P|223:274|256:327,1,112.5
354,327,163204,2,0,B|261:333|261:333|330:279|248:171,1,180
121,278,163438,5,0,0:0:0:0:
176,206,163556,1,0,0:0:0:0:
261,179,163673,2,0,B|272:86|207:40|207:40|156:98,1,180
50,90,163907,5,0,0:0:0:0:
51,179,164024,1,0,0:0:0:0:
129,223,164141,2,0,B|161:153|214:171|214:171|198:271|308:250,1,180
425,175,164376,5,0,0:0:0:0:
405,87,164493,1,0,0:0:0:0:
318,111,164610,2,0,B|235:181|345:180|345:180|378:224|297:263,1,180
227,323,164845,5,0,0:0:0:0:
137,326,164962,1,0,0:0:0:0:
177,249,165079,2,0,P|210:173|209:162,1,67.5000025749208
104,169,165313,2,0,P|153:106|163:104,1,67.5000025749208
227,73,165548,2,0,P|324:105|332:100,1,90
313,243,165782,2,0,P|409:228|424:235,1,90
61,119,166016,6,0,B|163:86|163:86|217:129,1,135.000005149842
178,328,166251,2,0,B|231:324|231:324|295:205,1,135.000005149842
56,207,166485,2,0,B|74:67|164:52|164:52|190:94|236:57,1,240
301,137,166720,6,0,P|287:173|237:198,2,60
387,79,166954,6,0,B|392:134|392:134|376:217,1,112.5
214,140,167188,2,0,B|209:195|209:195|225:278,1,112.5
250,71,167423,2,0,B|194:75|194:75|116:105,1,112.5
219,251,167657,2,0,B|165:265|165:265|81:264,1,112.5
433,226,167891,2,0,B|432:170|432:170|407:89,1,112.5
255,182,168125,2,0,B|244:127|244:127|251:43,1,112.5
411,303,168360,2,0,L|269:283,1,99.0000030212403
108,264,168595,2,0,L|250:244,1,99.0000030212403
373,43,168829,6,0,B|395:81|395:81|394:117|394:117|422:157,1,112.5
328,294,169063,2,0,B|306:255|306:255|307:220|307:220|279:180,1,112.5
405,309,169298,2,0,B|367:331|367:331|331:330|331:330|291:358,1,112.5
154,264,169532,2,0,B|192:242|192:242|228:243|228:243|268:215,1,112.5
81,161,169766,2,0,L|69:32,1,112.5
172,190,170001,2,0,L|188:307,1,112.5
339,190,170235,2,0,L|324:301,1,112.5
431,161,170470,2,0,L|441:49,1,112.5
