osu file format v14

[General]
AudioFilename: audio.ogg
AudioLeadIn: 0
PreviewTime: 13777
Countdown: 0
SampleSet: Soft
StackLeniency: 0.7
Mode: 3
LetterboxInBreaks: 0
SpecialStyle: 0
WidescreenStoryboard: 1
SamplesMatchPlaybackRate: 1

[Editor]
DistanceSpacing: 1
BeatDivisor: 3
GridSize: 32
TimelineZoom: 1

[Metadata]
Title:Early Risers
TitleUnicode:Early Risers
Artist:anatharax
ArtistUnicode:anatharax
Creator:anatharax
Version:Normal
Source:
Tags:ln releases coordination long notes piano instrumental classical keysounds
BeatmapID:4495829
BeatmapSetID:2102767

[Difficulty]
HPDrainRate:7
CircleSize:4
OverallDifficulty:6.5
ApproachRate:5
SliderMultiplier:1.4
SliderTickRate:1

[Events]
//Background and Video events
0,0,"morning.jpg",0,0
//Break Periods
//Storyboard Layer 0 (Background)
//Storyboard Layer 1 (Fail)
//Storyboard Layer 2 (Pass)
//Storyboard Layer 3 (Foreground)
//Storyboard Layer 4 (Overlay)
//Storyboard Sound Samples

[TimingPoints]
180,666.666666666667,4,2,9,40,1,0

[HitObjects]
448,192,180,128,0,624:0:0:0:50:D4R_s.ogg
64,192,180,128,0,1068:0:0:0:30:D3R_s.ogg
320,192,624,128,0,1068:0:0:0:50:A4R_s.ogg
192,192,1068,128,0,1513:0:0:0:50:C5R_s.ogg
448,192,1513,128,0,1957:0:0:0:50:E5R_s.ogg
192,192,1957,128,0,2402:0:0:0:50:A4R_s.ogg
320,192,2402,128,0,3291:0:0:0:30:G3R_s.ogg
64,192,2846,128,0,3735:0:0:0:50:A4R_s.ogg
448,192,3291,128,0,3735:0:0:0:50:E5R_s.ogg
192,192,3735,128,0,4180:0:0:0:50:G5R_s.ogg
320,192,4180,128,0,4624:0:0:0:50:B5R_s.ogg
64,192,4624,128,0,5068:0:0:0:50:E5R_s.ogg
448,192,5068,128,0,5957:0:0:0:30:F3R_s.ogg
192,192,5513,128,0,6402:0:0:0:30:G3R_s.ogg
320,192,5957,128,0,6402:0:0:0:50:C5R_s.ogg
64,192,6402,128,0,6846:0:0:0:50:E5R_s.ogg
448,192,6846,128,0,7291:0:0:0:50:G5R_s.ogg
192,192,7291,128,0,8180:0:0:0:30:E3R_s.ogg
320,192,7735,128,0,8624:0:0:0:30:F3R_s.ogg
64,192,8180,128,0,9068:0:0:0:30:E3R_s.ogg
448,192,8624,128,0,9068:0:0:0:50:G4R_s.ogg
192,192,9068,128,0,9513:0:0:0:50:B4R_s.ogg
320,192,9513,128,0,9957:0:0:0:50:D5R_s.ogg
192,192,9957,128,0,10402:0:0:0:50:B4R_s.ogg
64,192,10402,128,0,11291:0:0:0:30:F3R_s.ogg
448,192,10846,128,0,11735:0:0:0:30:D3R_s.ogg
192,192,11291,128,0,11735:0:0:0:50:A4R_s.ogg
320,192,11735,128,0,12180:0:0:0:50:C5R_s.ogg
448,192,12180,128,0,12624:0:0:0:50:E5R_s.ogg
192,192,12624,128,0,13068:0:0:0:50:A4R_s.ogg
64,192,13068,128,0,13957:0:0:0:30:F3R_s.ogg
320,192,13513,128,0,14402:0:0:0:30:A3R_s.ogg
448,192,13957,128,0,14402:0:0:0:50:E5R_s.ogg
192,192,14402,128,0,14846:0:0:0:50:A5R_s.ogg
320,192,14846,128,0,15291:0:0:0:50:C6R_s.ogg
192,192,15291,128,0,15735:0:0:0:50:A5R_s.ogg
448,192,15735,128,0,16624:0:0:0:50:E5R_s.ogg
64,192,16180,128,0,17068:0:0:0:30:G3R_s.ogg
320,192,16624,128,0,17068:0:0:0:50:E5R_s.ogg
192,192,17068,128,0,17513:0:0:0:50:G5R_s.ogg
64,192,17513,128,0,17957:0:0:0:50:B5R_s.ogg
448,192,17957,128,0,18846:0:0:0:30:E3R_s.ogg
64,192,18402,128,0,19291:0:0:0:30:F3R_s.ogg
320,192,18846,128,0,19735:0:0:0:30:E3R_s.ogg
192,192,19291,128,0,19735:0:0:0:50:B4R_s.ogg
448,192,19735,128,0,20180:0:0:0:50:G4R_s.ogg
64,192,20180,128,0,20624:0:0:0:50:D5R_s.ogg
320,192,20624,128,0,21068:0:0:0:50:B4R_s.ogg
448,192,21068,128,0,21957:0:0:0:30:F3R_s.ogg
64,192,21513,128,0,22402:0:0:0:30:D3R_s.ogg
320,192,21957,128,0,22402:0:0:0:50:A4R_s.ogg
192,192,22402,128,0,22846:0:0:0:50:C5R_s.ogg
448,192,22846,128,0,23291:0:0:0:50:E5R_s.ogg
192,192,23291,128,0,23735:0:0:0:50:A4R_s.ogg
64,192,23735,128,0,24624:0:0:0:30:F3R_s.ogg
448,192,24180,128,0,25068:0:0:0:30:A3R_s.ogg
320,192,24624,128,0,25068:0:0:0:50:C5R_s.ogg
192,192,25068,128,0,25513:0:0:0:50:E5R_s.ogg
448,192,25513,128,0,25957:0:0:0:50:B5R_s.ogg
192,192,25957,128,0,26402:0:0:0:50:E5R_s.ogg
64,192,26402,128,0,27291:0:0:0:30:F3R_s.ogg
320,192,26846,128,0,27735:0:0:0:30:G3R_s.ogg
192,192,27291,128,0,27735:0:0:0:50:A4R_s.ogg
448,192,27735,128,0,28180:0:0:0:50:C5R_s.ogg
64,192,28180,128,0,28624:0:0:0:50:E5R_s.ogg
448,192,28624,128,0,29513:0:0:0:30:E3R_s.ogg
192,192,29068,128,0,29957:0:0:0:30:F3R_s.ogg
320,192,29513,128,0,30402:0:0:0:30:E3R_s.ogg
64,192,29957,128,0,30402:0:0:0:50:A4R_s.ogg
448,192,30402,128,0,30846:0:0:0:50:G4R_s.ogg
320,192,30846,128,0,31291:0:0:0:50:D5R_s.ogg
192,192,31291,128,0,31735:0:0:0:50:B4R_s.ogg
64,192,31735,128,0,34846:0:0:0:50:G4R_s.ogg
320,192,31735,128,0,32846:0:0:0:30:F3R_s.ogg
