osu file format v14

[General]
AudioFilename: audio.mp3
AudioLeadIn: 0
PreviewTime: 54997
Countdown: 0
SampleSet: Soft
StackLeniency: 0.7
Mode: 0
LetterboxInBreaks: 0
WidescreenStoryboard: 1

[Editor]
DistanceSpacing: 1
BeatDivisor: 2
GridSize: 32
TimelineZoom: 1

[Metadata]
Title:Taishou a (TV Size)
TitleUnicode:対象a (TV Size)
Artist:anNina
ArtistUnicode:anNina
Creator:fllecc
Version:easy
Source:ひぐらしのなく頃に解
Tags:pip pipuuko Annabel bermei.inazawa japanese pop jpop anime higurashi no naku koro ni kai when they cry ending ed 07th Expansion
BeatmapID:4143764
BeatmapSetID:1979008

[Difficulty]
HPDrainRate:3
CircleSize:3.2
OverallDifficulty:3
ApproachRate:3
SliderMultiplier:0.8
SliderTickRate:0.5

[Events]
//Background and Video events
0,0,"Ft0SEwyaIAI85AZ.jpg",0,0
//Break Periods
//Storyboard Layer 0 (Background)
//Storyboard Layer 1 (Fail)
//Storyboard Layer 2 (Pass)
//Storyboard Layer 3 (Foreground)
//Storyboard Layer 4 (Overlay)
//Storyboard Sound Samples

[TimingPoints]
7088,344.827586206897,6,2,1,40,1,0
7088,-111.111111111111,4,2,1,40,0,0
22950,-111.111111111111,4,2,1,50,0,0
56743,-100,6,2,1,60,0,0
85708,-100,6,2,1,50,0,0

[Colours]
Combo1 : 206,206,206
Combo2 : 171,165,209

[HitObjects]
25,378,7088,6,0,P|61:338|225:313,1,215.999993408203,2|2,3:2|0:0,0:0:0:0:
355,380,8812,1,2,0:0:0:0:
431,361,9156,2,0,P|475:282|486:144,1,215.999993408203,2|0,0:0|0:0,0:0:0:0:
353,2,11225,5,0,3:0:0:0:
300,62,11570,2,0,P|302:97|313:132,1,71.9999978027344,2|2,0:0|0:0,0:0:0:0:
277,202,12260,2,0,P|247:250|86:272,1,215.999993408203,2|2,0:0|0:0,0:0:0:0:
35,73,14329,2,0,P|47:38|50:3,2,71.9999978027344,8|2|0,0:0|0:0|0:0,0:0:0:0:
3,145,15363,5,0,3:0:0:0:
210,277,16398,2,0,P|245:273|279:260,2,71.9999978027344,2|2|0,0:0|0:0|0:0,0:0:0:0:
142,235,17432,2,0,P|90:237|-1:359,1,215.999993408203,2|2,0:0|0:0,0:0:0:0:
242,277,19501,5,4,3:0:0:0:
305,229,19846,2,0,P|317:192|318:143,1,71.9999978027344,2|0,0:0|0:0,0:0:0:0:
264,102,20536,2,0,P|252:67|249:32,2,71.9999978027344,6|2|2,3:0|0:0|0:0,0:0:0:0:
211,161,21570,2,0,P|161:172|40:78,1,215.999993408203,6|8,3:0|0:0,0:0:0:0:
52,0,22950,1,2,0:1:0:0:
191,74,23639,6,0,P|242:62|297:58,2,107.999996704102,4|0|8,3:0|3:0|0:0,0:0:0:0:
60,166,25363,1,2,0:0:0:0:
10,227,25708,2,0,P|12:267|60:365,1,143.999995605469,8|0,3:0|3:0,0:0:0:0:
132,382,26743,2,0,P|170:372|222:370,1,71.9999978027344,10|2,0:0|0:0,0:0:0:0:
317,259,27777,5,4,3:0:0:0:
383,301,28122,2,0,P|418:297|453:288,1,71.9999978027344,2|2,0:0|0:0,0:0:0:0:
496,221,28812,1,10,0:0:0:0:
440,164,29156,2,0,P|430:129|427:93,1,71.9999978027344,2|0,0:0|0:0,0:0:0:0:
378,31,29846,2,0,P|328:20|214:119,1,215.999993408203,4|8,3:0|0:0,0:0:0:0:
230,196,31226,1,2,0:0:0:0:
103,319,31915,5,4,3:0:0:0:
27,295,32260,2,0,P|9:259|2:150,1,143.999995605469,2|10,0:0|0:0,0:0:0:0:
50,95,33294,1,2,0:3:0:0:
127,112,33639,1,2,0:0:0:0:
184,57,33984,6,0,B|307:36|268:99|400:80,1,215.999993408203,2|8,3:2|0:0,0:0:0:0:
506,193,35708,5,2,0:0:0:0:
430,217,36053,2,0,P|415:245|410:331,1,107.999996704102,8|4,3:0|3:0,0:0:0:0:
305,380,37088,1,8,0:0:0:0:
229,356,37432,6,2,P|220:338|216:284,1,71.9999978027344,2|0,1:0|0:0,0:1:0:0:
255,218,38122,2,0,P|269:189|274:103,2,107.999996704102,0|8|4,3:0|3:0|3:1,0:0:0:0:
13,43,40191,6,0,P|52:76|111:89,1,107.999996704102,2|2,3:2|0:0,0:0:0:0:
201,17,41225,1,8,0:0:0:0:
266,61,41570,2,0,P|303:53|344:53,1,71.9999978027344,2|2,0:0|0:0,0:0:0:0:
407,89,42260,2,0,P|410:146|401:226,2,107.999996704102,2|2|8,3:2|3:2|0:0,0:0:0:0:
468,39,43639,1,2,0:0:0:0:
326,127,44329,6,0,P|284:130|225:91,1,107.999996704102,2|2,3:2|0:0,0:0:0:0:
142,152,45363,6,0,P|88:151|45:182,1,107.999996704102,10|2,0:0|0:0,0:0:0:0:
4,281,46398,6,0,P|109:280|190:348,1,215.999993408203,6|10,3:0|0:1,0:0:0:0:
267,367,47777,1,2,0:0:0:0:
407,319,48467,6,0,P|426:290|433:207,1,107.999996704102,4|4,3:0|3:0,0:0:0:0:
488,112,49501,1,8,0:0:0:0:
428,60,49846,6,0,P|389:69|348:71,1,71.9999978027344,2|2,0:1|0:1,0:0:0:0:
290,27,50536,2,0,P|240:16|126:115,1,215.999993408203,4|8,3:0|0:0,0:0:0:0:
83,181,51915,1,2,0:0:0:0:
134,241,52260,1,2,0:0:0:0:
100,312,52605,6,0,P|46:314|0:340,2,107.999996704102,8|2|8,3:0|3:2|0:0,0:0:0:0:
163,359,53984,2,0,P|194:376|229:378,2,71.9999978027344,2|2|4,0:0|0:0|1:0,0:0:0:0:
176,280,55019,6,0,L|171:200,1,71.9999978027344,2|2,0:0|0:0,0:0:0:0:
166,129,55708,2,0,L|161:49,1,71.9999978027344,2|2,0:0|0:1,0:0:0:0:
224,9,56398,1,2,0:1:0:0:
295,45,56743,6,0,P|356:42|409:13,1,120,4|2,1:0|3:0,0:0:0:0:
504,84,57777,2,0,P|490:123|484:167,1,80,10|8,0:0|3:0,0:0:0:0:
510,236,58467,1,4,3:0:0:0:
451,290,58812,6,0,P|329:296|223:354,1,240,4|8,3:0|0:0,0:0:0:0:
149,372,60191,2,0,P|114:350|100:312,1,80,2|2,0:0|3:2,0:0:0:0:
51,250,60881,6,0,P|70:221|77:138,1,120,4|4,3:0|3:0,0:0:0:0:
22,30,61915,1,8,0:0:0:0:
95,0,62260,2,0,P|134:2|167:24,1,80,4|4,3:0|3:0,0:0:0:0:
216,87,62950,6,0,P|283:105|425:26,1,240,6|10,3:0|0:1,0:0:0:0:
288,190,64674,5,8,3:0:0:0:
227,242,65019,2,0,P|225:301|252:354,1,120,6|2,1:2|3:0,0:0:0:0:
368,382,66053,1,8,0:0:0:0:
440,347,66398,2,0,P|452:305|452:259,1,80,8|2,3:0|3:2,0:0:0:0:
501,204,67088,2,0,P|484:145|484:81,1,120,4|0,3:0|3:0,0:0:0:0:
374,6,68122,5,8,0:0:0:0:
333,75,68467,2,0,P|298:93|259:97,1,80,8|8,3:0|3:0,0:0:0:0:
190,56,69156,6,0,P|137:28|77:25,1,120,6|0,3:0|3:0,0:0:0:0:
5,121,70191,1,10,0:0:0:0:
69,168,70536,2,0,P|81:205|86:245,1,80,4|4,3:0|3:0,0:0:0:0:
53,318,71225,6,0,P|79:365|173:370,1,120,2|2,1:0|1:2,0:0:0:0:
256,356,72260,2,0,P|259:316|255:276,1,80,10|8,0:0|3:0,0:0:0:0:
295,206,72950,1,6,3:0:0:0:
238,150,73294,6,0,P|177:153|124:182,1,120,4|2,1:0|3:0,0:0:0:0:
9,149,74329,2,0,P|-1:110|0:70,1,80,10|8,0:0|3:0,0:0:0:0:
65,23,75019,1,4,3:0:0:0:
138,59,75363,6,0,P|260:53|366:-5,1,240,4|8,3:0|0:0,0:0:0:0:
439,17,76743,2,0,P|467:48|476:91,1,80,2|10,0:0|3:0,0:0:0:0:
507,158,77432,6,0,P|468:179|441:266,1,120,6|2,3:0|1:0,0:0:0:0:
510,342,78467,1,10,0:0:0:0:
440,380,78812,2,0,P|396:368|341:364,1,80,4|4,3:0|3:0,0:0:0:0:
282,374,79501,6,0,P|232:311|220:130,1,240,6|8,3:0|0:0,0:0:0:0:
256,90,80881,1,8,3:0:0:0:
225,16,81225,1,6,3:0:0:0:
145,9,81570,6,0,P|106:30|79:117,1,120,6|0,1:2|3:0,0:0:0:0:
14,266,82950,2,0,P|26:308|49:342,1,80,2|2,3:2|0:3,0:0:0:0:
120,367,83639,6,0,P|159:345|237:343,1,120,4|0,3:0|3:0,0:0:0:0:
428,303,85019,2,0,P|449:269|459:230,1,80,8|2,3:0|0:3,0:0:0:0:
507,166,85708,6,0,P|495:121|411:85,1,120,6|0,3:0|3:2,0:0:0:0:
336,16,86743,2,0,P|290:15|233:87,1,120,10|0,0:2|3:0,0:0:0:0:
149,143,87777,2,0,P|103:143|46:71,2,120,10|0|2,3:0|3:2|0:0,0:0:0:0:
