osu file format v14

[General]
AudioFilename: audio.mp3
AudioLeadIn: 0
PreviewTime: 55019
Countdown: 0
SampleSet: Soft
StackLeniency: 0.7
Mode: 0
LetterboxInBreaks: 0
WidescreenStoryboard: 0

[Editor]
Bookmarks: 54933,54998,81572,85710
DistanceSpacing: 0.9
BeatDivisor: 12
GridSize: 4
TimelineZoom: 3.1

[Metadata]
Title:Taishou a (TV Size)
TitleUnicode:対象a (TV Size)
Artist:anNina
ArtistUnicode:anNina
Creator:Lurumic
Version:Sorrow
Source:ひぐらしのなく頃に解
Tags:jpop pop higurashi no naku koro ni when they cry ed ending anime japanese 07th expansion Annabel bermei.inazawa female vocal vocalist sharpay keevy vanya2
BeatmapID:3600380
BeatmapSetID:1759184

[Difficulty]
HPDrainRate:6
CircleSize:4.7
OverallDifficulty:8.2
ApproachRate:8.8
SliderMultiplier:2.4
SliderTickRate:1

[Events]
//Background and Video events
0,0,"bg.png",0,0
//Break Periods
//Storyboard Layer 0 (Background)
//Storyboard Layer 1 (Fail)
//Storyboard Layer 2 (Pass)
//Storyboard Layer 3 (Foreground)
//Storyboard Layer 4 (Overlay)
//Storyboard Sound Samples

[TimingPoints]
7088,1034.48275862069,4,2,1,40,1,0
7088,-50,4,2,1,40,0,0
7777,-62.5,4,2,1,40,0,0
8639,-83.3333333333333,4,2,1,40,0,0
10536,-71.4285714285714,4,2,1,20,0,0
11225,-62.5,4,2,1,40,0,0
14264,-62.5,4,2,1,5,0,0
14329,-125,4,2,1,40,0,0
15363,-62.5,4,2,1,45,0,0
17432,-50,4,2,1,45,0,0
18122,-62.5,4,2,1,45,0,0
18812,-55.5555555555556,4,2,1,45,0,0
19415,-55.5555555555556,4,2,1,5,0,0
19501,-45.4545454545455,4,2,1,50,0,0
22605,-55.5555555555556,4,2,1,50,0,0
22950,-45.4545454545455,4,2,1,50,0,0
23639,-50,4,2,1,50,0,0
25018,-71.4285714285714,4,2,1,50,0,0
25708,-50,4,2,1,50,0,0
26225,-71.4285714285714,4,2,1,50,0,0
27087,-50,4,2,1,50,0,0
27777,-333.333333333333,4,2,1,50,0,0
28036,-333.333333333333,4,2,1,5,0,0
28122,-50,4,2,1,50,0,0
28812,-333.333333333333,4,2,1,50,0,0
29070,-333.333333333333,4,2,1,5,0,0
29156,-50,4,2,1,50,0,0
31915,-50,4,2,1,60,0,0
33639,-71.4285714285714,4,2,1,60,0,0
33973,-50,4,2,1,60,0,0
38122,-58.8235294117647,4,2,1,60,0,0
38553,-58.8235294117647,4,2,1,5,0,0
38639,-41.6666666666667,4,2,1,60,0,0
39070,-41.6666666666667,4,2,1,5,0,0
39156,-41.6666666666667,4,2,1,60,0,0
40019,-55.5555555555556,4,2,1,60,0,0
48467,-55.5555555555556,4,2,1,65,0,0
49846,-41.6666666666667,4,2,1,65,0,0
50708,-55.5555555555556,4,2,1,65,0,0
53763,-50,4,2,1,65,0,0
54674,-200,4,2,1,65,0,0
54997,-35.7142857142857,4,2,1,65,0,0
55277,-35.7142857142857,4,2,1,5,0,0
55363,-23.8095238095238,4,2,1,65,0,0
55622,-23.8095238095238,4,2,1,5,0,0
55708,-41.6666666666667,4,2,1,65,0,0
56743,-45.4545454545455,4,2,1,75,0,0
57260,-45.4545454545455,4,2,1,75,0,0
57777,-38.4615384615385,4,2,1,75,0,0
58122,-38.4615384615385,4,2,1,75,0,0
58467,-55.5555555555556,4,2,1,75,0,0
58812,-38.4615384615385,4,2,1,75,0,0
59501,-45.4545454545455,4,2,1,75,0,0
59846,-38.4615384615385,4,2,1,75,0,0
59971,-41.6666666666667,4,2,1,75,0,0
60881,-55.5555555555556,4,2,1,75,0,0
61915,-38.4615384615385,4,2,1,75,0,0
62260,-38.4615384615385,4,2,1,75,0,0
62605,-55.5555555555556,4,2,1,75,0,0
62950,-45.4545454545455,4,2,1,75,0,0
63984,-38.4615384615385,4,2,1,75,0,0
64329,-45.4545454545455,4,2,1,75,0,0
64674,-55.5555555555556,4,2,1,75,0,0
65018,-38.4615384615385,4,2,1,75,0,0
66743,-55.5555555555556,4,2,1,75,0,0
68122,-83.3333333333333,4,2,1,75,0,0
68467,-38.4615384615385,4,2,1,75,0,0
68812,-55.5555555555556,4,2,1,75,0,0
69156,-38.4615384615385,4,2,1,75,0,0
70191,-45.4545454545455,4,2,1,75,0,0
71225,-33.3333333333333,4,2,1,75,0,1
72604,-45.4545454545455,4,2,1,75,0,1
72950,-83.3333333333333,4,2,1,75,0,0
73294,-45.4545454545455,4,2,1,75,0,0
74329,-38.4615384615385,4,2,1,75,0,0
76053,-45.4545454545455,4,2,1,75,0,0
76398,-38.4615384615385,4,2,1,75,0,0
76743,-45.4545454545455,4,2,1,75,0,0
77432,-55.5555555555556,4,2,1,75,0,0
78467,-38.4615384615385,4,2,1,75,0,0
78812,-38.4615384615385,4,2,1,75,0,0
79156,-55.5555555555556,4,2,1,75,0,0
79501,-45.4545454545455,4,2,1,75,0,0
80536,-38.4615384615385,4,2,1,75,0,0
80881,-45.4545454545455,4,2,1,75,0,0
81225,-55.5555555555556,4,2,1,75,0,0
81570,-38.4615384615385,4,2,1,75,0,0
83294,-55.5555555555556,4,2,1,75,0,0
84674,-83.3333333333333,4,2,1,75,0,0
85708,-166.666666666667,4,2,1,60,0,0
86743,-200,4,2,1,50,0,0
87777,-250,4,2,1,40,0,0
88812,-400,4,2,1,30,0,0
89587,-400,4,2,1,5,0,0

[Colours]
Combo1 : 84,0,168
Combo2 : 255,164,164
Combo3 : 187,187,255
Combo4 : 203,151,255

[HitObjects]
58,384,7088,6,0,P|35:268|53:53,1,320,2|2,3:2|3:3,0:0:0:0:
109,7,7951,1,2,0:0:0:0:
183,69,8123,1,2,3:2:0:0:
121,143,8295,2,0,P|91:148|38:157,1,64,2|2,0:0|0:3,0:0:0:0:
0,247,8639,6,0,P|-19:223|19:231,1,95.9999970703126,2|2,0:0|0:0,0:0:0:0:
142,253,9157,5,2,3:2:0:0:
211,233,9330,1,2,0:0:0:0:
278,210,9502,1,2,0:3:0:0:
123,259,9847,5,2,0:3:0:0:
192,235,10019,1,2,0:3:0:0:
290,78,10537,5,8,0:3:0:0:
325,0,10882,5,0,0:0:0:0:
367,131,11054,6,0,L|396:127,1,27.9999991455078,2|0,0:0|0:0,0:0:0:0:
343,143,11226,6,0,P|308:174|281:261,2,128,2|2|2,3:2|0:3|0:3,0:0:0:0:
511,253,12261,2,0,P|493:313|448:371,1,128,2|2,3:2|0:3,0:0:0:0:
448,186,12950,2,0,L|484:113,1,64,10|2,0:3|0:3,0:0:0:0:
512,55,13295,1,2,3:2:0:0:
276,0,13640,5,2,0:3:0:0:
199,0,13812,1,8,0:0:0:0:
150,67,13985,1,2,0:3:0:0:
0,49,14135,2,0,L|47:41,1,48,2|0,0:0|0:0,0:0:0:0:
61,57,14330,6,0,P|81:108|78:154,1,96,0|4,1:2|0:3,0:0:0:0:
80,149,15019,1,10,0:3:0:0:
1,353,15363,6,0,P|54:327|133:331,1,128,0|2,3:2|0:3,0:0:0:0:
198,285,15881,2,0,L|206:221,1,64,2|2,0:3|0:3,0:0:0:0:
211,144,16225,1,2,0:3:0:0:
124,248,16399,2,0,P|58:229|-4:249,2,128,2|6|10,0:0|0:3|0:3,0:0:0:0:
264,368,17433,6,0,B|244:320|260:268|312:272|358:275|374:211|362:155,1,240,2|8,3:2|0:0,0:0:0:0:
267,129,18122,2,0,P|281:102|270:51,1,64,2|0,0:3|0:0,0:0:0:0:
365,176,18467,2,0,P|399:149|441:144,1,64,2|0,0:0|0:0,0:0:0:0:
510,191,18812,2,0,P|394:166|255:125,1,251.999992309571,0|0,3:2|0:0,0:0:0:0:
193,146,19502,6,0,P|166:179|174:221,1,88.000002685547,0|0,3:2|0:0,0:0:0:0:
95,352,19846,2,0,P|103:310|-11:295,1,176.000005371094,2|2,0:3|0:3,0:0:0:0:
168,223,20536,6,0,P|195:190|187:148,1,88.000002685547,2|0,3:2|0:0,0:0:0:0:
0,92,20881,2,0,P|75:113|163:69,1,176.000005371094,2|2,0:3|0:3,0:0:0:0:
340,0,21570,5,2,3:2:0:0:
327,0,21743,1,0,0:0:0:0:
310,0,21915,1,2,0:3:0:0:
160,72,22087,5,8,0:0:0:0:
235,73,22260,1,2,0:3:0:0:
310,75,22432,1,0,3:2:0:0:
434,114,22605,6,0,P|478:130|530:148,1,71.9999978027344,0|0,1:2|0:0,0:0:0:0:
200,208,22950,2,0,P|284:162|364:180,1,176.000005371094,0|2,3:2|0:0,0:0:0:0:
439,223,23467,1,0,0:0:0:0:
504,270,23640,6,0,P|429:251|357:291,1,160,0|2,3:2|0:3,0:0:0:0:
221,362,24156,2,0,P|163:308|78:329,1,160,0|2,3:2|0:3,0:0:0:0:
1,208,24674,2,0,P|21:248|16:302,1,80,0|0,1:2|0:0,0:0:0:0:
88,320,25019,2,0,P|126:277|189:263,1,111.999996582031,8|10,0:3|0:0,0:0:0:0:
177,262,25536,1,2,0:3:0:0:
362,358,25709,6,0,P|292:312|352:248,1,160,2|2,3:2|0:3,0:0:0:0:
425,284,26226,2,0,L|504:271,2,55.9999982910157,2|0|2,0:0|3:2|0:3,0:0:0:0:
330,181,26743,1,2,1:2:0:0:
330,181,27088,6,0,P|305:121|350:44,1,160,8|6,0:3|0:3,0:0:0:0:
427,7,27605,1,2,0:3:0:0:
200,216,27778,6,0,L|203:235,1,17.9999994506836,0|0,3:2|0:0,0:0:0:0:
222,148,28123,2,0,B|130:140|166:188|54:196,1,160,2|2,0:0|0:0,0:0:0:0:
0,152,28639,1,2,0:3:0:0:
24,332,28812,6,0,L|20:351,1,17.9999994506836,2|0,1:2|0:0,0:0:0:0:
2,264,29157,2,0,B|94:256|58:304|170:312,1,160,10|10,0:3|0:0,0:0:0:0:
232,292,29674,1,2,0:3:0:0:
292,125,29846,6,0,P|306:66|266:38,1,80,2|0,3:2|0:0,0:0:0:0:
108,52,30191,2,0,P|94:111|134:139,1,80,2|2,0:3|0:3,0:0:0:0:
198,76,30536,5,2,0:3:0:0:
199,0,30709,1,2,0:3:0:0:
0,138,30881,1,2,1:2:0:0:
143,300,31226,5,0,3:2:0:0:
162,195,31398,1,2,0:3:0:0:
162,195,31484,1,8,0:0:0:0:
162,195,31570,1,0,3:2:0:0:
266,171,31743,1,8,0:0:0:0:
371,285,31916,6,0,P|459:297|495:258,1,120,0|0,3:2|0:0,0:0:0:0:
512,215,32260,1,2,0:3:0:0:
482,357,32433,2,0,P|470:309|486:269,1,80,0|2,3:2|0:3,0:0:0:0:
512,198,32777,1,2,0:0:0:0:
287,272,32950,6,0,P|264:207|286:113,1,160,2|10,1:2|0:3,0:0:0:0:
347,64,33467,1,2,0:3:0:0:
411,125,33640,2,0,P|423:149|411:199,1,55.9999982910157,2|8,0:3|0:0,0:0:0:0:
235,323,33984,6,0,P|171:343|71:371,1,160,2|2,3:2|3:3,0:0:0:0:
2,304,34501,1,2,0:3:0:0:
8,384,34674,1,2,0:3:0:0:
71,293,34846,1,0,0:0:0:0:
236,172,35019,5,0,1:2:0:0:
236,172,35363,2,0,P|245:93|221:17,1,160,8|6,0:3|0:3,0:0:0:0:
160,136,35881,5,8,0:0:0:0:
160,136,35967,1,8,0:0:0:0:
160,136,36053,2,0,P|81:127|5:151,1,160,2|2,3:2|0:3,0:0:0:0:
236,172,36570,2,0,P|283:108|300:30,1,160,2|2,3:2|0:3,0:0:0:0:
138,242,37087,1,2,3:2:0:0:
138,242,37433,6,0,B|260:227|292:311|400:287,1,240,10|0,0:3|0:0,0:0:0:0:
512,224,38123,6,0,P|460:272|504:368,1,170.000003242493,2|0,3:2|0:0,0:0:0:0:
486,358,38640,6,0,P|444:215|472:127,1,239.999992675781,0|0,3:2|0:0,0:0:0:0:
512,68,39156,5,0,3:2:0:0:
512,68,40019,5,0,0:0:0:0:
466,8,40191,1,2,3:2:0:0:
512,68,40364,2,0,P|475:81|422:67,1,71.9999978027344,2|8,0:3|0:1,0:0:0:0:
257,21,40708,2,0,P|328:36|339:113,1,143.999995605469,2|0,3:2|3:2,0:0:0:0:
379,223,41226,2,0,B|472:208|467:269|537:268,2,143.999995605469,0|2|2,1:2|0:3|0:3,0:0:0:0:
298,252,42087,1,8,0:1:0:0:
167,168,42260,6,0,P|79:148|23:179,1,143.999995605469,2|8,3:2|0:1,0:0:0:0:
203,321,42777,2,0,P|256:246|317:265,1,143.999995605469,2|0,3:2|3:2,0:0:0:0:
352,349,43295,2,0,P|316:333|280:337,1,71.9999978027344,0|0,1:2|0:0,0:0:0:0:
137,247,43639,2,0,P|85:263|-17:297,1,143.999995605469,2|2,0:3|0:3,0:0:0:0:
0,292,44156,1,8,0:1:0:0:
144,100,44329,6,0,L|223:112,1,71.9999978027344,2|2,3:2|0:3,0:0:0:0:
186,30,44674,1,8,0:1:0:0:
22,171,44846,6,0,P|-6:123|34:31,1,143.999995605469,2|2,3:2|3:2,0:0:0:0:
105,177,45363,2,0,P|144:120|214:111,1,143.999995605469,2|2,1:2|0:3,0:0:0:0:
317,67,45881,2,0,P|333:23|314:-24,2,71.9999978027344,2|2|8,3:2|0:3|0:1,0:0:0:0:
192,192,46398,6,0,P|168:268|209:325,1,143.999995605469,2|8,3:2|0:1,0:0:0:0:
116,380,46915,2,0,P|80:316|-8:328,1,143.999995605469,0|0,3:2|3:2,0:0:0:0:
44,216,47433,2,0,P|80:208|104:168,1,71.9999978027344,0|0,1:2|0:0,0:0:0:0:
28,127,47777,1,2,0:3:0:0:
136,108,47950,2,0,P|208:120|288:140,1,143.999995605469,0|8,3:2|0:1,0:0:0:0:
384,84,48467,6,0,P|426:60|480:48,1,71.9999978027344,2|2,3:2|0:3,0:0:0:0:
364,8,48812,1,8,0:1:0:0:
276,136,48984,2,0,P|260:192|292:276,1,143.999995605469,2|0,3:2|3:2,0:0:0:0:
393,338,49502,2,0,P|409:298|388:259,1,71.9999978027344,0|0,1:2|0:0,0:0:0:0:
182,134,49847,6,0,P|104:106|-19:71,1,191.999994140625,2|2,0:3|0:3,0:0:0:0:
0,76,50537,5,2,3:2:0:0:
1,77,50709,2,0,P|-13:45|-2:12,1,71.9999978027344,2|8,0:3|0:1,0:0:0:0:
114,91,51053,2,0,P|66:143|74:235,1,143.999995605469,0|0,3:2|3:2,0:0:0:0:
146,318,51571,2,0,P|125:289|90:286,1,71.9999978027344,0|0,1:2|0:0,0:0:0:0:
0,384,51915,6,0,P|20:355|55:352,1,71.9999978027344,2|0,0:3|3:2,0:0:0:0:
261,262,52260,2,0,P|240:233|205:230,1,71.9999978027344,2|8,0:3|0:1,0:0:0:0:
397,369,52605,6,0,P|435:368|466:349,1,71.9999978027344,2|2,3:2|0:3,0:0:0:0:
407,284,52950,1,8,0:1:0:0:
157,169,53122,6,0,P|140:100|155:14,1,143.999995605469,2|2,3:2|3:2,0:0:0:0:
414,0,53640,2,0,P|431:69|416:155,1,143.999995605469,0|2,1:2|0:3,0:0:0:0:
369,214,54156,5,0,3:2:0:0:
369,214,54243,1,8,0:1:0:0:
369,214,54329,1,2,0:3:0:0:
212,56,54674,1,0,3:2:0:0:
212,56,55019,6,0,B|163:110|98:116|151:141|128:88|115:160|115:160|91:196,1,167.999994873047,2|0,0:0|0:0,0:0:0:0:
68,48,55364,6,0,B|138:129|234:138|156:174|189:96|209:202|209:202|227:232,1,251.999992309571,2|0,0:0|0:0,0:0:0:0:
104,178,55709,6,0,P|184:157|323:121,2,191.999994140625,2|2|2,3:2|0:0|0:0,0:0:0:0:
0,302,56570,5,2,0:0:0:0:
0,302,56656,1,2,0:0:0:0:
0,302,56744,2,0,P|-15:216|22:138,1,176.000005371094,6|0,3:2|0:0,0:0:0:0:
121,335,57261,2,0,P|81:271|109:171,1,176.000005371094,0|0,3:2|3:2,0:0:0:0:
353,59,57778,6,0,P|412:63|526:84,1,155.999992858887,2|0,1:2|0:0,0:0:0:0:
512,62,58123,2,0,P|435:69|405:147,1,155.999992858887,8|0,0:3|0:0,0:0:0:0:
443,198,58467,2,0,P|477:207|512:217,1,71.9999978027344,4|2,0:3|0:3,0:0:0:0:
216,359,58813,6,0,B|252:387|308:371|332:279|228:207|140:279|176:319|108:354,1,311.999985717774,2|2,3:2|3:3,0:0:0:0:
4,300,59502,2,0,P|-4:276|12:244,1,44.0000013427735,2|0,3:3|0:0,0:0:0:0:
92,192,59675,2,0,P|100:216|84:248,1,44.0000013427735,0|8,3:2|0:1,0:0:0:0:
0,126,59847,6,0,P|76:114|148:74,1,155.999992858887,2|0,1:2|0:0,0:0:0:0:
215,111,60191,2,0,P|223:55|191:23,1,95.9999970703126,8|0,0:3|0:0,0:0:0:0:
315,167,60536,2,0,P|353:140|398:151,1,95.9999970703126,6|0,0:3|0:0,0:0:0:0:
432,216,60794,1,0,3:2:0:0:
432,216,60881,6,0,P|471:218|504:258,2,71.9999978027344,2|0|2,3:2|0:0|0:3,0:0:0:0:
372,321,61398,1,2,3:2:0:0:
448,360,61571,2,0,P|409:358|376:318,1,71.9999978027344,0|8,0:0|0:1,0:0:0:0:
283,225,61915,6,0,P|207:237|135:277,1,155.999992858887,0|0,1:2|0:0,0:0:0:0:
0,318,62261,2,0,P|61:273|134:292,1,155.999992858887,10|8,0:3|0:1,0:0:0:0:
195,338,62605,2,0,P|235:354|267:350,1,71.9999978027344,6|2,0:3|0:3,0:0:0:0:
336,96,62950,6,0,P|408:53|516:77,1,176.000005371094,2|2,3:2|0:3,0:0:0:0:
445,209,63467,2,0,P|469:139|396:148,1,176.000005371094,2|2,3:3|0:3,0:0:0:0:
192,112,63984,6,0,P|181:71|174:3,1,103.999995239258,8|0,3:2|0:0,0:0:0:0:
276,204,64329,2,0,P|286:163|293:95,1,88.000002685547,8|0,0:3|0:0,0:0:0:0:
226,327,64674,2,0,P|216:289|210:228,1,71.9999978027344,6|0,0:3|0:0,0:0:0:0:
44,116,65019,6,0,B|64:192|-12:232|-88:164|-40:88|40:64|116:92,1,311.999985717774,2|2,3:2|3:2,0:0:0:0:
204,96,65708,1,2,0:3:0:0:
268,36,65881,1,0,3:2:0:0:
90,9,66053,1,0,1:2:0:0:
126,178,66225,1,0,0:0:0:0:
292,272,66398,6,0,B|330:252|377:261|371:299|404:310|445:299,1,155.999992858887,10|0,0:3|0:0,0:0:0:0:
512,333,66743,2,0,P|516:296|505:262,1,71.9999978027344,6|0,0:3|0:0,0:0:0:0:
503,90,67088,2,0,P|468:97|439:119,1,71.9999978027344,2|2,3:2|0:3,0:0:0:0:
359,192,67432,5,2,0:3:0:0:
268,137,67605,1,2,3:3:0:0:
292,33,67777,1,2,0:3:0:0:
398,23,67950,1,0,3:2:0:0:
440,120,68122,2,0,L|448:176,1,47.9999985351563,8|0,1:2|0:0,0:0:0:0:
361,303,68467,6,0,P|260:252|204:269,1,155.999992858887,10|8,0:3|0:1,0:0:0:0:
171,197,68812,2,0,P|152:219|144:265,1,71.9999978027344,6|0,0:3|0:0,0:0:0:0:
0,384,69157,6,0,B|87:374|66:250|66:250|35:74,1,311.999985717774,2|0,3:2|3:2,0:0:0:0:
20,19,69846,1,2,0:3:0:0:
117,1,70019,1,0,3:2:0:0:
242,180,70191,6,0,P|265:222|237:293,1,88.000002685547,0|0,1:2|0:0,0:0:0:0:
362,70,70536,2,0,P|314:69|266:9,1,88.000002685547,10|0,0:3|3:2,0:0:0:0:
453,230,70881,2,0,P|477:189|553:177,1,88.000002685547,6|0,0:3|0:0,0:0:0:0:
416,384,71226,5,2,3:2:0:0:
340,187,71399,1,0,0:0:0:0:
294,359,71571,1,2,0:3:0:0:
416,147,71744,1,0,3:2:0:0:
239,54,71916,1,2,0:3:0:0:
286,267,72088,1,0,3:2:0:0:
450,69,72260,6,0,L|530:81,2,60.0000022888184,8|0|0,1:2|0:0|0:0,0:0:0:0:
161,216,72605,6,0,L|115:229,1,44.0000013427735,2|0,0:3|0:0,0:0:0:0:
43,168,72778,2,0,L|0:159,1,44.0000013427735,0|0,3:2|0:0,0:0:0:0:
104,63,72950,2,0,L|121:132,1,71.9999978027344,0|0,3:2|0:0,0:0:0:0:
121,132,73295,6,0,P|208:144|294:162,1,176.000005371094,6|0,3:2|0:0,0:0:0:0:
438,355,73813,1,0,3:2:0:0:
368,304,73984,1,0,0:0:0:0:
283,327,74156,1,0,3:2:0:0:
157,248,74330,6,0,B|142:208|89:176|13:184|-43:248|-23:312|41:336|85:292,1,311.999985717774,2|2,1:2|0:0,0:0:0:0:
152,342,75019,1,4,0:3:0:0:
232,384,75191,1,2,0:3:0:0:
317,218,75364,6,0,B|381:194|345:150|434:78|538:150|514:242|458:258|422:226,1,311.999985717774,2|2,3:2|3:3,0:0:0:0:
314,121,76054,2,0,P|306:97|310:69,1,44.0000013427735,2|0,3:3|0:0,0:0:0:0:
387,9,76226,2,0,P|395:33|391:61,1,44.0000013427735
232,28,76398,6,0,P|168:29|72:45,1,155.999992858887,2|0,1:2|0:0,0:0:0:0:
1,81,76743,2,0,P|-10:39|24:-16,1,88.000002685547,8|0,0:3|3:2,0:0:0:0:
164,112,77088,2,0,P|179:152|168:193,1,88.000002685547,6|0,0:3|0:0,0:0:0:0:
89,236,77346,1,0,3:2:0:0:
93,239,77432,6,0,P|60:220|7:236,2,71.9999978027344,2|0|2,3:2|0:0|0:3,0:0:0:0:
83,367,77950,1,2,3:2:0:0:
0,356,78122,2,0,P|32:370|95:357,1,71.9999978027344,0|8,0:0|0:1,0:0:0:0:
268,211,78467,6,0,P|332:212|428:228,1,155.999992858887,0|0,1:2|0:0,0:0:0:0:
437,238,78812,2,0,P|471:307|389:351,1,155.999992858887,10|0,0:3|0:0,0:0:0:0:
358,304,79156,2,0,P|328:305|280:319,1,71.9999978027344,6|2,0:3|0:3,0:0:0:0:
405,76,79502,6,0,P|475:88|493:-24,1,176.000005371094,2|2,3:2|0:3,0:0:0:0:
476,183,80019,2,0,P|488:112|376:95,1,176.000005371094,2|2,3:3|0:3,0:0:0:0:
269,282,80536,6,0,P|280:323|287:391,1,103.999995239258,8|0,3:2|0:0,0:0:0:0:
185,190,80881,2,0,P|175:231|168:299,1,88.000002685547,8|0,0:3|0:0,0:0:0:0:
235,67,81225,2,0,P|245:105|251:166,1,71.9999978027344,6|0,0:3|0:0,0:0:0:0:
76,223,81571,6,0,B|25:212|18:264|65:301|108:296|137:267|129:213|189:188|231:225|256:281|209:312|159:309|165:250,1,311.999985717774,2|0,3:2|3:2,0:0:0:0:
136,143,82260,1,2,0:3:0:0:
34,100,82432,1,0,3:2:0:0:
0,312,82605,1,0,1:2:0:0:
76,223,82777,1,0,0:0:0:0:
201,369,82950,6,0,P|274:379|353:350,1,155.999992858887,10|0,0:3|0:0,0:0:0:0:
408,310,83295,2,0,P|444:307|497:325,1,71.9999978027344,6|0,0:3|0:0,0:0:0:0:
354,125,83640,6,0,P|340:165|297:193,1,71.9999978027344,2|2,3:2|0:3,0:0:0:0:
227,198,83984,1,2,0:3:0:0:
136,143,84157,1,2,3:3:0:0:
160,39,84329,1,2,0:3:0:0:
266,29,84502,1,0,3:2:0:0:
384,146,84674,6,0,P|409:155|445:142,1,47.9999985351563,8|0,1:2|0:0,0:0:0:0:
336,89,85019,2,0,P|315:106|308:143,1,47.9999985351563,10|0,0:3|3:2,0:0:0:0:
409,75,85364,2,0,P|404:48|375:24,1,47.9999985351563,6|0,0:3|0:0,0:0:0:0:
227,128,85709,6,0,P|219:172|234:211,1,71.9999978027344,2|0,3:2|3:2,0:0:0:0:
147,259,86743,2,0,P|181:287|222:294,1,60,0|0,1:2|3:2,0:0:0:0:
229,384,87778,2,0,P|259:373|277:350,1,48,2|0,3:2|3:2,0:0:0:0:
364,294,88813,6,0,P|381:297|418:304,1,45,0|0,3:2|0:0,0:0:0:0:
