osu file format v14

[General]
AudioFilename: audio.mp3
AudioLeadIn: 0
PreviewTime: 55019
Countdown: 0
SampleSet: Soft
StackLeniency: 0.7
Mode: 0
LetterboxInBreaks: 0
WidescreenStoryboard: 1

[Editor]
DistanceSpacing: 1.4
BeatDivisor: 6
GridSize: 4
TimelineZoom: 2.7

[Metadata]
Title:Taishou a (TV Size)
TitleUnicode:対象a (TV Size)
Artist:anNina
ArtistUnicode:anNina
Creator:Lurumic
Version:Sharpay's Hard
Source:ひぐらしのなく頃に解
Tags:jpop pop higurashi no naku koro ni when they cry ed ending anime japanese 07th expansion Annabel bermei.inazawa female vocal vocalist sharpay keevy vanya2
BeatmapID:3870393
BeatmapSetID:1759184

[Difficulty]
HPDrainRate:4
CircleSize:4
OverallDifficulty:5.5
ApproachRate:8
SliderMultiplier:3
SliderTickRate:1

[Events]
//Background and Video events
0,0,"bg.png",0,0
//Break Periods
//Storyboard Layer 0 (Background)
//Storyboard Layer 1 (Fail)
//Storyboard Layer 2 (Pass)
//Storyboard Layer 3 (Foreground)
//Storyboard Layer 4 (Overlay)
//Storyboard Sound Samples

[TimingPoints]
7088,1034.48275862069,4,2,1,40,1,0
7089,-99.9999999999999,4,2,1,40,0,0
10538,-125,4,2,1,20,0,0
11226,-125,4,2,1,40,0,0
15364,-100,4,2,1,45,0,0
18468,-250,4,2,1,45,0,0
19503,-99.9999999999999,4,2,1,50,0,0
23641,-99.9999999999999,4,2,1,50,0,0
31916,-99.9999999999999,4,2,1,60,0,0
37951,-99.9999999999999,4,2,1,60,0,0
38124,-99.9999999999999,4,2,1,60,0,0
40020,-90.9090909090909,4,2,1,60,0,0
48468,-90.9090909090909,4,2,1,65,0,0
53765,-90.9090909090909,4,2,1,65,0,0
55019,-83.3333333333333,4,2,1,65,0,0
55278,-83.3333333333333,4,2,1,5,0,0
55364,-83.3333333333333,4,2,1,65,0,0
55623,-83.3333333333333,4,2,1,5,0,0
55709,-83.3333333333333,4,2,1,65,0,0
56744,-76.9230769230769,4,2,1,75,0,0
57262,-76.9230769230769,4,2,1,75,0,0
81571,-76.9230769230769,4,2,1,75,0,0
85708,-83.3333333333333,4,2,1,60,0,0
86744,-83.3333333333333,4,2,1,50,0,0
87778,-83.3333333333333,4,2,1,40,0,0
88812,-83.3333333333333,4,2,1,30,0,0
89157,-83.3333333333333,4,2,1,30,0,0
89502,-83.3333333333333,4,2,1,30,0,0
89588,-83.3333333333333,4,2,1,5,0,0
89847,-83.3333333333333,4,2,1,5,0,0

[Colours]
Combo1 : 84,0,168
Combo2 : 255,164,164
Combo3 : 187,187,255
Combo4 : 203,151,255

[HitObjects]
100,54,7088,6,0,P|162:82|296:134,1,200,2|2,3:2|3:3,0:0:0:0:
348,98,7951,1,2,0:0:0:0:
396,154,8123,1,2,3:2:0:0:
396,154,8295,1,2,0:0:0:0:
320,271,8640,6,0,P|333:222|284:197,1,100,2|2,0:0|0:0,0:0:0:0:
238,233,9157,2,0,P|143:253|-14:292,1,250,2|2,3:2|0:3,0:0:0:0:
73,140,10537,1,8,0:3:0:0:
143,53,10882,1,0,0:0:0:0:
168,33,11054,1,2,0:0:0:0:
207,33,11226,6,0,P|260:46|288:74,1,80,2|2,3:2|0:3,0:0:0:0:
374,173,11916,2,0,P|340:162|303:152,1,40,2|0,0:3|0:0,0:0:0:0:
253,172,12261,2,0,P|236:224|258:294,1,120,2|0,3:2|0:0,0:0:0:0:
351,378,12951,1,10,0:3:0:0:
323,360,13123,1,2,0:3:0:0:
294,373,13295,1,2,3:2:0:0:
294,373,13640,6,0,P|245:362|170:349,1,120,2|0,0:3|0:0,0:0:0:0:
91,300,14330,2,0,P|77:269|92:213,1,80,0|0,1:2|0:0,0:0:0:0:
123,184,14847,1,4,0:3:0:0:
123,184,15020,1,10,0:3:0:0:
275,115,15364,6,0,L|158:89,1,100,0|2,3:2|0:3,0:0:0:0:
123,47,15882,1,2,0:3:0:0:
254,0,16226,1,2,0:3:0:0:
305,48,16399,2,0,L|405:29,1,100,2|6,0:0|0:3,0:0:0:0:
508,120,17088,1,10,0:3:0:0:
428,235,17433,6,0,L|234:188,1,200,2|2,3:2|0:3,0:0:0:0:
114,113,18468,2,0,L|8:137,1,100,2|0,0:0|0:0,0:0:0:0:
29,207,19502,5,0,3:2:0:0:
111,316,19847,2,0,P|133:266|105:223,1,100,2|2,0:3|0:3,0:0:0:0:
6,140,20537,1,2,3:2:0:0:
84,18,20881,2,0,P|27:27|-4:65,1,100,2|2,0:3|0:3,0:0:0:0:
84,161,21571,6,0,L|234:126,1,150,2|8,3:2|0:0,0:0:0:0:
263,98,22260,2,0,L|324:112,1,50,2|0,0:3|3:2,0:0:0:0:
365,154,22606,1,0,1:2:0:0:
364,294,22951,2,0,B|304:276|304:276|264:233|293:189,1,150,0|0,3:2|0:0,0:0:0:0:
365,154,23640,6,0,P|410:144|472:134,1,100,0|2,3:2|0:3,0:0:0:0:
443,62,24157,2,0,P|393:70|344:80,1,100,0|2,3:2|0:3,0:0:0:0:
271,47,24674,2,0,L|217:32,1,50,0|0,1:2|0:0,0:0:0:0:
144,68,25020,1,8,0:3:0:0:
9,2,25364,1,10,0:0:0:0:
32,28,25537,1,2,0:3:0:0:
20,61,25709,6,0,P|33:110|40:161,1,100,2|2,3:2|0:3,0:0:0:0:
96,208,26226,2,0,P|83:257|80:272,1,50,2|0,0:0|3:2,0:0:0:0:
124,325,26571,1,2,0:3:0:0:
124,325,26743,2,0,B|176:318|153:304|220:295,2,100,2|8|6,1:2|0:3|0:3,0:0:0:0:
16,235,27778,1,0,3:2:0:0:
16,235,27951,1,0,0:0:0:0:
16,235,28122,6,0,L|5:181,1,50,2|0,0:0|0:0,0:0:0:0:
52,126,28467,2,0,P|97:129|131:80,2,100,2|2|10,0:0|1:2|0:3,0:0:0:0:
146,9,29502,1,10,0:0:0:0:
146,9,29675,1,2,0:3:0:0:
215,37,29847,5,2,3:2:0:0:
314,149,30192,2,0,L|290:267,1,100,2|2,0:3|0:3,0:0:0:0:
200,365,30882,1,2,1:2:0:0:
112,242,31225,2,0,L|15:222,1,100,0|0,3:2|3:2,0:0:0:0:
82,90,31916,1,0,3:2:0:0:
82,90,32261,5,2,0:3:0:0:
133,35,32433,2,0,P|183:27|235:23,1,100,0|2,3:2|0:0,0:0:0:0:
281,80,32950,2,0,L|333:95,1,50,2|0,1:2|0:0,0:0:0:0:
383,144,33295,2,0,L|431:130,1,50,10|2,0:3|0:3,0:0:0:0:
493,181,33640,1,2,0:3:0:0:
493,181,33985,6,0,P|467:236|491:286,1,100,2|2,3:2|3:3,0:0:0:0:
375,381,34675,1,2,0:3:0:0:
375,381,34847,1,0,0:0:0:0:
321,328,35019,2,0,P|241:316|201:310,1,100,0|8,1:2|0:3,0:0:0:0:
89,379,35709,1,6,0:3:0:0:
89,379,35882,1,8,0:0:0:0:
27,337,36054,6,0,P|2:280|17:231,1,100,2|2,3:2|0:3,0:0:0:0:
64,193,36571,2,0,L|179:169,1,100,2|2,3:2|0:3,0:0:0:0:
222,127,37088,2,0,P|222:103|231:74,1,50,2|0,3:2|0:0,0:0:0:0:
268,14,37433,6,0,P|296:80|367:94,1,150,10|0,0:3|0:0,0:0:0:0:
441,104,38123,2,0,P|424:176|417:213,1,100,2|0,3:2|0:0,0:0:0:0:
378,264,38640,2,0,P|386:300|390:318,2,50,0|0|0,3:2|0:0|0:0,0:0:0:0:
317,219,39157,1,0,3:2:0:0:
317,219,40019,5,0,0:0:0:0:
264,162,40191,2,0,P|270:135|273:107,2,55.0000016784668,2|2|8,3:2|0:3|0:1,0:0:0:0:
209,217,40709,2,0,B|144:233|175:256|101:276,1,110.000003356934,2|0,3:2|3:2,0:0:0:0:
42,247,41226,2,0,P|26:209|28:179,1,55.0000016784668,0|0,1:2|0:0,0:0:0:0:
12,119,41571,2,0,P|30:82|55:64,1,55.0000016784668,2|0,0:3|0:0,0:0:0:0:
92,16,41916,2,0,P|132:6|161:14,1,55.0000016784668,2|8,0:3|0:1,0:0:0:0:
202,60,42261,6,0,P|251:98|300:91,1,110.000003356934,2|8,3:2|0:1,0:0:0:0:
371,110,42778,2,0,P|313:133|295:179,1,110.000003356934,2|0,3:2|3:2,0:0:0:0:
323,246,43295,2,0,L|388:263,1,55.0000016784668,0|0,1:2|0:0,0:0:0:0:
443,297,43640,2,0,P|366:319|266:349,1,165.000005035401,2|8,0:3|0:1,0:0:0:0:
213,374,44330,1,2,3:2:0:0:
213,374,44502,2,0,P|189:364|159:357,1,55.0000016784668,2|8,0:3|0:1,0:0:0:0:
86,379,44847,6,0,P|70:358|89:262,1,110.000003356934,2|2,3:2|3:2,0:0:0:0:
121,217,45364,2,0,L|181:231,1,55.0000016784668,2|0,1:2|0:0,0:0:0:0:
247,204,45709,2,0,L|300:191,1,55.0000016784668,2|2,0:3|3:2,0:0:0:0:
351,133,46054,1,2,0:3:0:0:
351,133,46399,5,2,3:2:0:0:
297,77,46571,2,0,P|268:72|231:63,1,55.0000016784668,0|8,0:0|0:1,0:0:0:0:
184,15,46916,2,0,P|153:22|66:40,1,110.000003356934,0|0,3:2|3:2,0:0:0:0:
16,95,47433,1,0,1:2:0:0:
16,95,47606,1,0,0:0:0:0:
0,177,47778,1,2,0:3:0:0:
28,355,48123,1,0,0:0:0:0:
92,305,48295,5,8,0:1:0:0:
92,305,48468,2,0,P|143:298|188:357,1,110.000003356934,2|8,3:2|0:1,0:0:0:0:
248,377,48985,2,0,P|216:336|245:267,1,110.000003356934,2|0,3:2|3:2,0:0:0:0:
304,267,49502,2,0,P|336:279|367:289,1,55.0000016784668,0|0,1:2|0:0,0:0:0:0:
432,276,49847,6,0,P|420:242|389:221,1,55.0000016784668,2|0,0:3|0:0,0:0:0:0:
403,152,50191,2,0,P|372:142|333:149,1,55.0000016784668,2|0,0:3|0:0,0:0:0:0:
290,94,50537,1,2,3:2:0:0:
290,94,50709,2,0,P|263:111|243:145,1,55.0000016784668,2|8,0:3|0:1,0:0:0:0:
200,189,51054,6,0,P|128:171|89:162,1,110.000003356934,0|0,3:2|3:2,0:0:0:0:
23,130,51571,2,0,P|10:97|11:71,1,55.0000016784668,0|0,1:2|0:0,0:0:0:0:
63,22,51916,2,0,P|91:32|119:40,1,55.0000016784668,2|0,0:3|3:2,0:0:0:0:
174,88,52260,2,0,P|202:78|230:70,1,55.0000016784668,2|8,0:3|0:1,0:0:0:0:
292,29,52606,1,2,3:2:0:0:
292,29,52778,2,0,P|320:39|348:47,1,55.0000016784668,2|8,0:3|0:1,0:0:0:0:
421,46,53123,6,0,P|378:77|381:146,1,110.000003356934,2|2,3:2|3:2,0:0:0:0:
433,178,53640,2,0,L|490:165,1,55.0000016784668,0|0,1:2|0:0,0:0:0:0:
504,240,53984,2,0,L|450:252,1,55.0000016784668,2|0,0:3|3:2,0:0:0:0:
395,306,54329,2,0,L|341:293,1,55.0000016784668,2|0,0:3|0:0,0:0:0:0:
287,238,54675,1,0,3:2:0:0:
287,238,55019,6,0,P|281:214|252:109,2,119.999996337891,2|2|2,0:0|0:0|3:2,0:0:0:0:
380,377,56054,1,2,0:0:0:0:
380,377,56399,1,2,0:0:0:0:
80,163,56744,6,0,L|235:132,1,129.999994049073,6|0,3:2|0:0,0:0:0:0:
284,88,57261,2,0,L|411:113,1,129.999994049073,0|0,3:2|3:2,0:0:0:0:
480,173,57777,2,0,P|486:212|470:256,1,64.9999970245363,2|0,1:2|0:0,0:0:0:0:
505,324,58122,2,0,P|478:353|434:369,1,64.9999970245363,8|0,0:3|0:0,0:0:0:0:
367,382,58468,1,4,0:3:0:0:
367,382,58812,6,0,B|291:361|336:337|226:321,1,129.999994049073,2|0,3:2|0:0,0:0:0:0:
275,237,59329,1,2,3:3:0:0:
190,265,59501,2,0,L|122:280,1,64.9999970245363,2|0,3:3|3:2,0:0:0:0:
42,242,59847,1,2,1:2:0:0:
42,242,60191,6,0,P|35:206|22:167,1,64.9999970245363,8|0,0:3|0:0,0:0:0:0:
108,139,60536,2,0,P|111:168|124:201,1,64.9999970245363,6|0,0:3|0:0,0:0:0:0:
190,265,60881,6,0,P|239:248|320:234,1,129.999994049073,2|2,3:2|0:3,0:0:0:0:
362,312,61399,2,0,P|425:325|486:348,1,129.999994049073,2|8,3:2|0:1,0:0:0:0:
500,248,61916,6,0,P|490:212|481:172,1,64.9999970245363,0|0,1:2|0:0,0:0:0:0:
415,124,62260,2,0,P|423:92|431:61,1,64.9999970245363,10|0,0:3|0:0,0:0:0:0:
344,31,62605,2,0,P|336:62|327:93,1,64.9999970245363,6|2,0:3|0:3,0:0:0:0:
261,156,62950,2,0,P|206:147|158:217,1,129.999994049073,2|2,3:2|0:3,0:0:0:0:
107,272,63468,1,2,3:3:0:0:
107,272,63813,5,2,0:3:0:0:
95,359,63984,2,0,P|128:351|169:341,1,64.9999970245363,8|0,3:2|0:0,0:0:0:0:
223,266,64329,2,0,P|256:274|297:284,1,64.9999970245363,8|0,0:3|0:0,0:0:0:0:
347,355,64675,1,6,0:3:0:0:
347,355,64847,1,0,0:0:0:0:
419,300,65019,6,0,B|395:225|452:245|415:158,1,129.999994049073,2|0,3:2|0:0,0:0:0:0:
498,124,65537,2,0,B|425:94|477:63|386:35,1,129.999994049073,2|0,3:2|3:2,0:0:0:0:
317,8,66054,1,0,1:2:0:0:
317,8,66398,6,0,P|283:16|244:22,1,64.9999970245363,10|0,0:3|0:0,0:0:0:0:
195,91,66743,2,0,P|163:83|131:78,1,64.9999970245363,6|0,0:3|0:0,0:0:0:0:
71,9,67088,2,0,B|77:73|77:73|75:78|75:78|83:149,1,129.999994049073,2|2,3:2|0:3,0:0:0:0:
34,216,67606,2,0,B|90:138|166:177,1,129.999994049073,2|0,3:3|3:2,0:0:0:0:
216,224,68122,2,0,L|282:210,1,64.9999970245363,8|0,1:2|0:0,0:0:0:0:
330,134,68467,2,0,L|266:120,1,64.9999970245363,10|0,0:3|0:0,0:0:0:0:
195,63,68813,1,6,0:3:0:0:
195,63,69157,6,0,P|204:104|222:220,1,129.999994049073,2|0,3:2|0:0,0:0:0:0:
291,254,69675,1,0,3:2:0:0:
291,254,69847,2,0,P|282:295|273:347,1,64.9999970245363,2|0,0:3|3:2,0:0:0:0:
365,343,70191,2,0,P|371:311|378:279,1,64.9999970245363,0|0,1:2|0:0,0:0:0:0:
454,229,70537,1,10,0:3:0:0:
386,167,70709,1,0,3:2:0:0:
465,121,70882,1,6,0:3:0:0:
310,25,71226,6,0,P|256:13|237:7,1,64.9999970245363,2|0,3:2|0:0,0:0:0:0:
186,78,71571,2,0,P|217:86|249:92,1,64.9999970245363,2|0,0:3|3:2,0:0:0:0:
191,163,71916,2,0,P|159:156|127:148,1,64.9999970245363,2|0,0:3|3:2,0:0:0:0:
60,87,72261,1,8,1:2:0:0:
104,263,72606,5,2,0:3:0:0:
91,352,72778,1,0,3:2:0:0:
0,338,72951,1,0,3:2:0:0:
16,248,73123,1,0,0:0:0:0:
16,248,73295,6,0,P|76:232|171:217,1,129.999994049073,6|0,3:2|0:0,0:0:0:0:
216,274,73812,2,0,P|276:290|371:305,1,129.999994049073,0|0,3:2|3:2,0:0:0:0:
428,268,74329,2,0,P|434:229|418:185,1,64.9999970245363,2|0,1:2|0:0,0:0:0:0:
473,124,74674,2,0,P|446:95|402:79,1,64.9999970245363,0|2,0:0|0:0,0:0:0:0:
361,23,75019,1,4,0:3:0:0:
361,23,75364,6,0,B|309:29|293:54|306:60|276:85|224:78,1,129.999994049073,2|0,3:2|0:0,0:0:0:0:
182,22,75881,1,2,3:3:0:0:
182,22,76053,2,0,L|114:37,1,64.9999970245363,2|0,3:3|0:0,0:0:0:0:
41,83,76398,1,2,1:2:0:0:
41,83,76743,6,0,P|34:119|21:158,1,64.9999970245363,8|0,0:3|3:2,0:0:0:0:
117,178,77088,2,0,P|120:145|133:115,1,64.9999970245363,6|0,0:3|0:0,0:0:0:0:
27,233,77433,2,0,P|39:262|43:295,1,64.9999970245363,2|0,3:2|0:0,0:0:0:0:
0,384,77778,1,2,0:3:0:0:
0,384,77950,2,0,P|41:338|151:368,1,129.999994049073,2|8,3:2|0:1,0:0:0:0:
185,379,78467,6,0,P|215:371|247:362,1,64.9999970245363,0|0,1:2|0:0,0:0:0:0:
285,278,78812,2,0,P|317:286|348:294,1,64.9999970245363,10|0,0:3|0:0,0:0:0:0:
371,205,79157,2,0,P|340:197|309:188,1,64.9999970245363,6|2,0:3|0:3,0:0:0:0:
217,174,79502,2,0,B|187:148|186:105|209:114|213:78|178:36,1,129.999994049073,2|2,3:2|0:3,0:0:0:0:
270,7,80019,1,2,3:3:0:0:
270,7,80364,5,2,0:3:0:0:
342,61,80536,2,0,P|334:92|326:124,1,64.9999970245363,8|0,3:2|0:0,0:0:0:0:
245,167,80881,2,0,P|252:198|260:230,1,64.9999970245363,8|0,0:3|0:0,0:0:0:0:
310,306,81226,1,6,0:3:0:0:
249,373,81398,1,0,0:0:0:0:
165,335,81571,6,0,B|131:315|101:318|101:318|82:302|82:302|33:291,1,129.999994049073,2|0,3:2|0:0,0:0:0:0:
7,211,82088,2,0,P|11:145|77:110,1,129.999994049073,0|0,3:2|3:2,0:0:0:0:
141,67,82605,1,0,1:2:0:0:
141,67,82950,6,0,P|175:59|214:53,1,64.9999970245363,10|0,0:3|0:0,0:0:0:0:
285,97,83295,2,0,P|319:105|358:111,1,64.9999970245363,6|0,0:3|0:0,0:0:0:0:
433,75,83640,2,0,P|397:100|393:197,1,129.999994049073,2|2,3:2|0:3,0:0:0:0:
427,261,84157,2,0,P|406:222|310:206,1,129.999994049073,2|0,3:3|3:2,0:0:0:0:
266,266,84674,2,0,P|229:273|202:279,1,64.9999970245363,8|0,1:2|0:0,0:0:0:0:
131,337,85019,6,0,P|94:330|67:323,1,64.9999970245363,10|0,0:3|3:2,0:0:0:0:
8,254,85364,1,6,0:3:0:0:
163,162,85708,5,2,3:2:0:0:
256,192,85882,12,0,88813,3:2:0:0:
