osu file format v14

[General]
AudioFilename: audio.mp3
AudioLeadIn: 0
PreviewTime: 55019
Countdown: 0
SampleSet: Soft
StackLeniency: 0.7
Mode: 0
LetterboxInBreaks: 0
WidescreenStoryboard: 1

[Editor]
Bookmarks: 54001,59518,80552,84690
DistanceSpacing: 1
BeatDivisor: 6
GridSize: 4
TimelineZoom: 1.3

[Metadata]
Title:Taishou a (TV Size)
TitleUnicode:対象a (TV Size)
Artist:anNina
ArtistUnicode:anNina
Creator:Lurumic
Version:Normal
Source:ひぐらしのなく頃に解
Tags:jpop pop higurashi no naku koro ni when they cry ed ending anime japanese 07th expansion Annabel bermei.inazawa female vocal vocalist sharpay keevy vanya2
BeatmapID:3601983
BeatmapSetID:1759184

[Difficulty]
HPDrainRate:3.5
CircleSize:3.2
OverallDifficulty:3.5
ApproachRate:5
SliderMultiplier:3
SliderTickRate:1

[Events]
//Background and Video events
0,0,"bg.png",0,0
//Break Periods
//Storyboard Layer 0 (Background)
//Storyboard Layer 1 (Fail)
//Storyboard Layer 2 (Pass)
//Storyboard Layer 3 (Foreground)
//Storyboard Layer 4 (Overlay)
//Storyboard Sound Samples

[TimingPoints]
7088,1034.48275862069,4,2,1,40,1,0
7088,-100,4,2,1,40,0,0
10537,-100,4,2,1,20,0,0
11226,-100,4,2,1,40,0,0
15364,-100,4,2,1,45,0,0
19502,-100,4,2,1,50,0,0
23641,-100,4,2,1,50,0,0
31916,-100,4,2,1,60,0,0
37951,-100,4,2,1,60,0,0
38124,-100,4,2,1,60,0,0
48468,-100,4,2,1,65,0,0
53765,-100,4,2,1,65,0,0
56743,-100,4,2,1,75,0,0
56744,-95.2380952380952,4,2,1,75,0,0
57262,-95.2380952380952,4,2,1,75,0,0
81571,-95.2380952380952,4,2,1,75,0,0
85708,-100,4,2,1,60,0,0
86743,-100,4,2,1,50,0,0
87777,-100,4,2,1,40,0,0
88812,-100,4,2,1,30,0,0
89157,-100,4,2,1,20,0,0
89502,-100,4,2,1,10,0,0
89847,-100,4,2,1,5,0,0

[Colours]
Combo1 : 84,0,168
Combo2 : 255,164,164
Combo3 : 187,187,255
Combo4 : 203,151,255

[HitObjects]
8,69,7088,6,0,B|120:42|87:136|198:110,1,200,2|2,3:2|3:3,0:0:0:0:
265,41,8123,1,2,3:2:0:0:
265,41,8294,1,2,0:0:0:0:
353,88,8640,2,0,P|361:128|380:228,1,100,2|2,0:0|0:0,0:0:0:0:
354,233,9157,2,0,B|297:247|218:200|286:108|214:88|139:113,1,250,2|2,3:2|0:3,0:0:0:0:
0,258,11053,5,2,0:0:0:0:
0,258,11225,2,0,L|8:357,1,100,2|2,3:2|0:3,0:0:0:0:
105,383,11915,1,2,0:3:0:0:
180,318,12261,2,0,P|271:287|384:306,1,200,2|10,3:2|0:3,0:0:0:0:
460,348,13294,1,2,3:2:0:0:
484,48,14329,2,0,P|428:40|368:52,1,100,0|2,1:2|0:3,0:0:0:0:
348,80,14846,2,0,P|325:88|285:83,1,50,4|10,0:3|0:3,0:0:0:0:
206,50,15364,6,0,P|138:38|44:75,2,150,0|2|0,3:2|0:3|0:0,0:0:0:0:
299,90,16743,1,6,0:3:0:0:
396,116,17087,1,10,0:3:0:0:
468,188,17433,2,0,P|496:240|428:364,1,200,2|2,3:2|0:3,0:0:0:0:
348,320,18467,2,0,P|294:330|236:310,1,100,2|0,0:0|3:2,0:0:0:0:
108,180,19501,5,0,3:2:0:0:
17,221,19846,2,0,P|1:249|16:329,1,100,2|2,0:3|0:3,0:0:0:0:
93,363,20536,1,2,3:2:0:0:
185,326,20881,2,0,P|201:297|185:217,1,100,2|2,0:3|0:3,0:0:0:0:
128,158,21570,5,2,3:2:0:0:
148,60,21915,1,2,0:3:0:0:
343,19,22606,1,0,1:2:0:0:
419,83,22950,1,0,3:2:0:0:
475,274,23640,6,0,P|476:338|369:345,2,150,0|0|0,3:2|3:2|0:0,0:0:0:0:
391,219,25019,1,8,0:3:0:0:
288,224,25363,1,10,0:0:0:0:
225,302,25708,2,0,P|181:314|115:332,1,100,2|2,3:2|0:3,0:0:0:0:
98,365,26226,2,0,P|52:369|2:281,1,150,2|2,0:0|1:2,0:0:0:0:
36,197,27087,1,8,0:3:0:0:
212,104,27777,5,0,3:2:0:0:
287,38,28123,2,0,P|343:22|391:50,1,100,2|2,0:0|0:0,0:0:0:0:
452,107,28812,1,2,1:2:0:0:
376,172,29156,2,0,P|320:188|272:160,1,100,10|10,0:3|0:0,0:0:0:0:
222,251,29847,2,0,P|238:307|222:362,2,100,2|2|0,3:2|0:3|0:0,0:0:0:0:
126,220,30881,1,2,1:2:0:0:
28,239,31225,1,0,3:2:0:0:
79,45,31915,6,0,L|191:48,1,100,0|2,3:2|0:3,0:0:0:0:
208,88,32433,2,0,P|282:115|346:91,1,150,0|2,3:2|1:2,0:0:0:0:
406,12,33295,1,10,0:3:0:0:
483,75,33639,1,2,0:3:0:0:
427,157,33984,2,0,P|472:176|501:215,2,100,2|2|2,3:2|3:3|0:3,0:0:0:0:
327,182,35019,1,0,1:2:0:0:
319,271,35363,2,0,P|348:310|393:330,1,100,8|6,0:3|0:3,0:0:0:0:
493,317,36053,5,2,3:2:0:0:
426,182,36570,1,2,3:2:0:0:
276,171,37087,1,2,3:2:0:0:
193,227,37432,2,0,P|185:281|219:339,1,100,10|2,0:3|0:0,0:0:0:0:
295,357,38122,2,0,P|363:377|455:357,2,150,2|0|0,3:2|3:2|3:2,0:0:0:0:
31,130,40191,6,0,P|11:97|96:35,2,150,2|2|0,3:2|3:2|1:2,0:0:0:0:
112,188,41570,1,2,0:3:0:0:
198,139,41915,1,2,0:3:0:0:
281,194,42261,2,0,L|394:210,1,100,2|8,3:2|0:1,0:0:0:0:
427,221,42777,2,0,P|481:212|493:123,1,150,2|0,3:2|1:2,0:0:0:0:
435,49,43639,2,0,P|391:33|319:59,1,100,2|2,0:3|0:3,0:0:0:0:
260,104,44329,6,0,P|220:72|144:80,1,100,2|8,3:2|0:1,0:0:0:0:
124,76,44846,1,2,3:2:0:0:
12,176,45363,2,0,P|-8:220|0:269,1,100,2|2,1:2|0:3,0:0:0:0:
24,312,45882,1,2,3:2:0:0:
164,368,46398,6,0,P|232:352|339:356,1,150,2|0,3:2|3:2,0:0:0:0:
404,236,47432,2,0,P|416:188|396:124,1,100,0|2,1:2|0:3,0:0:0:0:
377,97,47950,2,0,L|265:105,1,100,0|8,3:2|0:1,0:0:0:0:
233,128,48467,1,2,3:2:0:0:
160,196,48813,1,8,0:1:0:0:
160,196,48984,2,0,P|92:220|12:172,1,150,2|0,3:2|1:2,0:0:0:0:
32,88,49846,1,2,0:3:0:0:
112,28,50191,1,2,0:3:0:0:
196,84,50536,6,0,B|255:168|196:248|136:212|76:252|72:304|116:368,1,300,2|0,3:2|1:2,0:0:0:0:
180,376,51915,1,2,0:3:0:0:
270,334,52260,1,2,0:3:0:0:
369,349,52606,2,0,P|415:370|423:284,1,150,2|2,3:2|3:2,0:0:0:0:
371,164,53639,5,0,1:2:0:0:
440,91,53985,2,0,P|456:45|433:-9,2,100,2|2|0,0:3|0:3|3:2,0:0:0:0:
341,72,55019,1,2,0:0:0:0:
243,55,55363,1,2,0:0:0:0:
145,37,55708,1,2,3:2:0:0:
47,13,56053,2,0,P|31:78|54:116,1,100,2|2,0:0|0:0,0:0:0:0:
28,206,56744,6,0,P|33:274|36:329,1,104.999996795654,6|0,3:2|0:0,0:0:0:0:
38,363,57261,1,0,3:2:0:0:
170,271,57778,1,2,1:2:0:0:
256,331,58123,2,0,P|308:338|373:348,1,104.999996795654,8|4,0:3|0:3,0:0:0:0:
434,270,58812,6,0,P|456:235|439:166,1,104.999996795654,2|2,3:2|0:3,0:0:0:0:
403,144,59329,2,0,P|372:154|341:144,1,52.4999983978272,2|2,3:3|3:3,0:0:0:0:
266,90,59847,1,2,1:2:0:0:
170,46,60192,1,8,0:3:0:0:
68,74,60537,1,6,0:3:0:0:
10,162,60881,6,0,P|-7:222|15:281,1,104.999996795654,2|2,3:2|0:3,0:0:0:0:
37,301,61398,2,0,L|139:275,1,104.999996795654,2|8,3:2|0:1,0:0:0:0:
190,281,61916,1,0,1:2:0:0:
265,355,62261,2,0,P|314:370|374:346,1,104.999996795654,10|6,0:3|0:3,0:0:0:0:
358,249,62950,2,0,P|429:266|467:357,2,157.499995193482,2|2|8,3:2|3:3|3:2,0:0:0:0:
254,264,64330,1,8,0:3:0:0:
211,171,64675,1,6,0:3:0:0:
120,118,65019,6,0,P|61:105|10:137,1,104.999996795654,2|2,3:2|0:3,0:0:0:0:
2,172,65537,2,0,P|22:220|42:281,1,104.999996795654,2|0,3:2|3:2,0:0:0:0:
62,317,66054,1,0,1:2:0:0:
153,265,66399,2,0,P|201:249|272:275,1,104.999996795654,10|6,0:3|0:3,0:0:0:0:
332,328,67088,2,0,P|436:344|428:168,1,314.999990386963,2|8,3:2|1:2,0:0:0:0:
352,131,68468,5,10,0:3:0:0:
248,143,68813,1,6,0:3:0:0:
172,215,69157,2,0,P|104:227|37:87,1,209.999993591309,2|2,3:2|0:3,0:0:0:0:
53,24,70192,1,0,1:2:0:0:
158,25,70537,2,0,P|179:79|167:133,1,104.999996795654,10|6,0:3|0:3,0:0:0:0:
67,137,71226,5,2,3:2:0:0:
5,216,71571,1,2,0:3:0:0:
17,320,71916,1,2,0:3:0:0:
116,354,72261,1,8,1:2:0:0:
216,324,72606,2,0,P|254:303|266:231,1,104.999996795654,2|0,0:3|3:2,0:0:0:0:
196,171,73295,6,0,B|230:159|283:55|221:38|238:111|294:161|326:161,1,209.999993591309,6|0,3:2|0:0,0:0:0:0:
340,263,74330,2,0,L|448:280,1,104.999996795654,2|8,1:2|0:3,0:0:0:0:
489,305,74846,2,0,P|509:290|509:212,1,104.999996795654,2|2,0:0|0:3,0:0:0:0:
482,172,75363,2,0,P|403:130|284:118,1,209.999993591309,2|2,3:2|3:3,0:0:0:0:
180,122,76398,1,2,1:2:0:0:
91,178,76744,2,0,P|69:126|86:69,1,104.999996795654,8|6,0:3|0:3,0:0:0:0:
180,122,77432,6,0,L|198:228,1,104.999996795654,2|2,3:2|0:3,0:0:0:0:
207,277,77951,1,2,3:2:0:0:
349,205,78468,1,0,1:2:0:0:
453,217,78813,1,10,0:3:0:0:
487,313,79157,1,6,0:3:0:0:
397,367,79502,6,0,P|338:343|179:309,1,209.999993591309,2|2,3:2|0:3,0:0:0:0:
90,312,80537,1,8,3:2:0:0:
26,227,80881,2,0,P|1:193|14:115,1,104.999996795654,8|6,0:3|0:3,0:0:0:0:
64,46,81570,6,0,B|158:16|190:93|271:61,1,209.999993591309,2|2,3:2|0:3,0:0:0:0:
366,23,82606,1,0,1:2:0:0:
455,84,82950,2,0,P|473:117|459:189,1,104.999996795654,10|6,0:3|0:3,0:0:0:0:
360,162,83639,6,0,B|296:130|244:193|291:216|243:259|188:257,1,209.999993591309,2|2,3:2|0:3,0:0:0:0:
93,252,84675,1,8,1:2:0:0:
36,163,85020,1,10,0:3:0:0:
79,67,85364,1,6,0:3:0:0:
178,30,85708,5,2,3:2:0:0:
458,136,86743,1,0,1:2:0:0:
203,295,87777,1,2,3:2:0:0:
492,374,88813,1,0,3:2:0:0:
