osu file format v14

[General]
AudioFilename: audio.mp3
AudioLeadIn: 0
PreviewTime: 207314
Countdown: 0
SampleSet: Soft
StackLeniency: 0.7
Mode: 0
LetterboxInBreaks: 0
WidescreenStoryboard: 1

[Editor]
Bookmarks: 125159,249314
DistanceSpacing: 0.7
BeatDivisor: 6
GridSize: 4
TimelineZoom: 1.5

[Metadata]
Title:Taishou a
TitleUnicode:対象a
Artist:anNina
ArtistUnicode:anNina
Creator:Agatsu
Version:Twilight
Source:ひぐらしのなく頃に解
Tags:gibune annabel bermei.inazawa higurashi no naku koro ni kai when they cry ending 07th expansion japanese pop
BeatmapID:2952120
BeatmapSetID:1295653

[Difficulty]
HPDrainRate:7
CircleSize:4.2
OverallDifficulty:8
ApproachRate:8
SliderMultiplier:1.13
SliderTickRate:1

[Events]
//Background and Video events
0,0,"81206135_p0.jpg",0,0
//Break Periods
2,108807,124409
//Storyboard Layer 0 (Background)
//Storyboard Layer 1 (Fail)
//Storyboard Layer 2 (Pass)
//Storyboard Layer 3 (Foreground)
//Storyboard Layer 4 (Overlay)
//Storyboard Sound Samples

[TimingPoints]
2055,344.827586206897,6,2,1,40,1,0
25849,344.827586206897,6,2,1,40,1,0
25849,-90.9090909090909,6,2,1,40,0,0
32400,-90.9090909090909,6,2,1,45,0,0
34469,-90.9090909090909,6,2,1,40,0,0
37573,-111.111111111111,6,2,1,40,0,0
38262,-90.9090909090909,6,2,1,45,0,0
42400,-90.9090909090909,6,2,1,50,0,0
58953,-83.3333333333333,6,2,1,60,0,0
75504,-76.9230769230769,6,2,1,70,0,0
104469,-83.3333333333333,6,2,1,50,0,0
107573,-100,6,2,1,40,0,0
107659,-100,6,2,1,30,0,0
125159,-90.9090909090909,6,2,1,50,0,0
158262,-83.3333333333333,6,2,1,60,0,0
174814,-76.9230769230769,6,2,1,70,0,0
203780,-83.3333333333333,6,2,1,50,0,0
206883,-142.857142857143,6,2,1,45,0,0
207400,344.827586206897,6,2,1,45,1,0
208090,344.827586206897,6,2,1,30,1,0
213664,375.000000000001,6,2,1,30,1,0
213664,-200,6,2,1,30,0,0
214414,344.827586206897,6,2,1,30,1,0
214414,-200,6,2,1,30,0,0
219988,335.195530726257,6,2,1,30,1,0
221999,344.827586206897,6,2,1,30,1,0
221999,-200,6,2,1,30,0,0
225117,571.428571428571,6,2,1,30,1,0
225691,571.428571428571,6,2,1,30,1,0
226262,344.827586206897,6,2,1,30,1,0
226262,-200,6,2,1,30,0,0
226434,344.827586206897,6,2,1,30,1,0
226434,-200,6,2,1,30,0,0
230658,335.195530726257,6,2,1,30,1,0
230658,-200,6,2,1,30,0,0
231663,495.867768595041,6,2,1,30,1,0
231663,-129.886998311469,6,2,1,30,0,0
232724,571.428571428571,6,2,1,30,1,0
232724,-67.0498116403166,6,2,1,30,0,0
233298,517.241379310345,6,2,1,30,1,0
233298,-74.0740740740741,6,2,1,30,0,0
233815,545.454545454546,6,2,1,30,1,0
233815,-70.4225352112676,6,2,1,30,0,0
234361,645.161290322581,6,2,1,30,1,0
234361,-59.5238095238095,6,2,1,30,0,0
235006,344.827586206897,6,2,1,30,1,0
236557,-200,6,2,1,30,0,0
237189,359.281437125748,6,2,1,30,1,0
238266,387.096774193548,6,2,1,30,1,0
239429,400,6,2,1,30,1,0
239429,-95.7854406130268,6,2,1,30,0,0
240229,365.853658536585,6,2,1,30,1,0
240595,372.670807453416,6,2,1,30,1,0
240970,400,6,2,1,30,1,0
241770,359.281437125748,4,2,1,30,1,0
241770,-243.90243902439,6,2,1,30,0,0
243207,-243.90243902439,6,2,1,25,0,0
244644,-243.90243902439,6,2,1,20,0,0
246081,-243.90243902439,6,2,1,15,0,0
247518,-243.90243902439,6,2,1,10,0,0
248955,-243.90243902439,6,2,1,5,0,0

[Colours]
Combo1 : 82,156,177
Combo2 : 247,193,194
Combo3 : 199,122,143
Combo4 : 222,223,187

[HitObjects]
0,17,25849,6,0,P|93:24|202:20,1,186.450005690003,2|0,3:2|0:0,0:0:0:0:
174,94,26538,2,0,P|208:97|255:94,1,62.1500018966675,0|0,3:0|0:0,0:0:0:0:
122,152,26883,1,2,0:0:0:0:
122,152,27055,2,0,P|88:155|41:152,1,62.1500018966675
178,206,27400,2,0,P|206:273|195:341,1,124.300003793335,2|0,0:0|0:0,0:0:0:0:
359,382,27917,5,0,0:0:0:0:
359,382,28090,1,0,0:0:0:0:
359,382,28262,1,0,0:0:0:0:
504,325,28607,1,0,0:0:0:0:
504,325,28780,1,0,0:0:0:0:
441,78,29814,5,0,0:0:0:0:
504,45,29986,2,0,P|512:112|509:182,2,124.300003793335,2|0|0,3:2|0:0|0:0,0:0:0:0:
304,143,31021,2,0,P|220:151|156:149,1,124.300003793335,2|0,3:2|0:0,0:0:0:0:
106,151,31538,1,0,0:0:0:0:
106,151,31711,2,0,P|108:190|105:236,2,62.1500018966675,2|0|0,0:0|0:0|0:0,0:0:0:0:
70,384,32400,5,0,0:0:0:0:
70,384,32573,1,0,0:0:0:0:
70,384,32745,1,0,0:0:0:0:
139,363,32917,1,0,3:0:0:0:
1,337,33090,2,0,P|-7:271|22:205,1,124.300003793335,0|0,1:0|0:0,0:0:0:0:
99,295,33607,2,0,P|89:265|84:234,1,62.1500018966675
84,234,34124,6,0,P|154:239|228:237,1,124.300003793335,0|0,3:0|0:0,0:0:0:0:
151,169,34642,2,0,P|195:165|237:159,1,62.1500018966675,2|0,0:0|0:0,0:0:0:0:
294,29,34986,1,0,0:0:0:0:
294,29,35159,2,0,P|278:85|295:171,2,124.300003793335,2|0|0,0:0|3:0|3:0,0:0:0:0:
259,222,36193,6,0,P|173:286|76:289,1,186.450005690003,2|0,0:0|0:0,0:0:0:0:
213,351,36883,2,0,P|253:367|293:378,1,62.1500018966675
140,371,37228,1,2,0:0:0:0:
349,364,37573,2,0,P|245:320|152:297,1,203.399993792725,0|0,3:0|3:0,0:0:0:0:
77,122,38607,5,2,0:0:0:0:
278,55,38952,1,0,0:0:0:0:
268,133,39124,1,0,0:0:0:0:
259,206,39297,1,0,3:0:0:0:
491,359,39642,5,2,0:0:0:0:
249,279,39986,1,0,0:0:0:0:
237,355,40159,1,0,0:0:0:0:
310,328,40331,2,0,P|321:288|328:248,1,62.1500018966675,2|0,3:2|0:0,0:0:0:0:
320,195,40676,1,0,0:0:0:0:
320,195,40849,1,0,0:0:0:0:
320,195,41021,1,0,0:0:0:0:
373,143,41193,1,0,0:0:0:0:
347,75,41366,1,0,1:0:0:0:
347,75,41711,2,0,P|343:171|346:265,1,186.450005690003,0|0,3:0|0:0,0:0:0:0:
270,117,42400,6,0,P|199:124|130:108,1,124.300003793335,2|0,1:2|0:0,0:0:0:0:
22,13,42917,2,0,P|64:72|74:136,1,124.300003793335,2|0,3:2|0:0,0:0:0:0:
0,129,43435,2,0,P|5:167|0:218,1,62.1500018966675,0|0,1:0|0:0,0:0:0:0:
75,196,43780,2,0,P|81:268|76:334,1,124.300003793335,0|0,3:0|0:0,0:0:0:0:
77,319,44297,1,0,0:0:0:0:
246,291,44469,6,0,P|289:362|344:382,1,124.300003793335,2|0,3:2|0:0,0:0:0:0:
303,248,44986,2,0,P|308:183|308:164,2,62.1500018966675,2|0|0,3:2|0:0|0:0,0:0:0:0:
257,133,45504,1,2,1:2:0:0:
257,133,45849,2,0,P|337:151|398:158,1,124.300003793335,0|0,3:0|0:0,0:0:0:0:
378,156,46366,1,0,0:0:0:0:
503,183,46538,5,0,3:0:0:0:
503,183,46883,2,0,P|478:236|490:320,1,124.300003793335,2|0,3:2|0:0,0:0:0:0:
412,324,47400,1,0,0:0:0:0:
399,252,47573,2,0,P|354:255|312:263,1,62.1500018966675,2|0,1:2|0:0,0:0:0:0:
462,120,47917,2,0,P|466:58|440:2,1,124.300003793335,2|0,3:2|0:0,0:0:0:0:
440,2,48435,1,0,0:0:0:0:
401,171,48607,6,0,P|359:193|274:196,1,124.300003793335,2|0,3:2|3:0,0:0:0:0:
219,234,49124,1,0,0:0:0:0:
146,211,49297,1,0,0:0:0:0:
146,211,49469,1,0,0:0:0:0:
0,257,49642,1,0,1:0:0:0:
0,257,49986,1,0,0:0:0:0:
26,334,50159,1,0,0:0:0:0:
26,334,50245,1,0,0:0:0:0:
26,334,50331,1,0,3:0:0:0:
99,313,50504,1,0,0:0:0:0:
77,237,50676,6,0,P|77:173|92:94,1,124.300003793335,0|0,3:0|0:0,0:0:0:0:
154,252,51193,2,0,P|180:290|203:316,1,62.1500018966675,2|0,3:2|0:0,0:0:0:0:
245,349,51538,1,0,0:0:0:0:
223,214,51711,2,0,P|190:148|142:87,1,124.300003793335,2|0,1:2|0:0,0:0:0:0:
300,201,52228,1,0,0:0:0:0:
370,233,52400,2,0,P|409:223|443:206,1,62.1500018966675,2|0,0:0|0:0,0:0:0:0:
512,0,52745,6,0,P|494:48|504:128,1,124.300003793335,2|0,3:2|0:0,0:0:0:0:
499,195,53262,2,0,P|506:233|506:279,2,62.1500018966675,0|0|0,3:0|0:0|0:0,0:0:0:0:
512,334,53780,1,0,1:0:0:0:
512,334,54124,2,0,P|450:340|368:336,1,124.300003793335,0|0,3:0|0:0,0:0:0:0:
191,305,54642,5,0,0:0:0:0:
191,305,54728,1,0,0:0:0:0:
191,305,54814,2,0,P|178:235|200:166,1,124.300003793335,2|0,3:2|0:0,0:0:0:0:
116,332,55331,2,0,P|16:371|-21:370,1,124.300003793335,2|0,3:2|0:0,0:0:0:0:
177,384,55849,1,0,1:0:0:0:
177,384,56193,2,0,P|275:341|366:341,1,186.450005690003,2|0,3:2|0:0,0:0:0:0:
512,384,56883,6,0,P|497:316|510:237,1,124.300003793335,2|0,3:2|0:0,0:0:0:0:
426,264,57400,2,0,P|430:218|440:180,2,62.1500018966675,0|0|0,3:0|0:0|0:0,0:0:0:0:
512,131,57917,1,0,3:0:0:0:
189,235,58952,5,2,3:2:0:0:
189,235,59124,2,0,P|232:234|287:229,1,67.7999979309083
158,310,59469,2,0,P|73:315|8:313,1,135.599995861817,2|0,0:0|0:0,0:0:0:0:
143,172,59986,2,0,P|153:105|127:28,2,135.599995861817,0|0|0,1:0|0:0|0:0,0:0:0:0:
143,172,60849,1,0,0:0:0:0:
83,92,61021,6,0,P|154:64|237:59,1,135.599995861817,2|0,3:2|0:0,0:0:0:0:
337,0,61538,2,0,P|399:25|466:34,1,135.599995861817,2|0,0:0|0:0,0:0:0:0:
435,104,62055,2,0,P|441:144|440:193,1,67.7999979309083,0|0,1:0|0:0,0:0:0:0:
357,149,62400,2,0,P|361:251|356:304,1,135.599995861817
358,284,62917,1,0,0:0:0:0:
440,236,63090,5,2,3:2:0:0:
440,236,63262,2,0,P|446:276|445:325,1,67.7999979309083
264,384,63607,2,0,P|253:302|274:231,1,135.599995861817,2|0,0:0|0:0,0:0:0:0:
159,351,64124,2,0,P|69:376|7:376,1,135.599995861817,2|0,1:2|0:0,0:0:0:0:
110,282,64642,2,0,P|143:269|190:261,2,67.7999979309083,2|0|0,0:0|0:0|0:0,0:0:0:0:
0,306,65159,6,0,P|-5:226|21:160,1,135.599995861817,2|0,3:2|0:0,0:0:0:0:
130,1,65676,2,0,P|47:47|-11:52,1,135.599995861817
82,124,66193,2,0,P|120:138|166:149,1,67.7999979309083,0|0,1:0|0:0,0:0:0:0:
217,123,66538,1,0,0:0:0:0:
423,139,66711,2,0,P|362:117|267:98,1,135.599995861817
498,180,67228,6,0,P|510:228|510:271,1,67.7999979309083,2|0,3:2|0:0,0:0:0:0:
494,101,67573,1,0,0:0:0:0:
355,190,67745,2,0,P|363:120|315:46,1,135.599995861817,2|0,0:0|0:0,0:0:0:0:
394,312,68262,2,0,P|332:284|294:229,2,135.599995861817,0|0|0,1:0|0:0|0:0,0:0:0:0:
268,100,69297,5,2,3:2:0:0:
268,100,69469,2,0,P|210:104|173:102,1,67.7999979309083
234,181,69814,2,0,P|154:181|72:188,1,135.599995861817
112,256,70331,2,0,P|54:260|17:258,1,67.7999979309083,0|0,1:0|0:0,0:0:0:0:
34,111,70676,2,0,P|92:107|129:109,1,67.7999979309083,2|0,0:0|0:0,0:0:0:0:
167,181,71021,2,0,P|109:185|72:183,1,67.7999979309083,2|0,0:0|0:0,0:0:0:0:
286,322,71366,5,2,3:2:0:0:
286,322,71538,2,0,P|308:365|322:407,1,67.7999979309083
322,255,71883,2,0,P|305:191|340:121,1,135.599995861817,2|0,0:0|0:0,0:0:0:0:
391,174,72400,2,0,P|394:217|408:266,1,67.7999979309083,0|0,1:0|0:0,0:0:0:0:
485,384,72745,2,0,P|502:320|467:250,2,135.599995861817,0|0|0,0:0|0:0|3:0,0:0:0:0:
282,195,73780,5,0,0:0:0:0:
210,188,74124,1,0,0:0:0:0:
138,178,74469,1,0,3:0:0:0:
70,208,74814,6,0,P|71:126|64:55,1,135.599995861817
22,341,75331,5,0,3:0:0:0:
22,341,75417,1,0,3:0:0:0:
22,341,75504,2,0,P|86:366|176:356,1,146.899993275452,6|0,3:1|0:0,0:0:0:0:
370,338,76021,2,0,P|301:312|229:318,1,146.899993275452,0|0,3:0|0:0,0:0:0:0:
434,289,76538,2,0,P|472:306|517:338,1,73.449996637726,2|0,1:0|0:0,0:0:0:0:
442,378,76883,1,0,3:0:0:0:
385,220,77055,2,0,P|402:182|434:137,1,73.449996637726,2|0,0:1|3:0,0:0:0:0:
474,212,77400,1,0,0:0:0:0:
512,13,77573,6,0,P|424:65|361:85,1,146.899993275452,2|0,3:1|0:0,0:0:0:0:
245,54,78090,2,0,P|285:38|325:30,2,73.449996637726,0|0|0,3:0|0:0|0:0,0:0:0:0:
93,277,78607,1,0,1:0:0:0:
165,203,78780,1,0,0:0:0:0:
77,190,78952,2,0,L|-2:165,1,73.449996637726,2|0,3:1|0:0,0:0:0:0:
146,87,79297,2,0,L|97:21,1,73.449996637726,2|0,3:1|0:0,0:0:0:0:
285,72,79642,5,2,3:1:0:0:
285,72,79814,2,0,L|297:-16,1,73.449996637726
380,7,80159,2,0,P|372:77|369:160,1,146.899993275452,2|0,3:1|0:0,0:0:0:0:
321,342,80676,1,0,1:0:0:0:
376,273,80849,1,0,0:0:0:0:
291,263,81021,2,0,P|291:223|297:175,1,73.449996637726,2|0,3:1|0:0,0:0:0:0:
456,311,81366,2,0,P|456:351|450:399,1,73.449996637726,2|0,3:1|0:0,0:0:0:0:
214,237,81711,6,0,P|207:134|244:91,1,146.899993275452,2|0,3:1|0:0,0:0:0:0:
132,218,82228,2,0,P|204:208|266:169,1,146.899993275452,0|0,3:0|0:0,0:0:0:0:
39,384,82745,2,0,P|71:319|54:249,2,146.899993275452,0|0|2,1:0|3:0|3:1,0:0:0:0:
18,173,83607,5,0,3:0:0:0:
18,173,83693,1,0,3:0:0:0:
18,173,83780,2,0,P|64:171|110:164,1,73.449996637726,2|0,3:1|0:0,0:0:0:0:
163,160,84124,1,0,0:0:0:0:
68,252,84297,2,0,P|140:242|214:237,1,146.899993275452,2|0,3:1|0:0,0:0:0:0:
429,204,84814,1,0,1:0:0:0:
362,245,84986,1,0,0:0:0:0:
494,251,85159,2,0,P|490:297|493:354,1,73.449996637726,2|0,3:1|0:0,0:0:0:0:
415,305,85504,2,0,P|419:351|416:408,1,73.449996637726,2|0,3:1|0:0,0:0:0:0:
497,172,85849,6,0,P|522:98|477:17,1,146.899993275452,2|0,3:1|0:0,0:0:0:0:
429,204,86366,2,0,P|351:208|254:205,1,146.899993275452,0|0,3:0|0:0,0:0:0:0:
105,307,86883,1,0,1:0:0:0:
168,353,87055,1,0,0:0:0:0:
208,286,87228,1,2,3:1:0:0:
146,242,87400,1,0,0:0:0:0:
73,302,87573,2,0,P|64:369|65:391,1,73.449996637726,2|0,3:1|0:0,0:0:0:0:
0,204,87917,6,0,P|2:102|19:33,1,146.899993275452,2|0,3:1|0:0,0:0:0:0:
77,18,88435,2,0,P|134:60|225:82,1,146.899993275452,0|0,3:0|0:0,0:0:0:0:
196,154,88952,2,0,P|245:146|298:124,1,73.449996637726,2|0,1:0|0:0,0:0:0:0:
116,263,89297,2,0,P|80:273|44:278,1,73.449996637726,2|0,3:1|0:0,0:0:0:0:
272,215,89642,2,0,P|307:204|343:199,1,73.449996637726,2|0,3:1|0:0,0:0:0:0:
78,346,89986,6,0,P|80:245|47:191,1,146.899993275452,2|0,3:1|0:0,0:0:0:0:
5,325,90504,1,0,3:0:0:0:
142,158,90676,2,0,P|154:203|159:254,1,73.449996637726
390,277,91021,2,0,P|378:232|373:181,1,73.449996637726,0|0,1:0|0:0,0:0:0:0:
363,133,91366,1,2,3:1:0:0:
463,255,91538,1,0,0:0:0:0:
311,287,91711,1,2,3:1:0:0:
506,138,91883,5,0,3:0:0:0:
506,138,91969,1,0,3:0:0:0:
506,138,92055,2,0,P|489:56|522:-12,1,146.899993275452,6|0,3:1|0:0,0:0:0:0:
445,185,92573,2,0,P|446:276|435:360,1,146.899993275452,0|0,3:0|0:0,0:0:0:0:
372,200,93090,2,0,P|375:147|372:95,1,73.449996637726,2|0,1:0|0:0,0:0:0:0:
348,61,93435,1,0,3:0:0:0:
176,155,93607,2,0,P|173:208|176:260,1,73.449996637726,2|0,0:1|3:0,0:0:0:0:
200,294,93952,1,0,0:0:0:0:
285,114,94124,6,0,P|264:183|281:254,1,146.899993275452,2|0,3:1|0:0,0:0:0:0:
237,46,94642,2,0,P|181:27|146:23,2,73.449996637726,0|0|0,3:0|0:0|0:0,0:0:0:0:
1,154,95159,1,0,1:0:0:0:
62,106,95331,1,0,0:0:0:0:
39,220,95504,2,0,P|32:333|38:376,1,146.899993275452,2|2,3:1|3:1,0:0:0:0:
285,321,96021,5,0,0:0:0:0:
209,339,96193,2,0,P|213:293|222:241,1,73.449996637726,2|0,3:1|0:0,0:0:0:0:
163,219,96538,1,0,0:0:0:0:
278,101,96711,2,0,P|306:173|274:262,1,146.899993275452,2|0,3:1|0:0,0:0:0:0:
158,88,97228,2,0,P|187:118|216:165,1,73.449996637726,0|0,1:0|0:0,0:0:0:0:
241,341,97573,2,0,P|195:283|162:218,1,146.899993275452,2|2,3:1|3:1,0:0:0:0:
283,277,98090,1,0,0:0:0:0:
142,384,98262,6,0,P|63:363|-15:376,1,146.899993275452,2|0,3:1|0:0,0:0:0:0:
17,290,98780,2,0,P|18:252|14:205,1,73.449996637726,0|0,3:0|0:0,0:0:0:0:
0,147,99124,1,0,0:0:0:0:
176,215,99297,2,0,P|173:148|182:49,2,146.899993275452,0|2|2,1:0|3:1|3:1,0:0:0:0:
346,26,100159,5,0,3:0:0:0:
346,26,100245,1,0,3:0:0:0:
346,26,100331,2,0,P|412:1|503:19,1,146.899993275452,2|0,3:1|0:0,0:0:0:0:
383,88,100849,2,0,P|383:134|390:185,1,73.449996637726,0|0,3:0|0:0,0:0:0:0:
397,234,101193,1,0,0:0:0:0:
308,162,101366,2,0,L|228:169,1,73.449996637726,0|0,1:0|0:0,0:0:0:0:
93,271,101711,2,0,L|166:264,1,73.449996637726,2|0,3:1|0:0,0:0:0:0:
287,142,102055,2,0,L|207:149,1,73.449996637726,2|0,3:1|0:0,0:0:0:0:
16,259,102400,6,0,P|36:173|-3:106,1,146.899993275452,2|0,3:1|0:0,0:0:0:0:
49,327,102917,2,0,P|105:368|199:384,1,146.899993275452,0|0,3:0|0:0,0:0:0:0:
110,201,103435,2,0,P|110:243|98:296,1,73.449996637726,0|0,1:0|0:0,0:0:0:0:
261,179,103780,1,2,3:1:0:0:
351,82,103952,1,0,0:0:0:0:
398,208,104124,1,2,3:1:0:0:
261,179,104297,1,0,0:0:0:0:
469,63,104469,6,0,P|483:139|468:220,1,135.599995861817,4|0,3:1|0:0,0:0:0:0:
510,263,104986,2,0,P|501:312|504:355,2,67.7999979309083,0|0|0,3:0|0:0|0:0,0:0:0:0:
411,384,105504,2,0,P|424:313|424:235,1,135.599995861817,0|0,1:0|0:0,0:0:0:0:
410,178,106021,1,0,0:0:0:0:
349,289,106193,2,0,P|291:291|258:288,1,67.7999979309083,0|0,3:0|0:0,0:0:0:0:
311,364,106538,6,0,P|246:359|158:361,1,135.599995861817,0|0,3:0|0:0,0:0:0:0:
107,376,107055,1,0,3:0:0:0:
107,376,107400,1,0,0:0:0:0:
0,353,107573,2,0,P|0:254|205:172,1,339,2|0,0:0|3:0,0:0:0:0:
13,384,125159,6,0,P|16:302|4:191,1,186.450005690003,2|0,3:2|0:0,0:0:0:0:
79,180,125849,2,0,P|81:113|78:93,1,62.1500018966675
7,2,126193,1,2,1:2:0:0:
7,2,126366,2,0,P|2:87|11:146,2,124.300003793335
137,67,127228,5,0,3:0:0:0:
210,57,127400,1,2,0:0:0:0:
210,57,127917,2,0,P|260:61|286:60,1,62.1500018966675
442,76,128262,2,0,P|392:80|366:79,1,62.1500018966675,0|0,1:0|0:0,0:0:0:0:
500,182,128607,2,0,P|512:240|505:298,1,82.8666691955567
384,345,128952,2,0,P|372:287|379:229,1,82.8666691955567
444,291,129297,6,0,P|363:329|305:326,1,124.300003793335,0|0,3:0|0:0,0:0:0:0:
259,313,129814,1,0,0:0:0:0:
259,313,129986,2,0,P|253:374|256:404,1,62.1500018966675,2|0,0:0|0:0,0:0:0:0:
199,260,130331,2,0,P|200:182|216:114,1,124.300003793335,2|0,1:2|0:0,0:0:0:0:
6,13,131021,5,0,0:0:0:0:
6,13,131193,1,0,0:0:0:0:
76,39,131366,2,0,P|114:35|156:26,1,62.1500018966675,2|0,3:2|0:0,0:0:0:0:
206,9,131711,1,0,0:0:0:0:
143,164,132055,1,0,3:0:0:0:
307,231,132400,1,0,1:0:0:0:
370,67,132745,1,0,0:0:0:0:
370,67,132917,2,0,P|368:29|372:-9,1,62.1500018966675,0|0,3:0|0:0,0:0:0:0:
440,26,133262,1,0,0:0:0:0:
449,155,133435,6,0,P|450:249|444:299,1,124.300003793335,0|0,3:0|0:0,0:0:0:0:
365,384,133952,2,0,P|378:320|350:253,1,124.300003793335,2|0,0:0|0:0,0:0:0:0:
450,354,134469,2,0,P|488:377|518:388,1,62.1500018966675,2|0,1:2|0:0,0:0:0:0:
417,223,134814,2,0,P|332:232|272:231,1,124.300003793335,2|0,0:0|3:0,0:0:0:0:
66,285,135504,6,0,P|106:287|154:284,1,62.1500018966675,2|0,3:2|0:0,0:0:0:0:
300,333,135849,2,0,P|296:291|301:250,1,82.8666691955567
447,270,136193,2,0,P|452:315|443:373,1,82.8666691955567,2|0,3:2|0:0,0:0:0:0:
377,315,136538,2,0,P|374:272|377:229,1,62.1500018966675,2|0,1:2|0:0,0:0:0:0:
365,179,136883,1,0,0:0:0:0:
436,91,137055,2,0,P|462:177|439:289,1,186.450005690003,0|0,3:0|3:0,0:0:0:0:
359,100,137917,6,0,P|316:99|271:104,1,62.1500018966675,2|0,0:0|3:0,0:0:0:0:
224,101,138262,1,0,0:0:0:0:
4,14,138607,2,0,P|72:19|152:14,1,124.300003793335,2|0,3:2|0:0,0:0:0:0:
128,16,139124,1,0,3:0:0:0:
125,101,139297,2,0,P|81:98|40:89,1,62.1500018966675
70,101,139555,1,0,0:0:0:0:
70,101,139642,2,0,P|91:156|84:235,1,124.300003793335,2|0,3:2|0:0,0:0:0:0:
34,359,140216,5,0,0:0:0:0:
9,203,140446,1,0,0:0:0:0:
160,261,140676,2,0,P|211:271|242:273,1,62.1500018966675,0|0,1:0|0:0,0:0:0:0:
308,354,141021,5,0,3:0:0:0:
372,319,141193,1,0,0:0:0:0:
416,260,141366,1,0,0:0:0:0:
425,188,141538,1,0,0:0:0:0:
512,4,141711,6,0,P|504:88|507:152,1,124.300003793335,2|0,3:2|0:0,0:0:0:0:
437,33,142228,2,0,P|364:48|295:35,1,124.300003793335,2|0,3:2|0:0,0:0:0:0:
430,116,142745,1,0,1:0:0:0:
430,116,143090,2,0,P|444:176|438:237,1,124.300003793335,0|0,3:0|3:0,0:0:0:0:
437,237,143607,1,0,0:0:0:0:
443,316,143780,5,2,3:2:0:0:
443,316,144124,1,0,0:0:0:0:
384,366,144297,2,0,P|341:378|305:394,2,62.1500018966675,0|0|0,0:0|3:0|0:0,0:0:0:0:
225,293,144814,5,2,1:2:0:0:
336,200,145073,1,0,0:0:0:0:
201,148,145331,1,0,0:0:0:0:
324,35,145676,5,0,0:0:0:0:
324,35,145849,2,0,P|257:41|182:40,1,124.300003793335,0|0,3:0|0:0,0:0:0:0:
130,22,146366,1,0,0:0:0:0:
130,22,146538,2,0,P|79:23|48:19,1,62.1500018966675,2|0,0:0|0:0,0:0:0:0:
0,113,146883,2,0,P|59:115|137:125,2,124.300003793335,2|0|0,1:2|0:0|0:0,0:0:0:0:
0,113,147745,1,0,0:0:0:0:
123,202,147917,5,2,3:2:0:0:
123,202,148262,2,0,P|118:252|120:293,1,62.1500018966675
259,347,148607,2,0,P|264:297|262:256,1,62.1500018966675
51,290,148952,2,0,P|59:339|71:378,1,62.1500018966675,0|0,1:0|0:0,0:0:0:0:
265,212,149297,5,0,0:0:0:0:
294,142,149469,1,0,0:0:0:0:
294,142,149555,1,0,0:0:0:0:
294,142,149642,1,0,3:0:0:0:
218,115,149814,1,0,0:0:0:0:
196,186,149986,6,0,P|189:282|194:335,1,124.300003793335,0|0,3:0|0:0,0:0:0:0:
345,365,150504,2,0,P|417:376|477:360,1,124.300003793335,2|0,3:2|0:0,0:0:0:0:
326,291,151021,2,0,P|283:288|249:292,1,62.1500018966675,2|0,1:2|0:0,0:0:0:0:
384,242,151366,2,0,P|427:239|461:243,1,62.1500018966675,2|0,0:0|0:0,0:0:0:0:
317,201,151711,2,0,P|274:191|240:189,1,62.1500018966675,2|0,0:0|0:0,0:0:0:0:
367,142,152055,6,0,P|406:123|439:115,1,62.1500018966675,2|0,0:0|0:0,0:0:0:0:
311,91,152400,1,0,3:0:0:0:
174,163,152630,1,0,0:0:0:0:
35,107,152860,1,0,0:0:0:0:
111,8,153090,6,0,P|105:94|110:152,2,124.300003793335,0|0|0,1:0|3:0|3:0,0:0:0:0:
54,188,153952,5,0,0:0:0:0:
54,188,154038,1,0,0:0:0:0:
54,188,154124,2,0,P|29:271|31:323,1,124.300003793335,2|0,3:2|0:0,0:0:0:0:
175,195,154642,2,0,P|200:112|198:60,1,124.300003793335,2|0,3:2|0:0,0:0:0:0:
111,247,155159,1,0,1:0:0:0:
111,247,155504,2,0,P|197:278|293:300,1,186.450005690003,2|0,3:2|0:0,0:0:0:0:
120,372,156193,6,0,P|63:364|-17:398,1,124.300003793335,2|0,3:2|0:0,0:0:0:0:
27,296,156711,2,0,P|34:262|35:213,2,62.1500018966675,0|0|0,3:0|0:0|0:0,0:0:0:0:
0,138,157228,1,0,3:0:0:0:
366,0,158262,6,0,P|415:11|457:16,1,67.7999979309083,2|0,3:2|0:0,0:0:0:0:
504,28,158607,1,0,0:0:0:0:
355,75,158780,2,0,P|286:58|202:47,1,135.599995861817,2|0,0:0|0:0,0:0:0:0:
38,127,159297,2,0,P|58:49|27:-16,2,135.599995861817,0|0|0,1:0|0:0|0:0,0:0:0:0:
38,127,160159,1,0,0:0:0:0:
142,8,160331,6,0,P|140:76|148:168,1,135.599995861817,2|0,3:2|0:0,0:0:0:0:
250,247,160849,2,0,P|252:315|244:407,1,135.599995861817,2|0,0:0|0:0,0:0:0:0:
323,279,161366,2,0,P|358:280|414:290,1,67.7999979309083,0|0,1:0|0:0,0:0:0:0:
386,358,161711,1,0,0:0:0:0:
386,358,161883,1,0,0:0:0:0:
243,329,162055,2,0,P|208:330|152:340,1,67.7999979309083
8,383,162400,6,0,P|-11:294|9:234,1,135.599995861817,2|0,3:2|0:0,0:0:0:0:
153,134,162917,2,0,P|172:223|152:283,1,135.599995861817,2|0,0:0|0:0,0:0:0:0:
33,186,163435,2,0,P|75:197|107:216,2,67.7999979309083,2|0|0,1:2|0:0|0:0,0:0:0:0:
195,355,163952,2,0,P|153:344|121:325,1,67.7999979309083,2|0,0:0|0:0,0:0:0:0:
131,332,164297,1,0,0:0:0:0:
333,288,164469,6,0,P|401:301|492:334,1,135.599995861817,2|0,3:2|0:0,0:0:0:0:
269,330,164986,2,0,P|243:261|255:186,1,135.599995861817
374,61,165504,1,0,1:0:0:0:
367,143,165676,1,0,0:0:0:0:
443,112,165849,1,0,0:0:0:0:
295,97,166021,2,0,P|241:88|208:75,1,67.7999979309083
172,40,166366,1,0,0:0:0:0:
272,170,166538,6,0,P|289:221|295:260,2,67.7999979309083,2|0|0,3:2|0:0|0:0,0:0:0:0:
239,367,167055,2,0,P|216:293|208:217,1,135.599995861817,2|0,0:0|0:0,0:0:0:0:
314,355,167573,1,0,1:0:0:0:
314,355,167917,2,0,P|364:371|408:377,1,67.7999979309083
250,223,168262,2,0,P|200:207|156:201,1,67.7999979309083
403,303,168607,6,0,P|416:216|392:161,1,135.599995861817,2|0,3:2|0:0,0:0:0:0:
253,299,169124,2,0,P|160:294|102:283,1,135.599995861817
278,178,169642,2,0,P|309:253|313:269,1,67.7999979309083,0|0,1:0|0:0,0:0:0:0:
220,127,169986,2,0,P|194:59|223:-5,1,135.599995861817,2|2,0:0|0:0,0:0:0:0:
215,3,170504,1,0,0:0:0:0:
148,160,170676,5,2,3:2:0:0:
148,160,170849,2,0,P|96:161|62:158,1,67.7999979309083
269,62,171193,2,0,P|340:65|415:62,1,135.599995861817,2|0,0:0|0:0,0:0:0:0:
402,136,171711,2,0,P|439:137|497:130,1,67.7999979309083,0|0,1:0|0:0,0:0:0:0:
248,259,172055,2,0,P|260:193|237:131,2,135.599995861817,0|0|0,0:0|0:0|3:0,0:0:0:0:
3,377,173090,5,0,0:0:0:0:
76,367,173435,1,0,0:0:0:0:
148,356,173780,1,0,3:0:0:0:
217,377,174124,6,0,P|221:301|210:217,1,135.599995861817
89,16,174642,5,0,3:0:0:0:
89,16,174728,1,0,3:0:0:0:
89,16,174814,2,0,P|60:94|78:176,1,146.899993275452,6|0,3:1|0:0,0:0:0:0:
68,155,175331,1,0,3:0:0:0:
267,65,175504,2,0,B|222:67|166:62,1,73.449996637726,2|0,0:1|0:0,0:0:0:0:
391,197,175849,2,0,P|391:157|383:106,1,73.449996637726,2|0,1:0|0:0,0:0:0:0:
316,145,176193,1,0,3:0:0:0:
433,296,176366,2,0,P|433:336|441:387,1,73.449996637726,2|0,0:1|3:0,0:0:0:0:
508,348,176710,1,0,0:0:0:0:
319,220,176883,6,0,P|243:234|149:220,1,146.899993275452,2|0,3:1|0:0,0:0:0:0:
289,302,177400,2,0,P|231:318|186:319,1,73.449996637726,0|0,3:0|0:0,0:0:0:0:
336,360,177745,1,0,0:0:0:0:
434,260,177917,2,0,P|437:221|427:158,1,73.449996637726,0|0,1:0|0:0,0:0:0:0:
235,95,178262,2,0,P|232:134|242:197,1,73.449996637726,2|0,3:1|0:0,0:0:0:0:
503,171,178607,2,0,P|506:132|496:69,1,73.449996637726,2|0,3:1|0:0,0:0:0:0:
306,232,178952,5,2,3:1:0:0:
306,232,179124,2,0,P|250:237|202:235,1,73.449996637726
47,319,179469,2,0,P|30:243|59:154,1,146.899993275452,2|0,3:1|0:0,0:0:0:0:
122,304,179986,2,0,P|130:368|129:397,1,73.449996637726,0|0,1:0|0:0,0:0:0:0:
203,373,180331,1,2,3:1:0:0:
127,229,180504,2,0,P|119:161|125:72,1,146.899993275452
363,8,181021,6,0,P|445:26|521:13,1,146.899993275452,2|0,3:1|0:0,0:0:0:0:
313,65,181538,2,0,P|296:115|291:168,1,73.449996637726,0|0,3:0|0:0,0:0:0:0:
312,205,181883,1,0,0:0:0:0:
485,105,182055,2,0,P|449:103|413:98,1,73.449996637726,0|0,1:0|0:0,0:0:0:0:
216,45,182400,1,0,3:0:0:0:
181,127,182573,1,0,0:0:0:0:
93,95,182745,1,2,3:1:0:0:
129,10,182917,1,0,3:0:0:0:
0,189,183090,5,2,3:1:0:0:
0,189,183262,2,0,P|48:190|102:187,1,73.449996637726
246,262,183607,2,0,P|166:258|72:266,1,146.899993275452,2|0,3:1|0:0,0:0:0:0:
275,340,184124,1,0,1:0:0:0:
311,210,184297,1,0,0:0:0:0:
345,291,184469,2,0,L|435:331,1,73.449996637726,2|0,3:1|0:0,0:0:0:0:
348,133,184814,2,0,L|446:89,1,73.449996637726,2|0,3:1|0:0,0:0:0:0:
182,0,185159,6,0,P|204:90|189:163,1,146.899993275452,2|0,3:1|0:0,0:0:0:0:
287,240,185676,2,0,P|265:330|280:403,1,146.899993275452,0|0,3:0|0:0,0:0:0:0:
52,221,186193,1,0,1:0:0:0:
103,299,186366,1,0,0:0:0:0:
145,212,186538,2,0,P|184:211|231:205,1,73.449996637726,2|0,3:1|0:0,0:0:0:0:
335,19,186883,2,0,P|296:20|249:26,1,73.449996637726,2|0,3:1|0:0,0:0:0:0:
184,128,187228,6,0,P|266:132|353:119,1,146.899993275452,2|0,3:1|0:0,0:0:0:0:
81,52,187745,2,0,P|120:53|167:59,1,73.449996637726,0|0,3:0|0:0,0:0:0:0:
228,60,188090,1,0,0:0:0:0:
28,107,188262,2,0,P|21:157|21:207,1,73.449996637726,2|0,1:0|0:0,0:0:0:0:
60,381,188607,2,0,P|82:314|54:221,1,146.899993275452,2|2,3:1|3:1,0:0:0:0:
4,325,189124,1,0,0:0:0:0:
251,321,189297,6,0,P|328:320|410:312,1,146.899993275452,2|0,3:1|0:0,0:0:0:0:
468,304,189814,1,0,3:0:0:0:
319,240,189986,2,0,P|261:242|222:247,1,73.449996637726
438,75,190331,2,0,P|496:73|535:68,1,73.449996637726,0|0,1:0|0:0,0:0:0:0:
292,29,190676,1,2,3:1:0:0:
353,140,190849,1,0,0:0:0:0:
249,227,191021,1,2,3:1:0:0:
192,108,191193,5,0,3:0:0:0:
192,108,191280,1,0,3:0:0:0:
192,108,191366,2,0,P|117:115|45:87,1,146.899993275452,6|0,3:1|0:0,0:0:0:0:
162,193,191883,2,0,P|119:217|77:230,1,73.449996637726,0|0,3:0|0:0,0:0:0:0:
96,225,192228,1,0,0:0:0:0:
240,29,192400,2,0,P|232:107|238:184,1,146.899993275452,2|0,1:0|3:0,0:0:0:0:
308,373,192917,2,0,P|311:335|304:277,1,73.449996637726,2|0,0:1|3:0,0:0:0:0:
288,230,193262,1,0,0:0:0:0:
382,323,193435,6,0,P|301:346|223:329,1,146.899993275452,2|0,3:1|0:0,0:0:0:0:
424,257,193952,2,0,P|465:269|510:296,2,73.449996637726,0|0|0,3:0|0:0|0:0,0:0:0:0:
222,265,194469,1,0,1:0:0:0:
227,114,194642,1,0,0:0:0:0:
301,194,194814,2,0,P|216:192|125:179,1,146.899993275452,2|2,3:1|3:1,0:0:0:0:
86,166,195331,1,0,0:0:0:0:
218,42,195504,5,2,3:1:0:0:
218,42,195676,2,0,P|258:41|313:47,1,73.449996637726
15,143,196021,2,0,P|-3:73|25:-8,1,146.899993275452,2|0,3:1|0:0,0:0:0:0:
27,218,196538,2,0,P|21:260|19:309,1,73.449996637726,0|0,1:0|0:0,0:0:0:0:
239,325,196883,1,2,3:1:0:0:
223,219,197055,1,0,0:0:0:0:
306,262,197228,1,2,3:1:0:0:
158,282,197400,1,0,0:0:0:0:
425,332,197573,6,0,P|437:250|400:176,1,146.899993275452,2|0,3:1|0:0,0:0:0:0:
363,381,198090,2,0,P|300:384|265:381,1,73.449996637726,0|0,3:0|0:0,0:0:0:0:
221,358,198435,1,0,0:0:0:0:
356,307,198607,2,0,P|432:311|527:302,2,146.899993275452,0|2|2,1:0|3:1|3:1,0:0:0:0:
129,282,199469,5,0,3:0:0:0:
129,282,199555,1,0,3:0:0:0:
129,282,199642,2,0,P|141:195|114:126,1,146.899993275452,2|0,3:1|0:0,0:0:0:0:
330,378,200159,2,0,P|259:357|202:306,1,146.899993275452,0|0,3:0|0:0,0:0:0:0:
70,368,200676,2,0,P|107:367|159:354,1,73.449996637726,0|0,1:0|0:0,0:0:0:0:
192,157,201021,2,0,P|155:158|103:171,1,73.449996637726,2|0,3:1|0:0,0:0:0:0:
0,299,201366,2,0,P|37:298|89:285,1,73.449996637726,2|0,3:1|0:0,0:0:0:0:
268,150,201711,6,0,P|265:43|273:-15,1,146.899993275452,2|0,3:1|0:0,0:0:0:0:
370,220,202228,2,0,P|353:187|342:153,2,73.449996637726,0|0|0,3:0|0:0|0:0,0:0:0:0:
341,78,202745,2,0,P|389:83|435:83,1,73.449996637726,0|0,1:0|0:0,0:0:0:0:
282,331,203090,1,2,3:1:0:0:
288,224,203262,1,0,0:0:0:0:
192,272,203435,1,2,3:1:0:0:
282,331,203607,1,0,0:0:0:0:
136,219,203780,6,0,P|64:230|-10:212,1,135.599995861817,4|0,3:1|0:0,0:0:0:0:
132,143,204297,2,0,P|134:98|125:52,2,67.7999979309083,0|0|0,3:0|0:0|0:0,0:0:0:0:
219,0,204814,2,0,P|219:94|225:161,1,135.599995861817,0|0,1:0|0:0,0:0:0:0:
222,135,205331,1,0,0:0:0:0:
299,111,205504,2,0,P|351:111|395:107,1,67.7999979309083,0|0,3:0|0:0,0:0:0:0:
489,39,205849,6,0,P|512:94|496:179,1,135.599995861817,0|0,3:0|0:0,0:0:0:0:
502,242,206366,1,0,3:0:0:0:
502,242,206711,1,0,0:0:0:0:
492,376,206883,6,0,P|462:201|495:101,1,276.849991551209,2|0,0:0|3:0,0:0:0:0:
72,32,210158,5,0,0:0:0:0:
299,178,212227,5,0,0:0:0:0:
143,374,213262,5,0,0:0:0:0:
133,299,213664,2,0,P|130:256|131:237,1,56.5
201,151,214414,2,0,P|209:204|212:327,1,169.5,2|0,0:0|0:0,0:0:0:0:
487,356,217603,5,0,3:0:0:0:
487,356,217689,1,0,3:0:0:0:
487,356,217776,1,0,3:0:0:0:
487,356,217862,1,0,3:0:0:0:
436,105,219988,5,0,0:0:0:0:
169,155,221999,6,0,P|100:160|-3:157,1,169.5,2|0,0:0|0:0,0:0:0:0:
156,238,223378,2,0,P|148:277|145:303,1,56.5
94,350,224067,1,0,0:0:0:0:
60,148,224584,1,0,0:0:0:0:
253,219,225117,1,0,0:0:0:0:
40,295,225688,1,0,0:0:0:0:
169,376,226262,6,0,P|188:295|161:184,1,197.75,2|0,0:0|0:0,0:0:0:0:
416,362,228502,6,0,P|306:378|247:364,1,169.5
0,225,230399,5,0,3:0:0:0:
0,225,230485,1,0,3:0:0:0:
0,225,230572,1,0,3:0:0:0:
0,225,230658,1,0,3:0:0:0:
351,210,231663,1,2,0:0:0:0:
214,120,232158,2,0,P|211:154|211:190,1,57.9991355228148
318,280,232724,6,0,P|319:225|299:170,1,112.354279199603,0|0,3:0|0:0,0:0:0:0:
128,214,233298,2,0,P|127:263|147:318,1,101.699996896362,0|0,3:0|0:0,0:0:0:0:
201,386,233815,2,0,P|227:342|237:284,1,106.973327946798,0|0,3:0|0:0,0:0:0:0:
63,167,234361,2,0,P|37:208|26:268,1,94.9199971032716,0|0,3:0|0:0,0:0:0:0:
265,216,235006,5,2,0:0:0:0:
374,62,236557,6,0,P|391:65|435:65,1,56.5
505,63,237189,1,0,0:0:0:0:
419,294,238266,5,0,0:0:0:0:
189,186,239429,6,0,P|191:127|183:7,1,176.958003834234,2|0,0:0|0:0,0:0:0:0:
116,32,240229,2,0,P|114:72|110:103,1,56.5
58,140,240595,1,0,0:0:0:0:
139,251,240970,1,0,0:0:0:0:
17,335,241370,1,0,0:0:0:0:
336,137,241770,6,0,B|410:136|439:24|352:-25|233:-24|117:77|106:256|271:334|271:334|239:287|245:243|300:240|255:153|190:118|128:108|68:130,1,972.930014845734,10|8,0:0|0:1,0:0:0:0:
