osu file format v14

[General]
AudioFilename: audio.mp3
AudioLeadIn: 0
PreviewTime: 207314
Countdown: 0
SampleSet: Soft
StackLeniency: 0.7
Mode: 0
LetterboxInBreaks: 0
WidescreenStoryboard: 1

[Editor]
Bookmarks: 125159,249314
DistanceSpacing: 1
BeatDivisor: 6
GridSize: 4
TimelineZoom: 1.5

[Metadata]
Title:Taishou a
TitleUnicode:対象a
Artist:anNina
ArtistUnicode:anNina
Creator:Agatsu
Version:Normal
Source:ひぐらしのなく頃に解
Tags:gibune annabel bermei.inazawa higurashi no naku koro ni kai when they cry ending 07th expansion japanese pop
BeatmapID:2952531
BeatmapSetID:1295653

[Difficulty]
HPDrainRate:4
CircleSize:3.5
OverallDifficulty:4
ApproachRate:5
SliderMultiplier:1
SliderTickRate:1

[Events]
//Background and Video events
0,0,"81206135_p0.jpg",0,0
//Break Periods
2,108607,123959
//Storyboard Layer 0 (Background)
//Storyboard Layer 1 (Fail)
//Storyboard Layer 2 (Pass)
//Storyboard Layer 3 (Foreground)
//Storyboard Layer 4 (Overlay)
//Storyboard Sound Samples

[TimingPoints]
2055,344.827586206897,6,2,1,40,1,0
25849,344.827586206897,6,2,1,40,1,0
25849,-111.111111111111,6,2,1,40,0,0
32400,-111.111111111111,6,2,1,45,0,0
34469,-111.111111111111,6,2,1,40,0,0
37573,-111.111111111111,6,2,1,40,0,0
38262,-111.111111111111,6,2,1,45,0,0
42400,-111.111111111111,6,2,1,50,0,0
58953,-111.111111111111,6,2,1,60,0,0
75504,-100,6,2,1,70,0,0
104469,-100,6,2,1,50,0,0
107573,-100,6,2,1,40,0,0
107659,-100,6,2,1,30,0,0
125159,-111.111111111111,6,2,1,50,0,0
158262,-111.111111111111,6,2,1,60,0,0
174814,-100,6,2,1,70,0,0
203780,-100,6,2,1,50,0,0
206883,-100,6,2,1,45,0,0
207400,344.827586206897,6,2,1,45,1,0
208090,344.827586206897,6,2,1,30,1,0
213664,375.000000000001,6,2,1,30,1,0
213664,-111.111111111111,6,2,1,30,0,0
214414,344.827586206897,6,2,1,30,1,0
214414,-111.111111111111,6,2,1,30,0,0
219988,335.195530726257,6,2,1,30,1,0
221999,344.827586206897,6,2,1,30,1,0
221999,-111.111111111111,6,2,1,30,0,0
225117,571.428571428571,6,2,1,30,1,0
225691,571.428571428571,6,2,1,30,1,0
226262,344.827586206897,6,2,1,30,1,0
226262,-111.111111111111,6,2,1,30,0,0
226434,344.827586206897,6,2,1,30,1,0
226434,-111.111111111111,6,2,1,30,0,0
230658,335.195530726257,6,2,1,30,1,0
230658,-111.111111111111,6,2,1,30,0,0
231663,495.867768595041,6,2,1,30,1,0
231663,-111.111111111111,6,2,1,30,0,0
232724,571.428571428571,6,2,1,30,1,0
232724,-111.111111111111,6,2,1,30,0,0
233298,517.241379310345,6,2,1,30,1,0
233298,-111.111111111111,6,2,1,30,0,0
233815,545.454545454546,6,2,1,30,1,0
233815,-111.111111111111,6,2,1,30,0,0
234361,645.161290322581,6,2,1,30,1,0
234361,-111.111111111111,6,2,1,30,0,0
235006,344.827586206897,6,2,1,30,1,0
236557,-111.111111111111,6,2,1,30,0,0
237189,359.281437125748,6,2,1,30,1,0
238266,387.096774193548,6,2,1,30,1,0
238266,-111.111111111111,6,2,1,30,0,0
239429,400,6,2,1,30,1,0
239429,-111.111111111111,6,2,1,30,0,0
240229,365.853658536585,6,2,1,30,1,0
240229,-111.111111111111,6,2,1,30,0,0
240595,372.670807453416,6,2,1,30,1,0
240970,400,6,2,1,30,1,0
240970,-111.111111111111,6,2,1,30,0,0
241770,359.281437125748,4,2,1,30,1,0
241770,-215.51724137931,6,2,1,30,0,0
243207,-111.111111111111,6,2,1,25,0,0
244644,-111.111111111111,6,2,1,20,0,0
246081,-111.111111111111,6,2,1,15,0,0
247518,-111.111111111111,6,2,1,10,0,0
248955,-111.111111111111,6,2,1,5,0,0

[Colours]
Combo1 : 82,156,177
Combo2 : 247,193,194
Combo3 : 199,122,143
Combo4 : 222,223,187

[HitObjects]
14,22,25849,6,0,P|108:29|198:29,1,179.999994506836,2|0,3:2|3:0,0:0:0:0:
284,10,26883,1,2,0:0:0:0:
284,10,27055,1,0,0:0:0:0:
367,43,27400,2,0,P|385:108|368:193,1,134.999995880127,2|0,0:0|0:0,0:0:0:0:
222,377,29986,5,2,3:2:0:0:
163,308,30331,2,0,P|166:257|161:191,1,89.9999972534181
83,177,31021,2,0,P|77:290|86:379,1,179.999994506836,2|2,3:2|0:0,0:0:0:0:
0,375,32055,1,0,0:0:0:0:
155,12,34124,6,0,P|225:29|296:11,2,134.999995880127,0|2|2,3:0|0:0|0:0,0:0:0:0:
78,60,35504,1,0,3:0:0:0:
235,145,36193,2,0,P|326:151|446:142,1,179.999994506836,2|0,0:0|0:0,0:0:0:0:
419,236,37228,2,0,P|417:303|420:348,1,89.9999972534181,2|0,0:0|3:0,0:0:0:0:
285,203,38262,5,0,3:0:0:0:
194,203,38607,2,0,P|130:204|78:210,1,89.9999972534181,2|0,0:0|0:0,0:0:0:0:
14,193,39297,1,0,3:0:0:0:
1,282,39642,2,0,P|10:368|9:402,1,89.9999972534181,2|0,0:0|0:0,0:0:0:0:
100,373,40331,1,2,3:2:0:0:
506,180,42055,5,0,0:0:0:0:
432,128,42400,2,0,P|419:71|442:-5,2,134.999995880127,2|2|0,1:2|3:2|1:0,0:0:0:0:
379,201,43780,2,0,P|384:264|379:321,1,89.9999972534181,0|0,3:0|0:0,0:0:0:0:
316,352,44469,2,0,P|250:356|216:349,1,89.9999972534181,2|0,3:2|0:0,0:0:0:0:
187,329,44986,2,0,P|121:337|41:323,1,134.999995880127,2|2,3:2|1:2,0:0:0:0:
2,252,45849,1,0,3:0:0:0:
19,72,46538,5,0,3:0:0:0:
96,17,46883,2,0,P|105:84|101:137,1,89.9999972534181,2|0,3:2|0:0,0:0:0:0:
164,173,47573,1,2,1:2:0:0:
238,123,47917,2,0,P|302:127|361:122,1,89.9999972534181,2|0,3:2|0:0,0:0:0:0:
396,67,48607,2,0,P|371:156|390:269,1,179.999994506836,2|0,3:2|0:0,0:0:0:0:
431,316,49642,1,0,1:0:0:0:
502,261,49986,1,0,0:0:0:0:
432,95,50676,6,0,P|372:91|322:95,1,89.9999972534181,0|0,3:0|0:0,0:0:0:0:
297,93,51193,2,0,P|302:172|298:240,1,134.999995880127,2|2,3:2|1:2,0:0:0:0:
254,305,52055,1,0,0:0:0:0:
169,335,52400,1,2,0:0:0:0:
83,308,52745,2,0,P|63:224|94:114,1,179.999994506836,2|0,3:2|0:0,0:0:0:0:
124,53,53780,2,0,P|176:53|239:47,1,89.9999972534181,0|0,1:0|3:0,0:0:0:0:
301,31,54469,1,0,0:0:0:0:
375,81,54814,6,0,P|381:136|377:184,1,89.9999972534181,2|0,3:2|0:0,0:0:0:0:
369,214,55331,2,0,P|287:213|204:204,1,134.999995880127,2|0,3:2|1:0,0:0:0:0:
144,200,56193,1,2,3:2:0:0:
14,325,56883,2,0,P|93:324|180:337,1,134.999995880127,2|0,3:2|3:0,0:0:0:0:
279,362,57917,1,0,3:0:0:0:
478,176,58952,6,0,L|489:42,2,134.999995880127,2|2|0,3:2|0:0|1:0,0:0:0:0:
401,223,60331,1,0,0:0:0:0:
324,176,60676,1,0,0:0:0:0:
246,221,61021,2,0,P|239:269|242:329,1,89.9999972534181,2|0,3:2|0:0,0:0:0:0:
241,355,61538,2,0,P|178:336|90:358,1,134.999995880127,2|0,0:0|1:0,0:0:0:0:
33,301,62400,2,0,P|38:247|32:182,1,89.9999972534181
14,123,63090,6,0,P|24:58|58:20,1,89.9999972534181,2|0,3:2|0:0,0:0:0:0:
73,11,63607,1,2,0:0:0:0:
204,39,64124,2,0,P|259:22|326:24,1,89.9999972534181,2|0,1:2|0:0,0:0:0:0:
335,29,64642,1,2,0:0:0:0:
469,13,65159,2,0,P|482:97|478:175,1,134.999995880127,2|0,3:2|0:0,0:0:0:0:
438,274,66193,2,0,P|370:275|310:268,1,89.9999972534181,0|0,1:0|0:0,0:0:0:0:
304,261,66711,2,0,P|300:195|292:148,1,89.9999972534181
280,129,67228,5,2,3:2:0:0:
225,64,67573,1,0,0:0:0:0:
225,64,67745,2,0,P|99:71|69:82,1,134.999995880127,2|0,0:0|1:0,0:0:0:0:
12,126,68607,1,0,0:0:0:0:
39,211,68952,1,0,0:0:0:0:
15,298,69297,2,0,P|104:355|267:342,1,269.999991760254,2|0,3:2|1:0,0:0:0:0:
352,334,70676,2,0,P|420:339|471:331,1,89.9999972534181,2|2,0:0|0:0,0:0:0:0:
502,271,71366,5,2,3:2:0:0:
502,271,71538,1,0,0:0:0:0:
431,215,71883,2,0,P|435:132|412:69,1,134.999995880127,2|0,0:0|1:0,0:0:0:0:
383,1,72745,2,0,P|439:-2|494:2,2,89.9999972534181,0|0|0,0:0|0:0|3:0,0:0:0:0:
307,51,73780,5,0,0:0:0:0:
217,62,74124,1,0,0:0:0:0:
127,74,74469,1,0,3:0:0:0:
39,53,74814,2,0,P|45:115|55:166,1,89.9999972534181
31,240,75504,6,0,P|114:238|154:234,1,100,6|0,3:1|0:0,0:0:0:0:
180,228,76021,1,0,3:0:0:0:
319,174,76538,2,0,P|326:118|320:54,1,100,2|0,1:0|3:0,0:0:0:0:
307,27,77055,2,0,P|358:25|433:13,1,100,2|0,0:1|0:0,0:0:0:0:
454,4,77573,2,0,P|443:116|449:173,1,150,2|0,3:1|3:0,0:0:0:0:
475,299,78607,1,0,1:0:0:0:
392,358,78952,2,0,P|319:357|275:352,1,100,2|2,3:1|3:1,0:0:0:0:
223,281,79642,5,2,3:1:0:0:
223,281,79814,1,0,0:0:0:0:
307,227,80159,2,0,P|309:162|302:93,1,100,2|0,3:1|0:0,0:0:0:0:
300,77,80676,1,0,1:0:0:0:
221,14,81021,1,2,3:1:0:0:
130,57,81366,1,2,3:1:0:0:
40,13,81711,2,0,P|9:165|17:199,1,150,2|0,3:1|3:0,0:0:0:0:
23,305,82745,1,0,1:0:0:0:
94,375,83090,2,0,P|156:379|213:376,1,100,0|2,3:0|3:1,0:0:0:0:
294,382,83780,6,0,P|291:330|293:277,1,100,2|0,3:1|0:0,0:0:0:0:
305,233,84297,2,0,P|313:158|306:76,1,150,2|0,3:1|1:0,0:0:0:0:
370,5,85159,1,2,3:1:0:0:
462,42,85504,1,2,3:1:0:0:
494,136,85849,2,0,P|486:249|493:322,1,150,2|0,3:1|3:0,0:0:0:0:
377,384,86883,1,0,1:0:0:0:
303,315,87228,2,0,P|305:258|295:188,1,100,2|2,3:1|3:1,0:0:0:0:
387,160,87917,6,0,P|366:55|310:28,1,150,2|0,3:1|3:0,0:0:0:0:
185,43,88952,2,0,P|114:28|76:15,2,100,2|2|2,1:0|3:1|3:1,0:0:0:0:
252,121,89986,1,2,3:1:0:0:
206,210,90331,1,0,0:0:0:0:
250,299,90676,1,0,0:0:0:0:
187,379,91021,2,0,P|133:375|72:375,1,100,0|2,1:0|3:1,0:0:0:0:
15,304,91711,1,2,3:1:0:0:
68,219,92055,6,0,P|83:117|61:46,1,150,6|0,3:1|3:0,0:0:0:0:
206,3,93090,2,0,P|260:4|333:0,1,100,2|0,1:0|3:0,0:0:0:0:
356,0,93607,2,0,P|366:68|359:123,1,100,2|0,0:1|0:0,0:0:0:0:
327,133,94124,2,0,P|309:282|324:352,1,200,2|0,3:1|0:0,0:0:0:0:
405,379,95159,1,0,1:0:0:0:
493,331,95504,2,0,P|495:272|489:213,1,100,2|2,3:1|3:1,0:0:0:0:
431,158,96193,5,2,3:1:0:0:
431,158,96366,1,0,0:0:0:0:
335,188,96711,2,0,P|242:188|205:185,1,100,2|0,3:1|0:0,0:0:0:0:
185,182,97228,1,0,1:0:0:0:
93,222,97573,1,2,3:1:0:0:
6,172,97917,1,2,3:1:0:0:
12,72,98262,2,0,P|112:93|222:60,1,200,2|0,3:1|0:0,0:0:0:0:
287,11,99297,1,0,1:0:0:0:
380,45,99642,2,0,P|458:48|510:43,1,100,2|2,3:1|3:1,0:0:0:0:
509,141,100331,6,0,P|422:149|342:144,1,150,2|0,3:1|3:0,0:0:0:0:
215,103,101366,1,0,1:0:0:0:
122,140,101711,2,0,P|119:206|123:262,1,100,2|2,3:1|3:1,0:0:0:0:
45,305,102400,2,0,P|126:286|228:302,1,150,2|0,3:1|3:0,0:0:0:0:
325,360,103435,1,0,1:0:0:0:
423,374,103780,1,2,3:1:0:0:
504,316,104124,1,2,3:1:0:0:
505,215,104469,6,0,P|500:135|505:55,2,150,4|0|0,3:1|3:0|1:0,0:0:0:0:
412,254,105849,2,0,P|409:192|404:137,1,100,0|0,0:0|3:0,0:0:0:0:
332,85,106538,2,0,P|267:91|217:88,1,100,0|0,3:0|0:0,0:0:0:0:
186,68,107055,2,0,P|103:64|17:73,1,150,0|2,3:0|0:0,0:0:0:0:
500,368,125159,6,0,P|427:348|295:365,1,179.999994506836,2|0,3:2|0:0,0:0:0:0:
234,367,126193,1,2,1:2:0:0:
234,367,126366,1,0,0:0:0:0:
145,352,126711,2,0,P|149:300|145:198,1,134.999995880127,0|0,0:0|3:0,0:0:0:0:
140,172,127400,1,2,0:0:0:0:
47,74,127917,1,0,0:0:0:0:
117,18,128262,2,0,P|168:19|223:30,2,89.9999972534181,0|0|0,1:0|0:0|0:0,0:0:0:0:
47,74,129297,6,0,P|48:130|39:191,1,89.9999972534181,0|0,3:0|0:0,0:0:0:0:
22,251,129986,1,2,0:0:0:0:
42,338,130331,2,0,P|127:327|226:362,1,179.999994506836,2|0,1:2|0:0,0:0:0:0:
252,380,131193,1,0,0:0:0:0:
252,380,131366,1,2,3:2:0:0:
337,350,131711,2,0,P|339:304|332:240,1,89.9999972534181,0|0,0:0|3:0,0:0:0:0:
293,180,132400,1,0,1:0:0:0:
308,94,132745,1,0,0:0:0:0:
308,94,132917,2,0,P|355:85|426:81,1,89.9999972534181,0|0,3:0|0:0,0:0:0:0:
432,52,133435,6,0,P|491:91|501:178,1,134.999995880127,0|2,3:0|0:0,0:0:0:0:
484,240,134297,1,0,0:0:0:0:
484,240,134469,2,0,P|473:306|470:354,1,89.9999972534181,2|2,1:2|0:0,0:0:0:0:
394,376,135159,1,0,3:0:0:0:
316,330,135504,2,0,L|261:338,2,44.999998626709,2|0|0,3:2|0:0|0:0,0:0:0:0:
357,250,136193,1,2,3:2:0:0:
308,174,136538,2,0,P|305:112|313:65,1,89.9999972534181,2|0,1:2|0:0,0:0:0:0:
140,13,137573,5,0,3:0:0:0:
53,38,137917,2,0,P|52:108|55:155,1,89.9999972534181,2|0,0:0|0:0,0:0:0:0:
18,211,138607,1,2,3:2:0:0:
64,287,138952,2,0,P|120:292|175:293,1,89.9999972534181
211,362,139642,2,0,P|201:276|230:151,1,179.999994506836,2|0,3:2|0:0,0:0:0:0:
199,96,140676,1,0,1:0:0:0:
250,22,141021,2,0,P|306:15|375:15,1,89.9999972534181,0|0,3:0|0:0,0:0:0:0:
378,95,141711,6,0,P|462:87|542:91,2,134.999995880127,2|2|0,3:2|3:2|1:0,0:0:0:0:
282,247,143435,1,0,3:0:0:0:
315,330,143780,2,0,P|367:338|428:337,1,89.9999972534181,2|0,3:2|0:0,0:0:0:0:
448,346,144297,2,0,P|469:288|447:220,1,134.999995880127,0|2,0:0|1:2,0:0:0:0:
291,130,145504,1,0,0:0:0:0:
205,158,145849,1,0,3:0:0:0:
120,128,146193,2,0,P|62:128|3:134,1,89.9999972534181,0|2,0:0|0:0,0:0:0:0:
9,218,146883,2,0,P|16:282|16:327,2,89.9999972534181,2|0|0,1:2|0:0|0:0,0:0:0:0:
27,129,147917,5,2,3:2:0:0:
91,66,148262,2,0,P|157:77|203:82,1,89.9999972534181
245,141,148952,2,0,P|233:220|232:270,1,89.9999972534181,0|0,1:0|0:0,0:0:0:0:
234,275,149469,2,0,P|319:281|372:294,1,134.999995880127,0|0,0:0|3:0,0:0:0:0:
443,243,150331,1,0,0:0:0:0:
443,243,150504,2,0,P|450:181|438:128,1,89.9999972534181,2|0,3:2|0:0,0:0:0:0:
422,115,151021,2,0,P|473:116|528:112,2,89.9999972534181,2|2|2,1:2|0:0|0:0,0:0:0:0:
356,53,152055,6,0,P|201:58|148:48,1,179.999994506836,2|0,0:0|0:0,0:0:0:0:
92,22,153090,1,0,1:0:0:0:
19,75,153435,2,0,P|11:148|13:186,1,89.9999972534181,0|0,3:0|3:0,0:0:0:0:
24,253,154124,1,2,3:2:0:0:
139,323,154642,2,0,P|144:233|131:157,1,134.999995880127,2|0,3:2|1:0,0:0:0:0:
121,100,155504,2,0,P|182:100|240:95,1,89.9999972534181,2|0,3:2|0:0,0:0:0:0:
282,44,156193,6,0,P|370:49|448:43,2,134.999995880127,2|0|0,3:2|3:0|3:0,0:0:0:0:
49,222,158262,6,0,P|59:282|57:373,2,134.999995880127,2|2|0,3:2|0:0|1:0,0:0:0:0:
32,133,159642,1,0,0:0:0:0:
84,60,159986,1,0,0:0:0:0:
176,58,160331,2,0,P|232:55|289:46,1,89.9999972534181,2|0,3:2|0:0,0:0:0:0:
306,29,160849,2,0,P|302:126|316:190,1,134.999995880127,2|0,0:0|1:0,0:0:0:0:
277,247,161711,1,0,0:0:0:0:
309,330,162055,1,0,0:0:0:0:
391,365,162400,6,0,P|450:360|510:347,1,89.9999972534181,2|0,3:2|0:0,0:0:0:0:
506,317,162917,1,2,0:0:0:0:
451,193,163435,2,0,P|471:140|482:91,1,89.9999972534181,2|0,1:2|0:0,0:0:0:0:
488,63,163953,1,2,0:0:0:0:
353,70,164469,2,0,P|284:37|202:-18,1,134.999995880127,2|0,3:2|0:0,0:0:0:0:
111,61,165504,2,0,P|43:82|18:88,1,89.9999972534181,0|0,1:0|0:0,0:0:0:0:
12,130,166021,2,0,P|19:212|32:257,1,89.9999972534181
36,261,166538,5,2,3:2:0:0:
24,350,166883,1,0,0:0:0:0:
24,350,167055,2,0,P|116:342|186:377,1,134.999995880127,2|0,0:0|1:0,0:0:0:0:
241,379,167917,1,0,0:0:0:0:
293,305,168262,1,0,0:0:0:0:
251,224,168607,2,0,P|246:143|388:9,1,269.999991760254,2|0,3:2|1:0,0:0:0:0:
452,42,169986,2,0,P|463:113|463:169,1,89.9999972534181,2|2,0:0|0:0,0:0:0:0:
483,219,170676,5,2,3:2:0:0:
483,219,170849,1,0,0:0:0:0:
417,279,171193,2,0,P|359:269|276:240,1,134.999995880127,2|0,0:0|1:0,0:0:0:0:
215,189,172055,2,0,P|210:129|200:76,2,89.9999972534181,0|0|0,0:0|0:0|3:0,0:0:0:0:
124,184,173090,5,0,0:0:0:0:
108,272,173435,1,0,0:0:0:0:
98,361,173780,1,0,3:0:0:0:
185,342,174124,2,0,P|249:349|300:351,1,89.9999972534181
371,377,174814,6,0,P|372:300|398:215,1,150,6|0,3:1|3:0,0:0:0:0:
410,183,175504,1,2,0:1:0:0:
320,138,175849,2,0,P|260:153|209:159,1,100,2|0,1:0|3:0,0:0:0:0:
181,187,176366,2,0,P|114:175|59:152,1,100,2|0,0:1|0:0,0:0:0:0:
35,174,176883,2,0,P|9:86|52:17,1,150,2|0,3:1|3:0,0:0:0:0:
178,0,177917,1,0,1:0:0:0:
269,40,178262,2,0,P|334:39|414:31,1,100,2|2,3:1|3:1,0:0:0:0:
465,8,178952,5,2,3:1:0:0:
465,8,179124,1,0,0:0:0:0:
502,100,179469,2,0,P|494:188|499:284,1,150,2|0,3:1|1:0,0:0:0:0:
423,318,180331,1,2,3:1:0:0:
423,318,180504,2,0,P|353:342|304:348,1,100
281,366,181021,2,0,P|252:288|295:225,1,150,2|0,3:1|3:0,0:0:0:0:
257,86,182055,1,0,1:0:0:0:
200,3,182400,2,0,P|122:0|70:2,1,100,0|2,3:0|3:1,0:0:0:0:
23,64,183090,5,2,3:1:0:0:
23,64,183262,1,0,0:0:0:0:
106,119,183607,2,0,P|185:121|239:117,1,100,2|0,3:1|0:0,0:0:0:0:
254,109,184124,1,0,1:0:0:0:
345,67,184469,1,2,3:1:0:0:
425,126,184814,1,2,3:1:0:0:
394,221,185159,2,0,P|401:333|395:386,1,150,2|0,3:1|3:0,0:0:0:0:
251,337,186193,1,0,1:0:0:0:
166,283,186538,2,0,P|101:289|43:288,1,100,2|2,3:1|3:1,0:0:0:0:
9,372,187228,6,0,P|26:302|-16:231,1,150,2|0,3:1|3:0,0:0:0:0:
45,152,188090,1,0,0:0:0:0:
45,152,188262,2,0,P|37:91|41:38,1,100,2|2,1:0|3:1,0:0:0:0:
124,0,188952,1,2,3:1:0:0:
217,36,189297,2,0,P|283:25|339:9,2,100,2|0|0,3:1|0:0|0:0,0:0:0:0:
163,120,190331,1,0,1:0:0:0:
227,196,190676,1,2,3:1:0:0:
315,149,191021,1,2,3:1:0:0:
309,49,191366,6,0,P|368:36|479:45,1,150,6|0,3:1|3:0,0:0:0:0:
503,182,192400,2,0,P|492:263|492:314,1,100,2|0,1:0|3:0,0:0:0:0:
493,331,192917,2,0,P|433:313|360:311,1,100,2|0,0:1|0:0,0:0:0:0:
352,334,193435,2,0,P|274:317|172:319,1,150,2|0,3:1|3:0,0:0:0:0:
250,172,194469,2,0,P|255:93|250:48,2,100,0|2|2,1:0|3:1|3:1,0:0:0:0:
214,265,195504,5,2,3:1:0:0:
214,265,195676,1,0,0:0:0:0:
248,358,196021,2,0,P|323:362|374:352,1,100,2|0,3:1|0:0,0:0:0:0:
393,339,196538,2,0,P|452:358|509:368,2,100,0|2|2,1:0|3:1|3:1,0:0:0:0:
356,245,197573,2,0,P|359:180|356:129,1,100,2|0,3:1|0:0,0:0:0:0:
362,95,198090,2,0,P|286:110|208:88,1,150,0|0,3:0|1:0,0:0:0:0:
149,18,198952,1,2,3:1:0:0:
58,60,199297,1,2,3:1:0:0:
61,160,199642,6,0,P|67:226|62:324,1,150,2|0,3:1|3:0,0:0:0:0:
195,380,200676,1,0,1:0:0:0:
251,297,201021,2,0,P|254:234|250:177,1,100,2|2,3:1|3:1,0:0:0:0:
177,130,201711,2,0,P|170:55|244:0,1,150,2|0,3:1|3:0,0:0:0:0:
361,54,202745,1,0,1:0:0:0:
452,13,203090,1,2,3:1:0:0:
494,103,203435,1,2,3:1:0:0:
403,146,203780,6,0,P|412:251|406:314,2,150,4|0|0,3:1|3:0|1:0,0:0:0:0:
305,167,205159,2,0,P|302:223|307:294,1,100,0|0,0:0|3:0,0:0:0:0:
294,366,205849,2,0,P|240:361|176:361,1,100,0|0,3:0|0:0,0:0:0:0:
148,380,206366,2,0,P|148:297|137:215,1,150,0|2,3:0|0:0,0:0:0:0:
72,46,208090,5,0,3:0:0:0:
279,110,210158,1,0,0:0:0:0:
220,336,212227,1,0,0:0:0:0:
3,261,213262,1,0,0:0:0:0:
76,198,213664,2,0,P|124:198|185:204,1,89.9999972534181
263,211,214414,2,0,P|278:123|251:37,1,179.999994506836,2|0,0:0|0:0,0:0:0:0:
465,372,217345,6,0,P|463:315|468:248,1,89.9999972534181,0|0,0:0|3:0,0:0:0:0:
471,237,217862,1,0,3:0:0:0:
21,118,219988,5,0,0:0:0:0:
332,384,221328,2,0,P|334:336|329:272,1,100
316,198,221999,2,0,P|166:217|93:200,1,224.999993133545,2|0,0:0|0:0,0:0:0:0:
56,178,223033,1,0,0:0:0:0:
14,97,223378,2,0,P|14:48|8:-3,1,89.9999972534181
99,15,224067,1,0,0:0:0:0:
177,125,224585,1,0,0:0:0:0:
55,200,225117,1,0,0:0:0:0:
120,327,225691,1,0,0:0:0:0:
249,253,226262,6,0,P|242:152|251:26,1,224.999993133545,2|0,0:0|0:0,0:0:0:0:
337,4,227468,1,0,0:0:0:0:
330,138,227985,1,0,0:0:0:0:
334,272,228502,2,0,P|232:278|123:265,1,179.999994506836
64,265,229537,1,0,0:0:0:0:
14,9,230658,6,0,P|42:11|77:17,1,44.999998626709,0|0,3:0|0:0,0:0:0:0:
187,54,231328,2,0,P|184:105|187:176,1,89.9999972534181,0|2,0:0|0:0,0:0:0:0:
246,299,232724,1,0,3:0:0:0:
369,254,233295,1,0,3:0:0:0:
319,132,233815,1,0,3:0:0:0:
201,178,234360,1,0,3:0:0:0:
71,134,235006,5,2,0:0:0:0:
455,6,236557,6,0,P|454:66|458:110,1,89.9999972534181
468,175,237189,1,0,0:0:0:0:
264,320,238266,5,0,0:0:0:0:
14,239,239429,6,0,P|63:236|123:239,1,89.9999972534181,2|0,0:0|0:0,0:0:0:0:
187,288,240229,2,0,P|227:287|260:282,1,44.999998626709
281,286,240595,1,0,0:0:0:0:
353,242,240970,2,0,P|405:214|445:187,1,89.9999972534181
480,109,241770,6,0,B|541:67|504:-41|405:-35|305:30|263:177|351:334|532:309|532:309|480:287|461:247|505:214|420:166|347:172|289:197|251:249,1,974.399995242188,10|8,0:0|0:1,0:0:0:0:
