osu file format v14

[General]
AudioFilename: audio.mp3
AudioLeadIn: 0
PreviewTime: 53885
Countdown: 0
SampleSet: Soft
StackLeniency: 0.3
Mode: 0
LetterboxInBreaks: 0
WidescreenStoryboard: 1

[Editor]
DistanceSpacing: 1.2
BeatDivisor: 4
GridSize: 16
TimelineZoom: 1.6

[Metadata]
Title:Taishou A
TitleUnicode:Taishou A
Artist:anNina
ArtistUnicode:anNina
Creator:face0xff
Version:Hard
Source:Higurashi no Naku Koro ni Kai
Tags:when they cry ending ed annabel bermei inazawa 対象 adonde vuelvo natal subject a where i return to taishou.a
BeatmapID:1403816
BeatmapSetID:654775

[Difficulty]
HPDrainRate:5.5
CircleSize:4
OverallDifficulty:6
ApproachRate:7.6
SliderMultiplier:0.8
SliderTickRate:1

[Events]
//Background and Video events
0,0,"632375.jpg",0,0
//Break Periods
//Storyboard Layer 0 (Background)
//Storyboard Layer 1 (Fail)
//Storyboard Layer 2 (Pass)
//Storyboard Layer 3 (Foreground)
//Storyboard Sound Samples

[TimingPoints]
5264,344.827586206897,3,2,1,40,1,0
5608,-133.333333333333,3,2,1,40,0,0
8022,-100,3,2,1,40,0,0
8367,-142.857142857143,3,2,1,40,0,0
10781,-100,3,2,1,40,0,0
13367,-83.3333333333333,3,2,1,40,0,0
13884,-133.333333333333,3,2,1,40,0,0
15091,-100,3,2,1,40,0,0
17677,-200,3,2,1,40,0,0
20091,-125,3,2,1,40,0,0
20781,-111.111111111111,3,2,1,40,0,0
22505,-100,3,2,1,40,0,0
22850,-76.9230769230769,3,2,1,40,0,0
23367,-100,3,2,1,40,0,0
24919,-83.3333333333333,3,2,1,40,0,0
28712,-111.111111111111,3,2,1,40,0,0
29057,-83.3333333333333,3,2,1,40,0,0
31470,-60.6060606060606,3,2,1,40,0,0
33195,-100,3,2,1,40,0,0
33884,-83.3333333333333,3,2,1,40,0,0
39229,-83.3333333333333,3,2,1,70,0,0
41126,-100,3,2,1,70,0,0
41988,-83.3333333333333,3,2,1,70,0,0
45608,-100,3,2,1,70,0,0
48539,-83.3333333333333,3,2,1,70,0,0
55953,-100,3,2,1,90,0,1
58022,-133.333333333333,3,2,1,90,0,1
59401,-100,3,2,1,90,0,1
60608,-90.9090909090909,3,2,1,90,0,1
62160,-100,3,2,1,90,0,1
64229,-66.6666666666667,3,2,1,90,0,1
64746,-76.9230769230769,3,2,1,90,0,1
66298,-95.2380952380952,3,2,1,90,0,1
67677,-66.6666666666667,3,2,1,90,0,1
70436,-83.3333333333333,3,2,1,90,0,1
72505,-100,3,2,1,90,0,1
78712,-133.333333333333,3,2,1,90,0,1
84229,-100,3,2,1,90,0,1
84919,-111.111111111111,3,2,1,50,0,0

[Colours]
Combo1 : 139,171,224
Combo2 : 255,47,47
Combo3 : 140,26,255
Combo4 : 35,243,129
SliderBorder : 255,255,255

[HitObjects]
74,302,5608,6,0,L|136:307,1,60.0000022888184
252,316,6298,1,0,0:0:0:0:
150,203,6643,1,0,0:0:0:0:
150,203,6988,2,0,B|116:219|116:219|95:246,1,60.0000022888184
263,218,7677,1,0,0:0:0:0:
263,218,8022,2,0,P|274:198|274:152,1,40
362,127,8367,2,0,L|370:302,1,167.999994873047
226,194,10781,6,0,B|193:181|193:181|143:197,1,80
163,285,11470,2,0,P|97:277|56:199,1,160
80,119,12332,1,0,0:0:0:0:
137,57,12505,1,0,0:0:0:0:
188,216,12850,5,0,0:0:0:0:
245,154,13022,5,0,0:0:0:0:
329,147,13195,1,0,0:0:0:0:
188,216,13367,38,0,L|184:274,1,47.9999985351563,0|14,0:0|0:0,0:0:0:0:
381,307,13884,2,0,P|345:312|318:328,1,60.0000022888184
375,207,14574,5,0,0:0:0:0:
495,168,14919,1,0,0:0:0:0:
495,168,15091,2,0,B|502:212|502:212|492:259,1,80
471,327,15608,2,0,P|424:321|387:292,1,80
290,172,16298,2,0,L|275:222,1,40
199,181,16643,2,0,P|212:116|295:78,1,160
131,63,17677,2,0,P|64:73|30:115,1,120
119,165,19057,5,0,0:0:0:0:
84,341,19401,1,0,0:0:0:0:
254,283,19746,1,0,0:0:0:0:
380,301,20091,2,0,B|364:329|364:329|333:345,1,64
254,283,20781,2,0,L|265:162,1,107.999996704102
176,202,21470,1,0,0:0:0:0:
107,142,21643,5,0,0:0:0:0:
269,98,21815,1,14,0:0:0:0:
459,144,22505,6,0,P|435:148|415:157,1,40
338,209,22850,2,0,P|340:269|324:333,1,103.999995239258
416,289,23367,2,0,B|340:288|340:288|282:305,1,120,0|10,0:0|0:0,0:0:0:0:
149,240,24229,1,0,0:0:0:0:
79,96,24574,6,0,L|69:167,1,66.6666666666667
67,188,24919,2,0,P|95:149|140:134,1,95.9999970703126
225,91,25436,2,0,L|238:201,1,95.9999970703126
316,133,25953,2,0,P|376:134|429:145,1,95.9999970703126,10|0,0:0|0:0,0:0:0:0:
120,194,27332,6,0,B|96:232|93:257|93:257|109:242|136:241,1,95.9999970703126
143,329,28022,2,0,B|161:328|177:309|177:309|195:330|240:325,1,95.9999970703126,10|0,0:0|0:0,0:0:0:0:
231,218,28712,2,0,P|244:246|225:242,1,53.9999983520508
237,248,29057,2,0,P|243:266|246:208,1,287.999991210938,0|10,0:0|0:0,0:0:0:0:
129,295,30608,5,0,0:0:0:0:
129,287,30695,1,0,0:0:0:0:
129,279,30781,2,0,L|130:228,1,47.9999985351563
54,96,31470,6,0,L|140:76,1,66.0000006294251
220,197,31988,2,0,L|134:177,1,66.0000006294251,0|10,0:0|0:0,0:0:0:0:
267,100,32505,1,0,0:0:0:0:
398,87,32850,1,0,0:0:0:0:
506,162,33195,2,0,P|506:217|490:254,1,80
408,296,33884,2,0,P|447:339|489:349,1,95.9999970703126,0|10,0:0|0:0,0:0:0:0:
278,265,34919,5,0,0:0:0:0:
285,242,35091,1,0,0:0:0:0:
291,218,35264,2,0,L|193:237,1,95.9999970703126
216,203,35781,2,0,P|174:181|214:207,1,143.999995605469,0|10,0:0|0:0,0:0:0:0:
304,135,36643,5,0,0:0:0:0:
66,168,36988,1,0,0:0:0:0:
204,274,37332,2,0,B|182:325|133:346|133:346|192:335|234:366|234:366|222:334|221:316|221:316|255:345|304:353|344:318,1,383.99998828125
113,256,39229,5,2,0:0:0:0:
273,231,39401,1,2,0:0:0:0:
26,160,39746,5,2,0:0:0:0:
187,149,39918,1,2,0:0:0:0:
113,262,40264,5,2,0:0:0:0:
102,101,40436,2,0,P|129:62|191:48,1,95.9999970703126,14|2,0:0|0:0,0:0:0:0:
289,79,41126,2,0,B|285:101|285:101|286:121,1,40,2|2,0:0|0:0,0:0:0:0:
383,97,41470,2,0,P|394:139|391:186,1,80,2|2,0:0|0:0,0:0:0:0:
288,206,41988,2,0,L|434:229,1,143.999995605469,2|10,0:0|0:0,0:0:0:0:
311,304,42850,1,2,0:0:0:0:
40,284,43539,6,0,B|62:255|62:255|124:228,1,95.9999970703126,2|2,0:0|0:0,0:0:0:0:
208,269,44057,2,0,B|186:298|186:298|124:325,1,95.9999970703126,2|2,0:0|0:0,0:0:0:0:
31,281,44574,2,0,B|56:250|56:250|125:223,1,95.9999970703126,10|2,0:0|0:0,0:0:0:0:
216,271,45092,2,0,B|191:302|191:302|122:329,1,95.9999970703126,2|2,0:0|0:0,0:0:0:0:
22,263,45608,2,0,P|37:197|47:279,1,240,2|10,0:0|0:0,0:0:0:0:
298,127,47505,6,0,P|283:104|262:93,1,40,2|2,0:0|0:0,0:0:0:0:
154,119,48022,2,0,P|169:142|190:153,1,40,2|2,0:0|0:0,0:0:0:0:
303,221,48539,2,0,L|363:211,1,47.9999985351563,2|10,0:0|0:0,0:0:0:0:
466,127,49057,2,0,P|475:177|466:239,2,95.9999970703126,2|2|2,0:0|0:0|0:0,0:0:0:0:
344,49,50091,5,2,0:0:0:0:
282,122,50264,1,2,0:0:0:0:
351,48,50608,5,2,0:0:0:0:
361,188,50781,1,10,0:0:0:0:
174,246,51126,6,0,P|227:241|270:267,1,95.9999970703126,2|2,0:0|0:0,0:0:0:0:
206,340,51815,1,2,0:0:0:0:
206,340,51988,1,2,0:0:0:0:
256,192,52160,12,0,53884,0:0:0:0:
84,129,55264,5,2,0:0:0:0:
84,129,55608,1,2,0:0:0:0:
84,129,55953,2,0,P|166:125|242:161,1,160,6|2,0:0|0:0,0:0:0:0:
141,237,56988,2,0,B|150:293|150:293|143:323,1,80,10|2,0:0|0:0,0:0:0:0:
253,273,57505,2,0,B|338:261,1,80,2|2,0:0|0:0,0:0:0:0:
322,154,58022,2,0,P|376:168|432:66,1,180.000006866455,2|10,0:0|0:0,0:0:0:0:
198,96,59401,6,0,P|183:136|184:190,1,80,2|2,0:0|0:0,0:0:0:0:
72,227,60091,2,0,L|80:266,1,40,2|2,0:0|0:0,0:0:0:0:
181,333,60436,1,2,0:0:0:0:
181,333,60608,2,0,B|231:285|256:347|313:283,1,132.00000402832,2|10,0:0|0:0,0:0:0:0:
213,189,61470,5,2,0:0:0:0:
448,232,61815,5,2,0:0:0:0:
294,29,62160,6,0,L|310:268,1,240,2|10,0:0|0:0,0:0:0:0:
151,99,63884,5,2,0:0:0:0:
56,265,64229,2,0,B|74:269|97:251|97:251|126:288|181:274,1,120.000004577637,2|2,0:0|0:0,0:0:0:0:
203,183,64746,2,0,P|257:218|253:317,1,155.999992858887,2|10,0:0|0:0,0:0:0:0:
373,330,65608,5,2,0:0:0:0:
382,205,65953,1,2,0:0:0:0:
390,80,66298,2,0,L|373:336,1,251.999992309571,2|10,0:0|0:0,0:0:0:0:
256,277,67677,6,0,P|228:270|184:268,1,60.0000022888184,2|2,0:0|0:0,0:0:0:0:
73,329,68022,2,0,P|102:331|131:338,1,60.0000022888184,2|2,0:0|0:0,0:0:0:0:
109,247,68367,2,0,P|115:182|100:116,1,120.000004577637,2|2,0:0|0:0,0:0:0:0:
219,64,68884,1,2,0:0:0:0:
205,162,69057,1,2,0:0:0:0:
309,120,69229,1,2,0:0:0:0:
242,281,69401,5,10,0:0:0:0:
457,232,69746,5,10,0:0:0:0:
372,347,70091,5,10,0:0:0:0:
512,154,70436,6,0,P|467:133|414:145,1,95.9999970703126,10|2,0:0|0:0,0:0:0:0:
315,98,70953,1,2,0:0:0:0:
305,213,71126,1,2,0:0:0:0:
209,204,71298,5,2,0:0:0:0:
367,172,71470,1,10,0:0:0:0:
164,72,71815,5,10,0:0:0:0:
170,287,72160,5,10,0:0:0:0:
20,184,72505,6,0,P|99:191|180:199,1,160,14|2,0:0|0:0,0:0:0:0:
329,269,73539,2,0,P|320:318|328:361,1,80,10|2,0:0|0:0,0:0:0:0:
417,314,74057,2,0,P|426:265|418:222,1,80,2|2,0:0|0:0,0:0:0:0:
348,95,74574,2,0,B|353:138|324:177|324:177|366:129|465:139,1,240,2|10,0:0|0:0,0:0:0:0:
231,231,75953,6,0,L|237:280,1,40,2|2,0:0|0:0,0:0:0:0:
321,308,76298,2,0,L|315:259,1,40,2|2,0:0|0:0,0:0:0:0:
303,135,76643,1,2,0:0:0:0:
119,205,76988,1,2,0:0:0:0:
119,205,77160,2,0,P|164:217|197:289,1,120,2|10,0:0|0:0,0:0:0:0:
199,65,78022,5,2,0:0:0:0:
98,207,78367,5,2,0:0:0:0:
199,340,78712,6,0,P|265:310|375:312,1,180.000006866455,2|10,0:0|0:0,0:0:0:0:
284,174,80091,6,0,L|288:111,2,60.0000022888184,2|2|2,0:0|0:0|0:0,0:0:0:0:
338,256,81126,5,2,0:0:0:0:
404,218,81298,1,2,0:0:0:0:
460,271,81470,1,2,0:0:0:0:
428,340,81643,1,2,0:0:0:0:
352,331,81815,5,10,0:0:0:0:
230,103,82160,6,0,B|266:105|266:105|291:113,2,60.0000022888184,2|2|2,0:0|0:0|0:0,0:0:0:0:
176,185,83195,5,2,0:0:0:0:
110,147,83367,1,2,0:0:0:0:
54,200,83539,1,2,0:0:0:0:
86,269,83712,1,2,0:0:0:0:
162,260,83884,5,10,0:0:0:0:
265,166,84229,6,0,P|300:147|340:149,1,80,2|0,0:0|0:0,0:0:0:0:
453,181,84746,5,0,0:0:0:0:
453,181,84832,1,0,0:0:0:0:
453,181,84919,2,0,B|451:228|462:258|462:258|408:241|346:251|277:312|288:382|432:401|469:299|322:244|322:244|286:294|222:273|222:273|211:296|216:322|216:322|207:333|207:333|212:355,1,647.99998022461,2|0,0:0|0:0,0:0:0:0:
