osu file format v14

[General]
AudioFilename: [SFM] We like to party.mp3
AudioLeadIn: 0
PreviewTime: -1
Countdown: 1
SampleSet: None
StackLeniency: 0.7
Mode: 0
LetterboxInBreaks: 1
WidescreenStoryboard: 1

[Editor]
Bookmarks: 8212,10087,35896
DistanceSpacing: 1
BeatDivisor: 16
GridSize: 8
TimelineZoom: 5.899997

[Metadata]
Title:We like to party
TitleUnicode:We like to party
Artist:an0nymoose
ArtistUnicode:an0nymoose
Creator:Doomsday is Bad
Version:25
Source:
Tags:
BeatmapID:2042296
BeatmapSetID:975808

[Difficulty]
HPDrainRate:7
CircleSize:4
OverallDifficulty:8
ApproachRate:9
SliderMultiplier:3.59999990463257
SliderTickRate:1

[Events]
//Background and Video events
0,0,"25.jpg",0,0
//Break Periods
//Storyboard Layer 0 (Background)
//Storyboard Layer 1 (Fail)
//Storyboard Layer 2 (Pass)
//Storyboard Layer 3 (Foreground)
//Storyboard Sound Samples

[TimingPoints]
51,441.176470588235,4,1,0,80,1,0
7109,-50,4,1,0,80,0,0
10198,-100,4,1,0,80,0,0
27183,-50,4,1,0,80,0,0
28286,220.588235294118,4,1,0,95,1,1
28286,-50,4,1,0,95,0,1

[HitObjects]
45,307,51,6,0,L|58:158,1,89.9999976158143
157,165,271,2,0,L|170:16,1,89.9999976158143
270,24,492,2,0,P|295:132|382:167,1,179.999995231629
428,117,823,1,0,0:0:0:0:
342,37,933,6,0,L|196:20,1,89.9999976158143
185,122,1153,2,0,L|31:122,1,89.9999976158143
24,216,1374,2,0,P|137:248|221:172,1,179.999995231629
253,124,1705,1,0,0:0:0:0:
340,47,1815,6,0,L|349:152,1,89.9999976158143
460,170,2036,2,0,L|459:279,1,89.9999976158143
374,340,2256,2,0,P|276:349|185:232,1,179.999995231629
193,188,2587,1,0,0:0:0:0:
145,80,2698,6,0,L|24:36,1,89.9999976158143
213,79,2918,2,0,L|334:35,1,89.9999976158143
168,142,3139,2,0,P|169:258|226:313,1,179.999995231629
323,325,3470,1,0,0:0:0:0:
439,317,3580,6,0,L|494:184,1,89.9999976158143
459,74,3800,2,0,L|404:207,1,89.9999976158143
361,302,4021,2,0,P|350:193|257:146,1,179.999995231629
181,158,4352,1,0,0:0:0:0:
72,115,4462,6,0,L|48:23,1,89.9999976158143
152,134,4683,2,0,L|176:226,1,89.9999976158143
227,117,4903,2,0,P|88:155|77:235,1,179.999995231629
95,290,5234,1,0,0:0:0:0:
200,341,5345,5,0,0:0:0:0:
200,341,5455,1,0,0:0:0:0:
389,312,5565,1,0,0:0:0:0:
389,312,5675,1,0,0:0:0:0:
232,109,5786,2,0,L|298:338,1,179.999995231629
386,335,6117,1,0,0:0:0:0:
452,239,6227,6,0,L|462:115,1,89.9999976158143
394,51,6448,2,0,L|386:140,1,89.9999976158143
303,222,6668,2,0,L|318:21,1,179.999995231629
201,15,6999,1,0,0:0:0:0:
91,56,7109,6,0,B|115:195|78:336|78:336|166:331|180:61|180:61|248:160|228:328|228:328|248:160|424:66|426:359|426:359|533:216|488:36|245:31,1,1799.99995231629
409,356,8764,6,0,B|368:328|271:338|271:338|368:328|466:156|466:156|343:195|345:48|345:48|177:263|52:23|52:23|-1:176|33:358|33:358|101:162|101:162|105:363|105:363|268:355|166:252|166:252|286:296|466:23,1,2339.99993801117
143,44,10418,1,0,0:0:0:0:
143,44,10528,1,0,0:0:0:0:
143,44,10639,6,0,L|123:169,1,89.9999976158143
160,302,10859,2,0,L|180:177,1,89.9999976158143
247,49,11080,2,0,P|260:220|317:272,1,179.999995231629
371,181,11411,1,0,0:0:0:0:
407,70,11521,6,0,L|282:30,1,89.9999976158143
217,97,11742,2,0,L|342:137,1,89.9999976158143
416,149,11962,2,0,B|392:232|392:232|277:262,1,179.999995231629
441,283,12293,1,0,0:0:0:0:
483,174,12403,6,0,L|466:33,1,89.9999976158143
323,27,12624,2,0,L|464:10,1,89.9999976158143
273,207,12845,2,0,L|445:51,1,179.999995231629
303,30,13175,1,0,0:0:0:0:
185,27,13286,6,0,L|37:95,1,89.9999976158143
74,177,13506,2,0,L|222:109,1,89.9999976158143
259,83,13727,2,0,B|304:160|304:160|351:76,1,179.999995231629
446,15,14058,1,0,0:0:0:0:
496,120,14168,6,0,P|456:257|374:308,1,179.999995231629
203,225,14609,2,0,P|243:88|325:37,1,179.999995231629
308,175,14940,1,0,0:0:0:0:
345,285,15050,2,0,P|398:214|408:125,1,179.999995231629
192,33,15492,1,0,0:0:0:0:
192,33,15712,1,0,0:0:0:0:
192,33,15933,5,0,0:0:0:0:
69,231,16153,2,0,P|63:295|189:329,1,179.999995231629
388,347,16595,1,0,0:0:0:0:
315,255,16705,1,0,0:0:0:0:
69,231,16815,6,0,P|63:295|98:343,1,89.9999976158143
443,231,17146,6,0,P|449:295|414:343,1,89.9999976158143
326,352,17367,1,0,0:0:0:0:
210,365,17477,1,0,0:0:0:0:
96,338,17587,1,0,0:0:0:0:
44,232,17698,6,0,L|48:48,1,179.999995231629
273,115,18139,2,0,L|269:299,1,179.999995231629
191,206,18470,1,0,0:0:0:0:
113,101,18580,2,0,L|109:280,1,179.999995231629
371,44,19021,1,0,0:0:0:0:
371,44,19242,1,0,0:0:0:0:
371,44,19462,5,0,0:0:0:0:
431,342,19683,2,0,L|444:117,1,179.999995231629
233,53,20124,1,0,0:0:0:0:
260,166,20234,1,0,0:0:0:0:
431,342,20345,6,0,L|440:172,1,89.9999976158143
351,34,20675,2,0,L|181:25,1,89.9999976158143
146,56,20896,1,0,0:0:0:0:
64,139,21006,1,0,0:0:0:0:
56,256,21117,1,0,0:0:0:0:
104,361,21227,6,0,P|195:360|337:307,1,179.999995231629
357,115,21668,2,0,P|266:116|124:169,1,179.999995231629
266,219,21999,1,0,0:0:0:0:
349,300,22109,2,0,P|262:323|172:324,1,179.999995231629
42,129,22550,1,0,0:0:0:0:
42,129,22771,1,0,0:0:0:0:
42,129,22992,5,0,0:0:0:0:
259,45,23212,2,0,L|461:46,1,179.999995231629
399,277,23653,1,0,0:0:0:0:
307,202,23764,1,0,0:0:0:0:
259,45,23874,6,0,L|409:45,1,89.9999976158143
476,241,24205,2,0,L|326:241,1,89.9999976158143
269,241,24425,1,0,0:0:0:0:
158,200,24536,1,0,0:0:0:0:
88,106,24646,1,0,0:0:0:0:
147,5,24756,6,0,L|386:25,1,179.999995231629
486,192,25198,2,0,L|247:172,1,179.999995231629
190,167,25528,1,0,0:0:0:0:
10,151,25639,2,0,L|249:171,1,179.999995231629
422,194,26080,5,0,0:0:0:0:
390,306,26190,1,0,0:0:0:0:
283,354,26300,1,0,0:0:0:0:
170,320,26411,1,0,0:0:0:0:
138,208,26521,1,0,0:0:0:0:
34,34,27183,6,0,P|224:166|273:64,1,359.999990463257
252,260,27624,2,0,P|406:202|478:350,1,359.999990463257
37,190,28065,1,0,0:0:0:0:
436,33,28286,6,0,P|433:163|227:293,1,359.999990463257
76,33,28506,2,0,P|78:163|285:293,1,359.999990463257
437,36,28727,1,0,0:0:0:0:
437,36,28947,2,0,P|412:329|86:84,1,719.999980926514
309,32,29388,5,0,0:0:0:0:
309,32,29609,2,0,P|209:333|483:203,1,719.999980926514
21,31,30050,6,0,L|413:42,1,359.999990463257
491,353,30271,2,0,L|99:342,1,359.999990463257
88,35,30491,2,0,L|480:46,1,359.999990463257
424,349,30712,2,0,L|32:338,1,359.999990463257
461,25,30933,6,0,P|440:301|332:321,1,359.999990463257
51,25,31153,2,0,P|72:301|180:321,1,359.999990463257
474,95,31374,2,0,P|453:371|345:391,1,359.999990463257
38,95,31594,2,0,P|59:371|167:391,1,359.999990463257
472,328,31815,6,0,B|324:203|432:112|432:112|324:203|240:104|240:104|324:203|136:328,1,719.999980926514
32,27,32256,1,0,0:0:0:0:
32,27,32477,2,0,B|247:91|389:55|389:55|530:120|471:338|226:362,2,719.999980926514
32,27,33138,1,0,0:0:0:0:
96,326,33469,5,0,0:0:0:0:
447,384,33580,2,0,L|483:8,1,359.999990463257
65,0,33800,2,0,L|29:376,1,359.999990463257
447,384,34021,2,0,B|326:184|483:8,1,359.999990463257
65,0,34241,2,0,B|186:200|29:376,1,359.999990463257
422,307,34793,6,0,P|373:49|290:29,1,359.999990463257
90,307,35013,2,0,P|139:49|222:29,1,359.999990463257
256,368,35234,6,0,B|256:192|8:8|8:8|256:192|504:8|504:8|256:192|256:368|256:368|256:192|8:8|8:8,1,1799.99995231629
422,307,36668,6,0,P|373:49|290:29,1,359.999990463257
90,307,36888,2,0,P|139:49|222:29,1,359.999990463257
256,368,37109,6,0,B|256:192|8:8|8:8|256:192|504:8|504:8|256:192|256:368|256:368,1,1439.99996185303
46,72,37991,5,0,0:0:0:0:
46,72,38102,2,0,L|461:94,1,359.999990463257
466,312,38322,2,0,L|51:290,1,359.999990463257
46,72,38543,2,0,L|461:94,1,359.999990463257
465,313,38763,1,0,0:0:0:0:
467,47,38874,6,0,P|265:194|389:25,1,719.999980926514
45,337,39315,6,0,P|247:190|123:359,1,719.999980926514
26,32,39756,6,0,B|256:312|256:312|488:40,1,719.999980926514
486,352,40197,6,0,B|256:72|256:72|24:344,1,719.999980926514
45,39,40638,6,0,L|436:33,1,359.999990463257
467,345,40859,6,0,L|76:351,1,359.999990463257
45,39,41080,6,0,L|436:33,1,359.999990463257
467,345,41301,6,0,L|76:351,1,359.999990463257
45,39,41521,6,0,L|436:33,1,359.999990463257
305,303,41741,6,0,L|291:248,48,44.9999988079071
