osu file format v14

[General]
AudioFilename: [SFM] We like to party.mp3
AudioLeadIn: 0
PreviewTime: -1
Countdown: 1
SampleSet: None
StackLeniency: 0.7
Mode: 0
LetterboxInBreaks: 1
WidescreenStoryboard: 1

[Editor]
DistanceSpacing: 1.3
BeatDivisor: 16
GridSize: 8
TimelineZoom: 3

[Metadata]
Title:We like to party
TitleUnicode:We like to party
Artist:an0nymoose
ArtistUnicode:an0nymoose
Creator:Doomsday is Bad
Version:23
Source:
Tags:
BeatmapID:2042295
BeatmapSetID:975808

[Difficulty]
HPDrainRate:7
CircleSize:4
OverallDifficulty:8
ApproachRate:9
SliderMultiplier:3.59999990463257
SliderTickRate:1

[Events]
//Background and Video events
0,0,"thomas3.jpg",0,0
//Break Periods
//Storyboard Layer 0 (Background)
//Storyboard Layer 1 (Fail)
//Storyboard Layer 2 (Pass)
//Storyboard Layer 3 (Foreground)
//Storyboard Sound Samples

[TimingPoints]
51,441.176470588235,4,1,0,80,1,0
51,-133.333333333333,4,1,0,80,0,0
161,-133.333333333333,4,2,0,80,0,0
14168,-133.333333333333,4,1,0,80,0,0
16815,-66.6666666666667,4,1,0,80,0,0
17036,-133.333333333333,4,1,0,80,0,0
20345,-66.6666666666667,4,1,0,80,0,0
20565,-133.333333333333,4,1,0,80,0,0
23874,-66.6666666666667,4,1,0,80,0,0
23984,-133.333333333333,4,1,0,80,0,0
27183,-133.333333333333,4,2,0,80,0,0
28286,220.588235294118,4,1,0,95,1,1
28286,-66.6666666666667,4,1,0,95,0,1
42403,-66.6666666666667,4,1,0,80,0,0

[HitObjects]
136,88,51,6,0,P|88:152|80:232,1,135.000001573563,4|0,0:0|0:0,0:0:0:0:
256,312,492,1,0,0:0:0:0:
435,204,712,1,0,0:0:0:0:
480,128,823,1,0,0:0:0:0:
432,56,933,2,0,P|328:16|288:24,1,135.000001573563,2|0,0:0|0:0,0:0:0:0:
256,312,1374,5,0,0:0:0:0:
77,204,1594,1,0,0:0:0:0:
32,128,1705,1,0,0:0:0:0:
80,56,1815,2,0,P|184:16|224:24,1,135.000001573563,2|0,0:0|0:0,0:0:0:0:
432,312,2256,5,0,0:0:0:0:
376,144,2477,1,0,0:0:0:0:
328,72,2587,1,0,0:0:0:0:
280,144,2698,1,2,0:0:0:0:
280,144,2918,1,0,0:0:0:0:
280,144,3139,6,0,P|248:240|176:256,1,135.000001573563
144,208,3470,1,0,0:0:0:0:
64,248,3580,2,0,P|14:204|7:139,1,135.000001573563,2|0,0:0|0:0,0:0:0:0:
168,64,4021,6,0,L|352:40,1,135.000001573563
384,72,4352,1,0,0:0:0:0:
448,136,4462,1,2,0:0:0:0:
256,352,4683,1,0,0:0:0:0:
64,136,4903,6,0,P|83:59|145:57,1,135.000001573563
192,112,5234,1,0,0:0:0:0:
256,56,5345,2,0,P|316:77|321:140,1,135.000001573563,2|0,0:0|0:0,0:0:0:0:
192,336,5786,6,0,L|192:184,1,135.000001573563
192,112,6117,1,0,0:0:0:0:
192,24,6227,1,2,0:0:0:0:
496,192,6448,1,0,0:0:0:0:
192,360,6668,1,0,0:0:0:0:
320,192,6889,1,0,0:0:0:0:
256,192,7109,12,2,8212,0:0:0:0:
256,192,8727,12,0,9977,0:0:0:0:
80,88,10198,5,0,0:0:0:0:
248,128,10418,1,0,0:0:0:0:
328,96,10528,1,0,0:0:0:0:
320,184,10639,2,0,L|280:312,1,135.000001573563,2|0,0:0|0:0,0:0:0:0:
104,296,11080,6,0,L|144:168,1,135.000001573563
192,96,11411,1,0,0:0:0:0:
264,48,11521,2,0,L|432:40,1,135.000001573563,2|0,0:0|0:0,0:0:0:0:
424,216,11962,5,0,0:0:0:0:
280,320,12183,1,0,0:0:0:0:
248,240,12293,1,0,0:0:0:0:
168,280,12403,1,2,0:0:0:0:
8,200,12624,1,0,0:0:0:0:
144,96,12845,6,0,L|288:48,1,135.000001573563
320,128,13175,1,0,0:0:0:0:
392,80,13286,1,2,0:0:0:0:
416,256,13506,1,0,0:0:0:0:
256,336,13727,1,0,0:0:0:0:
96,256,13948,1,2,0:0:0:0:
256,48,14168,6,0,L|416:32,1,135.000001573563,4|0,0:0|0:0,0:0:0:0:
104,64,14609,1,0,0:0:0:0:
272,272,14940,1,0,0:0:0:0:
192,304,15050,2,0,P|88:296|48:264,1,135.000001573563
272,272,15492,1,0,0:0:0:0:
152,96,16153,6,0,L|312:72,1,135.000001573563
152,96,16815,6,0,L|312:72,1,135.000001573563
360,232,17146,1,0,0:0:0:0:
360,232,17256,2,0,P|328:312|264:320,1,135.000001573563
112,296,17698,5,0,0:0:0:0:
400,88,18139,1,0,0:0:0:0:
136,112,18470,1,0,0:0:0:0:
88,184,18580,2,0,P|32:272|40:320,1,135.000001573563
136,112,19021,1,0,0:0:0:0:
280,216,19242,1,0,0:0:0:0:
352,160,19352,1,0,0:0:0:0:
416,216,19462,1,0,0:0:0:0:
272,320,19683,6,0,L|128:288,1,135.000001573563
272,320,20345,6,0,L|128:288,1,135.000001573563
72,128,20675,1,0,0:0:0:0:
72,128,20786,2,0,P|144:72|224:56,1,135.000001573563
264,216,21227,5,4,0:0:0:0:
512,24,21668,1,8,0:0:0:0:
440,184,21889,1,0,0:0:0:0:
352,168,21999,1,0,0:0:0:0:
272,128,22109,2,0,L|128:72,1,135.000001573563
40,216,22550,1,8,0:0:0:0:
144,360,22771,1,0,0:0:0:0:
232,344,22881,1,0,0:0:0:0:
312,312,22992,1,0,0:0:0:0:
376,152,23212,6,0,L|240:64,1,135.000001573563,0|8,0:0|0:0,0:0:0:0:
232,256,23653,1,0,0:0:0:0:
312,216,23764,1,0,0:0:0:0:
376,152,23874,6,0,L|240:64,1,135.000001573563
88,88,24205,1,0,0:0:0:0:
24,152,24315,2,0,P|56:240|120:256,1,135.000001573563,8|0,0:0|0:0,0:0:0:0:
256,192,24756,1,0,0:0:0:0:
256,192,25198,5,8,0:0:0:0:
400,88,25418,1,0,0:0:0:0:
472,144,25528,1,0,0:0:0:0:
488,232,25639,1,0,0:0:0:0:
336,328,25859,1,0,0:0:0:0:
160,328,26080,1,0,0:0:0:0:
80,288,26190,1,0,0:0:0:0:
32,216,26300,1,0,0:0:0:0:
32,128,26411,1,0,0:0:0:0:
88,56,26521,1,4,0:0:0:0:
88,56,27183,5,2,0:0:0:0:
424,328,27403,1,2,0:0:0:0:
424,56,27624,1,2,0:0:0:0:
88,328,27844,1,2,0:0:0:0:
256,192,28065,1,2,0:0:0:0:
424,56,28286,6,0,P|128:152|96:352,1,540.000006294251
512,384,28727,1,0,0:0:0:0:
0,0,28947,1,0,0:0:0:0:
0,0,29388,5,0,0:0:0:0:
512,384,29608,1,0,0:0:0:0:
256,344,29830,1,0,0:0:0:0:
16,312,30050,6,0,P|192:64|384:216,1,540.000006294251
496,312,30491,6,0,P|320:64|128:216,1,540.000006294251
16,312,30933,6,0,P|192:64|384:216,1,540.000006294251
496,312,31374,6,0,P|320:64|128:216,1,540.000006294251
432,352,31815,1,0,0:0:0:0:
80,32,32036,1,0,0:0:0:0:
80,352,32256,1,0,0:0:0:0:
432,32,32477,1,0,0:0:0:0:
40,112,32697,6,0,P|363:94|93:51,1,1080.0000125885
127,31,33469,5,0,0:0:0:0:
127,31,33580,2,0,P|56:208|360:280,1,540.000006294251
190,68,34021,6,0,P|429:113|448:160,1,270.000003147125
426,109,34241,1,0,0:0:0:0:
432,112,34352,1,0,0:0:0:0:
432,112,34462,1,0,0:0:0:0:
80,192,34793,5,0,0:0:0:0:
80,192,34903,2,0,P|368:304|472:168,1,270.000003147125
328,272,35124,2,0,P|245:168|116:137,1,270.000003147125
116,137,35344,1,0,0:0:0:0:
120,144,35786,5,0,0:0:0:0:
432,192,36558,5,0,0:0:0:0:
432,192,36668,2,0,P|144:80|40:216,1,270.000003147125
184,112,36889,2,0,P|266:215|395:246,1,270.000003147125
395,246,37109,1,0,0:0:0:0:
392,240,37551,5,0,0:0:0:0:
48,328,37991,6,0,B|200:48|456:80|488:168|392:336|160:336|32:216|32:216|72:24|312:24|400:72,1,1080.0000125885
464,48,38653,5,0,0:0:0:0:
16,360,38874,5,0,0:0:0:0:
16,360,39094,1,0,0:0:0:0:
496,24,39315,5,0,0:0:0:0:
496,24,39535,1,0,0:0:0:0:
496,360,39756,5,0,0:0:0:0:
496,360,39976,1,0,0:0:0:0:
16,24,40197,5,0,0:0:0:0:
16,24,40417,1,0,0:0:0:0:
256,192,40638,6,0,L|16:336,1,270.000003147125
256,192,40859,6,0,L|496:336,1,270.000003147125
256,192,41080,6,0,L|496:48,1,270.000003147125
256,192,41300,6,0,L|16:48,1,270.000003147125
256,192,41521,5,0,0:0:0:0:
256,192,41686,6,0,L|264:152,53,33.7500003933907
