osu file format v14

[General]
AudioFilename: audio.mp3
AudioLeadIn: 0
PreviewTime: 36005
Countdown: 0
SampleSet: Soft
StackLeniency: 0.7
Mode: 0
LetterboxInBreaks: 0
EpilepsyWarning: 1
WidescreenStoryboard: 1

[Editor]
Bookmarks: 12005,24005,36005,42005,48005,60005,72005,84005,90005,96005,102005,108005
DistanceSpacing: 0.3
BeatDivisor: 4
GridSize: 16
TimelineZoom: 1

[Metadata]
Title:MP3
TitleUnicode:MP3
Artist:amekudeku, mlvine, Scandal
ArtistUnicode:amekudeku, mlvine, Scandal
Creator:Daycore
Version:ryxliee's another
Source:
Tags:electronic nemidnight plow -_lenkon ryxliee russian hyperpop hyper pop hip hop русский хайперпоп хайпер поп гиперпоп гипер амекудеку скандал млвин млвине de4n
BeatmapID:3979754
BeatmapSetID:1927238

[Difficulty]
HPDrainRate:5
CircleSize:4
OverallDifficulty:8.2
ApproachRate:9
SliderMultiplier:1.69999990463257
SliderTickRate:1

[Events]
//Background and Video events
0,0,"bgr.jpg",0,0
//Break Periods
2,48205,58655
//Storyboard Layer 0 (Background)
//Storyboard Layer 1 (Fail)
//Storyboard Layer 2 (Pass)
//Storyboard Layer 3 (Foreground)
//Storyboard Layer 4 (Overlay)
Sprite,Overlay,Centre,"sb\highlight.png",0,0 C,0,36005,,128,128,192 M,0,36005,36051,361,288,335.3141,279.0213 F,2,36005,36579,1,0 S,2,36005,36579,1,0.2 P,0,36005,36579,A M,0,36051,36098,335.3141,279.0213,308.5363,284.6521 M,0,36098,36145,308.5363,284.6521,286.5095,301.0109 M,0,36145,36192,286.5095,301.0109,271.5439,324.1179 M,0,36192,36239,271.5439,324.1179,259.5827,349.0141 M,0,36239,36286,259.5827,349.0141,243.3493,371.2415 M,0,36286,36333,243.3493,371.2415,220.7646,386.8972 M,0,36333,36379,220.7646,386.8972,194.218,394.0744
Sprite,Overlay,Centre,"sb\highlight.png",0,0 C,0,36567,,128,128,192 M,0,36567,36613,150,291,170.3684,295.2156 F,2,36567,36860,1,0 S,2,36567,36860,1,0.2 P,0,36567,36860,A M,0,36613,36660,170.3684,295.2156,186.5849,308.2213
Sprite,Overlay,Centre,"sb\highlight.png",0,0 C,0,36755,,128,128,192 M,0,36755,36801,93,439,87.6563,407.5795 F,2,36755,37142,1,0 S,2,36755,37142,1,0.2 P,0,36755,37142,A M,0,36801,36848,87.6563,407.5795,81.05699,376.3992 M,0,36848,36895,81.05699,376.3992,73.16642,345.5199 M,0,36895,36942,73.16642,345.5199,64,315
Sprite,Overlay,Centre,"sb\highlight.png",172,130 C,0,37130,,255,128,128 F,2,37130,37330,1,0 S,2,37130,37330,1,0.2 P,0,37130,37330,A
Sprite,Overlay,Centre,"sb\highlight.png",70,304 C,0,37317,,255,128,128 F,2,37317,37517,1,0 S,2,37317,37517,1,0.2 P,0,37317,37517,A
Sprite,Overlay,Centre,"sb\highlight.png",0,0 C,0,37505,,255,128,128 M,0,37505,37551,180,118,201.3798,100.8048 F,2,37505,37892,1,0 S,2,37505,37892,1,0.2 P,0,37505,37892,A M,0,37551,37598,201.3798,100.8048,227.2023,91.68919 M,0,37598,37645,227.2023,91.68919,254.6001,91.39537 M,0,37645,37692,254.6001,91.39537,280.363,100.7484
Sprite,Overlay,Centre,"sb\highlight.png",406,238 C,0,37880,,255,128,128 F,2,37880,38080,1,0 S,2,37880,38080,1,0.2 P,0,37880,38080,A
Sprite,Overlay,Centre,"sb\highlight.png",0,0 C,0,38067,,128,128,192 M,0,38067,38113,369,105,362.0563,125.077 F,2,38067,38360,1,0 S,2,38067,38360,1,0.2 P,0,38067,38360,A M,0,38113,38160,362.0563,125.077,356.2057,145.5002
Sprite,Overlay,Centre,"sb\highlight.png",0,0 C,0,38255,,128,128,192 M,0,38255,38301,291,305,284.3987,273.8197 F,2,38255,38642,1,0 S,2,38255,38642,1,0.2 P,0,38255,38642,A M,0,38301,38348,284.3987,273.8197,276.4838,242.9477 M,0,38348,38395,276.4838,242.9477,267.2245,212.4518 M,0,38395,38442,267.2245,212.4518,256.6573,182.3831
Sprite,Overlay,Centre,"sb\highlight.png",242.352,172.352 C,0,38536,,128,128,192 F,2,38536,38736,1,0 S,2,38536,38736,1,0.2 P,0,38536,38736,A
Sprite,Overlay,Centre,"sb\highlight.png",246,176 C,0,38630,,128,128,192 F,2,38630,38830,1,0 S,2,38630,38830,1,0.2 P,0,38630,38830,A
Sprite,Overlay,Centre,"sb\highlight.png",184,308 C,0,38817,,128,128,192 F,2,38817,39017,1,0 S,2,38817,39017,1,0.2 P,0,38817,39017,A
Sprite,Overlay,Centre,"sb\highlight.png",0,0 C,0,39005,,255,128,128 M,0,39005,39051,300,417,327.0118,411.2118 F,2,39005,39486,1,0 S,2,39005,39486,1,0.2 P,0,39005,39486,A M,0,39051,39098,327.0118,411.2118,354.0236,405.4235 M,0,39098,39145,354.0236,405.4235,369.173,383.045 M,0,39145,39192,369.173,383.045,389.1781,367.6013 M,0,39192,39239,389.1781,367.6013,416.2823,362.2626 M,0,39239,39286,416.2823,362.2626,443,357
Sprite,Overlay,Centre,"sb\highlight.png",457,370 C,0,39380,,255,128,128 F,2,39380,39580,1,0 S,2,39380,39580,1,0.2 P,0,39380,39580,A
Sprite,Overlay,Centre,"sb\highlight.png",0,0 C,0,39568,,255,128,128 M,0,39568,39614,576,237,550.2328,245.923 F,2,39568,39955,1,0 S,2,39568,39955,1,0.2 P,0,39568,39955,A M,0,39614,39661,550.2328,245.923,531.6656,265.7616 M,0,39661,39708,531.6656,265.7616,524.5145,291.9064 M,0,39708,39755,524.5145,291.9064,529.837,318.6068
Sprite,Overlay,Centre,"sb\highlight.png",568,389 C,0,39942,,255,128,128 F,2,39942,40142,1,0 S,2,39942,40142,1,0.2 P,0,39942,40142,A
Sprite,Overlay,Centre,"sb\highlight.png",434,273 C,0,40130,,255,128,128 F,2,40130,40330,1,0 S,2,40130,40330,1,0.2 P,0,40130,40330,A
Sprite,Overlay,Centre,"sb\highlight.png",525,162 C,0,40317,,255,128,128 F,2,40317,40517,1,0 S,2,40317,40517,1,0.2 P,0,40317,40517,A
Sprite,Overlay,Centre,"sb\highlight.png",0,0 C,0,40505,,128,128,192 M,0,40505,40551,370,56,349.2903,80.20576 F,2,40505,40986,1,0 S,2,40505,40986,1,0.2 P,0,40505,40986,A M,0,40551,40598,349.2903,80.20576,325.83,101.7557 M,0,40598,40645,325.83,101.7557,318.5873,123.8744 M,0,40645,40692,318.5873,123.8744,335.0291,151.1676 M,0,40692,40739,335.0291,151.1676,348.8242,179.8899 M,0,40739,40786,348.8242,179.8899,359.9224,209.7589
Sprite,Overlay,Centre,"sb\highlight.png",0,0 C,0,40880,,255,128,128 M,0,40880,40926,434,273,454.669,268.0659 F,2,40880,41173,1,0 S,2,40880,41173,1,0.2 P,0,40880,41173,A M,0,40926,40973,454.669,268.0659,475,263
Sprite,Overlay,Centre,"sb\highlight.png",0,0 C,0,41067,,255,128,128 M,0,41067,41113,385,358,364.3279,353.0781 F,2,41067,41360,1,0 S,2,41067,41360,1,0.2 P,0,41067,41360,A M,0,41113,41160,364.3279,353.0781,343.6557,348.1561
Sprite,Overlay,Centre,"sb\highlight.png",0,0 C,0,41442,,128,128,192 M,0,41442,41488,231,199,247.7959,210.9791 F,2,41442,41735,1,0 S,2,41442,41735,1,0.2 P,0,41442,41735,A M,0,41488,41535,247.7959,210.9791,256,230
Sprite,Overlay,Centre,"sb\highlight.png",0,0 C,0,41630,,128,128,192 M,0,41630,41676,168,293,169.6429,272.3966 F,2,41630,41923,1,0 S,2,41630,41923,1,0.2 P,0,41630,41923,A M,0,41676,41723,169.6429,272.3966,181.5706,255.387
Sprite,Overlay,Centre,"sb\highlight.png",0,0 C,0,41817,,128,128,192 M,0,41817,41863,279,302,260.0195,310.2639 F,2,41817,42110,1,0 S,2,41817,42110,1,0.2 P,0,41817,42110,A M,0,41863,41910,260.0195,310.2639,239.3258,308.1074
Sprite,Overlay,Centre,"sb\highlight.png",0,0 C,0,42005,,255,128,128 M,0,42005,42051,68,107,91.71438,93.32764 F,2,42005,42579,1,0 S,2,42005,42579,1,0.2 P,0,42005,42579,A M,0,42051,42098,91.71438,93.32764,119.0306,90.58051 M,0,42098,42145,119.0306,90.58051,145.5605,97.76312 M,0,42145,42192,145.5605,97.76312,168.2686,113.2855 M,0,42192,42239,168.2686,113.2855,179.4987,137.0429 M,0,42239,42286,179.4987,137.0429,188.5978,162.9869 M,0,42286,42333,188.5978,162.9869,206.3942,183.899 M,0,42333,42379,206.3942,183.899,230.2198,197.6842
Sprite,Overlay,Centre,"sb\highlight.png",0,0 C,0,42567,,255,128,128 M,0,42567,42613,300,113,279.1055,113.3436 F,2,42567,42860,1,0 S,2,42567,42860,1,0.2 P,0,42567,42860,A M,0,42613,42660,279.1055,113.3436,260.0055,121.9963
Sprite,Overlay,Centre,"sb\highlight.png",0,0 C,0,42755,,255,128,128 M,0,42755,42801,364,259,369.5028,227.6064 F,2,42755,43142,1,0 S,2,42755,43142,1,0.2 P,0,42755,43142,A M,0,42801,42848,369.5028,227.6064,376.1708,196.4402 M,0,42848,42895,376.1708,196.4402,384.0339,165.5539 M,0,42895,42942,384.0339,165.5539,393.0568,134.9855
Sprite,Overlay,Centre,"sb\highlight.png",230,198 C,0,43130,,128,128,192 F,2,43130,43330,1,0 S,2,43130,43330,1,0.2 P,0,43130,43330,A
Sprite,Overlay,Centre,"sb\highlight.png",330,350 C,0,43317,,128,128,192 F,2,43317,43517,1,0 S,2,43317,43517,1,0.2 P,0,43317,43517,A
Sprite,Overlay,Centre,"sb\highlight.png",0,0 C,0,43505,,128,128,192 M,0,43505,43551,214,185,188.4159,175.2269 F,2,43505,43892,1,0 S,2,43505,43892,1,0.2 P,0,43505,43892,A M,0,43551,43598,188.4159,175.2269,161.1069,176.1162 M,0,43598,43645,161.1069,176.1162,136.3129,187.4903 M,0,43645,43692,136.3129,187.4903,117.4635,207.3152
Sprite,Overlay,Centre,"sb\highlight.png",65,383 C,0,43880,,128,128,192 F,2,43880,44080,1,0 S,2,43880,44080,1,0.2 P,0,43880,44080,A
Sprite,Overlay,Centre,"sb\highlight.png",0,0 C,0,44067,,255,128,128 M,0,44067,44113,182,290,202.8021,294.3137 F,2,44067,44360,1,0 S,2,44067,44360,1,0.2 P,0,44067,44360,A M,0,44113,44160,202.8021,294.3137,223.3622,299.6665
Sprite,Overlay,Centre,"sb\highlight.png",0,0 C,0,44255,,255,128,128 M,0,44255,44301,378,399,346.3455,402.7219 F,2,44255,44642,1,0 S,2,44255,44642,1,0.2 P,0,44255,44642,A M,0,44301,44348,346.3455,402.7219,314.8406,407.5446 M,0,44348,44395,314.8406,407.5446,283.53,413.5009 M,0,44395,44442,283.53,413.5009,252.4545,420.5831
Sprite,Overlay,Centre,"sb\highlight.png",241.352,436.352 C,0,44536,,255,128,128 F,2,44536,44736,1,0 S,2,44536,44736,1,0.2 P,0,44536,44736,A
Sprite,Overlay,Centre,"sb\highlight.png",245,440 C,0,44630,,255,128,128 F,2,44630,44830,1,0 S,2,44630,44830,1,0.2 P,0,44630,44830,A
Sprite,Overlay,Centre,"sb\highlight.png",135,352 C,0,44817,,255,128,128 F,2,44817,45017,1,0 S,2,44817,45017,1,0.2 P,0,44817,45017,A
Sprite,Overlay,Centre,"sb\highlight.png",0,0 C,0,45005,,128,128,192 M,0,45005,45051,217,203,243.8862,209.3463 F,2,45005,45486,1,0 S,2,45005,45486,1,0.2 P,0,45005,45486,A M,0,45051,45098,243.8862,209.3463,270.7635,215.7295 M,0,45098,45145,270.7635,215.7295,297.6325,222.1481 M,0,45145,45192,297.6325,222.1481,323.7357,229.888 M,0,45192,45239,323.7357,229.888,336.4471,254.0797 M,0,45239,45286,336.4471,254.0797,336,281
Sprite,Overlay,Centre,"sb\highlight.png",347,295 C,0,45380,,128,128,192 F,2,45380,45580,1,0 S,2,45380,45580,1,0.2 P,0,45380,45580,A
Sprite,Overlay,Centre,"sb\highlight.png",0,0 C,0,45568,,128,128,192 M,0,45568,45614,448,440,435.6512,415.5868 F,2,45568,45955,1,0 S,2,45568,45955,1,0.2 P,0,45568,45955,A M,0,45614,45661,435.6512,415.5868,434.3449,388.3308 M,0,45661,45708,434.3449,388.3308,444.2612,362.9633 M,0,45708,45755,444.2612,362.9633,463.381,343.4435
Sprite,Overlay,Centre,"sb\highlight.png",526,293 C,0,45942,,128,128,192 F,2,45942,46142,1,0 S,2,45942,46142,1,0.2 P,0,45942,46142,A
Sprite,Overlay,Centre,"sb\highlight.png",435,138 C,0,46130,,128,128,192 F,2,46130,46330,1,0 S,2,46130,46330,1,0.2 P,0,46130,46330,A
Sprite,Overlay,Centre,"sb\highlight.png",570,210 C,0,46317,,128,128,192 F,2,46317,46517,1,0 S,2,46317,46517,1,0.2 P,0,46317,46517,A
Sprite,Overlay,Centre,"sb\highlight.png",0,0 C,0,46505,,255,128,128 M,0,46505,46551,462,56,430.5676,52.48693 F,2,46505,46986,1,0 S,2,46505,46986,1,0.2 P,0,46505,46986,A M,0,46551,46598,430.5676,52.48693,399.9369,60.08386 M,0,46598,46645,399.9369,60.08386,374.055,78.14935 M,0,46645,46692,374.055,78.14935,356.3561,104.2913 M,0,46692,46739,356.3561,104.2913,349.1918,135.0466 M,0,46739,46786,349.1918,135.0466,353.5191,166.3387
Sprite,Overlay,Centre,"sb\highlight.png",0,0 C,0,46880,,128,128,192 M,0,46880,46926,408,243,428.669,238.0658 F,2,46880,47173,1,0 S,2,46880,47173,1,0.2 P,0,46880,47173,A M,0,46926,46973,428.669,238.0658,449,233
Sprite,Overlay,Centre,"sb\highlight.png",0,0 C,0,47067,,128,128,192 M,0,47067,47113,371,325,356.4464,309.5182 F,2,47067,47360,1,0 S,2,47067,47360,1,0.2 P,0,47067,47360,A M,0,47113,47160,356.4464,309.5182,341.4616,294.453
Sprite,Overlay,Centre,"sb\highlight.png",0,0 C,0,47255,,128,128,192 M,0,47255,47301,460,315,453.1013,335.0838 F,2,47255,47548,1,0 S,2,47255,47548,1,0.2 P,0,47255,47548,A M,0,47301,47348,453.1013,335.0838,448,355
Sprite,Overlay,Centre,"sb\highlight.png",0,0 C,0,47630,,255,128,128 M,0,47630,47676,477,310,470.1013,330.0838 F,2,47630,47923,1,0 S,2,47630,47923,1,0.2 P,0,47630,47923,A M,0,47676,47723,470.1013,330.0838,465,350
Sprite,Overlay,Centre,"sb\highlight.png",0,0 C,0,84005,,255,128,128 M,0,84005,84051,440,304,414.3141,312.9787 F,2,84005,84579,1,0 S,2,84005,84579,1,0.2 P,0,84005,84579,A M,0,84051,84098,414.3141,312.9787,387.5362,307.348 M,0,84098,84145,387.5362,307.348,365.5095,290.9891 M,0,84145,84192,365.5095,290.9891,350.5439,267.8821 M,0,84192,84239,350.5439,267.8821,338.5828,242.9859 M,0,84239,84286,338.5828,242.9859,322.3493,220.7585 M,0,84286,84333,322.3493,220.7585,299.7646,205.1028 M,0,84333,84379,299.7646,205.1028,273.218,197.9256
Sprite,Overlay,Centre,"sb\highlight.png",0,0 C,0,84567,,255,128,128 M,0,84567,84613,259,322,263.476,301.2305 F,2,84567,84860,1,0 S,2,84567,84860,1,0.2 P,0,84567,84860,A M,0,84613,84660,263.476,301.2305,268.8146,280.6651
Sprite,Overlay,Centre,"sb\highlight.png",0,0 C,0,84755,,255,128,128 M,0,84755,84801,140,127,149.5934,157.3939 F,2,84755,85142,1,0 S,2,84755,85142,1,0.2 P,0,84755,85142,A M,0,84801,84848,149.5934,157.3939,158.0014,188.136 M,0,84848,84895,158.0014,188.136,165.1676,219.1916 M,0,84895,84942,165.1676,219.1916,171,250
Sprite,Overlay,Centre,"sb\highlight.png",307,108 C,0,85130,,128,128,192 F,2,85130,85330,1,0 S,2,85130,85330,1,0.2 P,0,85130,85330,A
Sprite,Overlay,Centre,"sb\highlight.png",181,255 C,0,85317,,128,128,192 F,2,85317,85517,1,0 S,2,85317,85517,1,0.2 P,0,85317,85517,A
Sprite,Overlay,Centre,"sb\highlight.png",0,0 C,0,85505,,128,128,192 M,0,85505,85551,317,98,341.9516,86.70251 F,2,85505,85892,1,0 S,2,85505,85892,1,0.2 P,0,85505,85892,A M,0,85551,85598,341.9516,86.70251,369.2438,85.33555 M,0,85598,85645,369.2438,85.33555,395.1969,93.89041 M,0,85645,85692,395.1969,93.89041,415.8607,111.7948
Sprite,Overlay,Centre,"sb\highlight.png",554,241 C,0,85880,,128,128,192 F,2,85880,86080,1,0 S,2,85880,86080,1,0.2 P,0,85880,86080,A
Sprite,Overlay,Centre,"sb\highlight.png",0,0 C,0,86067,,255,128,128 M,0,86067,86113,512,106,504.4633,125.8625 F,2,86067,86360,1,0 S,2,86067,86360,1,0.2 P,0,86067,86360,A M,0,86113,86160,504.4633,125.8625,497.9705,146.0909
Sprite,Overlay,Centre,"sb\highlight.png",0,0 C,0,86255,,255,128,128 M,0,86255,86301,391,234,403.9953,263.0999 F,2,86255,86642,1,0 S,2,86255,86642,1,0.2 P,0,86255,86642,A M,0,86301,86348,403.9953,263.0999,415.4758,292.8285 M,0,86348,86395,415.4758,292.8285,425.3594,323.1255 M,0,86395,86442,425.3594,323.1255,433.6182,353.9052
Sprite,Overlay,Centre,"sb\highlight.png",444.352,361.352 C,0,86536,,255,128,128 F,2,86536,86736,1,0 S,2,86536,86736,1,0.2 P,0,86536,86736,A
Sprite,Overlay,Centre,"sb\highlight.png",448,365 C,0,86630,,255,128,128 F,2,86630,86830,1,0 S,2,86630,86830,1,0.2 P,0,86630,86830,A
Sprite,Overlay,Centre,"sb\highlight.png",554,241 C,0,86817,,255,128,128 F,2,86817,87017,1,0 S,2,86817,87017,1,0.2 P,0,86817,87017,A
Sprite,Overlay,Centre,"sb\highlight.png",0,0 C,0,87005,,128,128,192 M,0,87005,87051,415,136,388.1472,130.1221 F,2,87005,87486,1,0 S,2,87005,87486,1,0.2 P,0,87005,87486,A M,0,87051,87098,388.1472,130.1221,360.7663,132.0822 M,0,87098,87145,360.7663,132.0822,334.9829,141.5275 M,0,87145,87192,334.9829,141.5275,313.2087,158.2685 M,0,87192,87239,313.2087,158.2685,296.7809,180.311 M,0,87239,87286,296.7809,180.311,287.8394,206.3028
Sprite,Overlay,Centre,"sb\highlight.png",271,210 C,0,87380,,128,128,192 F,2,87380,87580,1,0 S,2,87380,87580,1,0.2 P,0,87380,87580,A
Sprite,Overlay,Centre,"sb\highlight.png",0,0 C,0,87568,,128,128,192 M,0,87568,87614,133,106,159.5897,99.89276 F,2,87568,87955,1,0 S,2,87568,87955,1,0.2 P,0,87568,87955,A M,0,87614,87661,159.5897,99.89276,185.9582,106.5137 M,0,87661,87708,185.9582,106.5137,206.3874,124.3589 M,0,87708,87755,206.3874,124.3589,217,149
Sprite,Overlay,Centre,"sb\highlight.png",271,210 C,0,87942,,128,128,192 F,2,87942,88142,1,0 S,2,87942,88142,1,0.2 P,0,87942,88142,A
Sprite,Overlay,Centre,"sb\highlight.png",118,303 C,0,88130,,128,128,192 F,2,88130,88330,1,0 S,2,88130,88330,1,0.2 P,0,88130,88330,A
Sprite,Overlay,Centre,"sb\highlight.png",267,350 C,0,88317,,128,128,192 F,2,88317,88517,1,0 S,2,88317,88517,1,0.2 P,0,88317,88517,A
Sprite,Overlay,Centre,"sb\highlight.png",0,0 C,0,88505,,255,128,128 M,0,88505,88551,98,440,92.26564,408.645 F,2,88505,88986,1,0 S,2,88505,88986,1,0.2 P,0,88505,88986,A M,0,88551,88598,92.26564,408.645,86.56807,377.2836 M,0,88598,88645,86.56807,377.2836,80.90533,345.9155 M,0,88645,88692,80.90533,345.9155,75.27952,314.5408 M,0,88692,88739,75.27952,314.5408,69.6904,283.1599 M,0,88739,88786,69.6904,283.1599,64.1363,251.7723
Sprite,Overlay,Centre,"sb\highlight.png",0,0 C,0,88880,,128,128,192 M,0,88880,88926,119,170,139.669,174.9342 F,2,88880,89173,1,0 S,2,88880,89173,1,0.2 P,0,88880,89173,A M,0,88926,88973,139.669,174.9342,160,180
Sprite,Overlay,Centre,"sb\highlight.png",0,0 C,0,89067,,128,128,192 M,0,89067,89113,246,84,225.3279,88.92194 F,2,89067,89360,1,0 S,2,89067,89360,1,0.2 P,0,89067,89360,A M,0,89113,89160,225.3279,88.92194,204.6557,93.84387
Sprite,Overlay,Centre,"sb\highlight.png",0,0 C,0,89442,,255,128,128 M,0,89442,89488,333,255,332.3095,234.4334 F,2,89442,89735,1,0 S,2,89442,89735,1,0.2 P,0,89442,89735,A M,0,89488,89535,332.3095,234.4334,320.498,217.4358
Sprite,Overlay,Centre,"sb\highlight.png",0,0 C,0,89630,,255,128,128 M,0,89630,89676,223,264,242.4761,271.427 F,2,89630,89923,1,0 S,2,89630,89923,1,0.2 P,0,89630,89923,A M,0,89676,89723,242.4761,271.427,263,270
Sprite,Overlay,Centre,"sb\highlight.png",0,0 C,0,89817,,255,128,128 M,0,89817,89863,271,161,254.2041,172.9791 F,2,89817,90110,1,0 S,2,89817,90110,1,0.2 P,0,89817,90110,A M,0,89863,89910,254.2041,172.9791,246,192
Sprite,Overlay,Centre,"sb\highlight.png",0,0 C,0,90005,,128,128,192 M,0,90005,90051,64,350,87.71437,336.3276 F,2,90005,90579,1,0 S,2,90005,90579,1,0.2 P,0,90005,90579,A M,0,90051,90098,87.71437,336.3276,115.0306,333.5805 M,0,90098,90145,115.0306,333.5805,141.5605,340.7631 M,0,90145,90192,141.5605,340.7631,164.2685,356.2854 M,0,90192,90239,164.2685,356.2854,175.4987,380.0428 M,0,90239,90286,175.4987,380.0428,184.5978,405.9869 M,0,90286,90333,184.5978,405.9869,202.3942,426.899 M,0,90333,90379,202.3942,426.899,226.2197,440.6841
Sprite,Overlay,Centre,"sb\highlight.png",0,0 C,0,90567,,128,128,192 M,0,90567,90613,292,340,272.2205,346.5966 F,2,90567,90860,1,0 S,2,90567,90860,1,0.2 P,0,90567,90860,A M,0,90613,90660,272.2205,346.5966,257.0147,360.98
Sprite,Overlay,Centre,"sb\highlight.png",0,0 C,0,90755,,128,128,192 M,0,90755,90801,410,440,401.8051,409.1971 F,2,90755,91142,1,0 S,2,90755,91142,1,0.2 P,0,90755,91142,A M,0,90801,90848,401.8051,409.1971,394.1629,378.2526 M,0,90848,90895,394.1629,378.2526,387.0946,347.172 M,0,90895,90942,387.0946,347.172,380.5907,315.9683
Sprite,Overlay,Centre,"sb\highlight.png",288,151 C,0,91130,,255,128,128 F,2,91130,91330,1,0 S,2,91130,91330,1,0.2 P,0,91130,91330,A
Sprite,Overlay,Centre,"sb\highlight.png",388,303 C,0,91317,,255,128,128 F,2,91317,91517,1,0 S,2,91317,91517,1,0.2 P,0,91317,91517,A
Sprite,Overlay,Centre,"sb\highlight.png",0,0 C,0,91505,,255,128,128 M,0,91505,91551,272,138,246.4159,128.2269 F,2,91505,91892,1,0 S,2,91505,91892,1,0.2 P,0,91505,91892,A M,0,91551,91598,246.4159,128.2269,219.1069,129.1162 M,0,91598,91645,219.1069,129.1162,194.3129,140.4903 M,0,91645,91692,194.3129,140.4903,175.4635,160.3152
Sprite,Overlay,Centre,"sb\highlight.png",123,336 C,0,91880,,255,128,128 F,2,91880,92080,1,0 S,2,91880,92080,1,0.2 P,0,91880,92080,A
Sprite,Overlay,Centre,"sb\highlight.png",0,0 C,0,92067,,128,128,192 M,0,92067,92113,240,243,260.8021,247.3137 F,2,92067,92360,1,0 S,2,92067,92360,1,0.2 P,0,92067,92360,A M,0,92113,92160,260.8021,247.3137,281.3622,252.6665
Sprite,Overlay,Centre,"sb\highlight.png",0,0 C,0,92255,,128,128,192 M,0,92255,92301,442,363,410.6286,368.6276 F,2,92255,92642,1,0 S,2,92255,92642,1,0.2 P,0,92255,92642,A M,0,92301,92348,410.6286,368.6276,379.492,375.4319 M,0,92348,92395,379.492,375.4319,348.6441,383.4446 M,0,92395,92442,348.6441,383.4446,318.1315,392.6534
Sprite,Overlay,Centre,"sb\highlight.png",308.352,409.352 C,0,92536,,128,128,192 F,2,92536,92736,1,0 S,2,92536,92736,1,0.2 P,0,92536,92736,A
Sprite,Overlay,Centre,"sb\highlight.png",312,413 C,0,92630,,128,128,192 F,2,92630,92830,1,0 S,2,92630,92830,1,0.2 P,0,92630,92830,A
Sprite,Overlay,Centre,"sb\highlight.png",193,305 C,0,92817,,128,128,192 F,2,92817,93017,1,0 S,2,92817,93017,1,0.2 P,0,92817,93017,A
Sprite,Overlay,Centre,"sb\highlight.png",0,0 C,0,93005,,255,128,128 M,0,93005,93051,322,185,349.2719,182.5255 F,2,93005,93486,1,0 S,2,93005,93486,1,0.2 P,0,93005,93486,A M,0,93051,93098,349.2719,182.5255,374.3013,193.3954 M,0,93098,93145,374.3013,193.3954,391.1706,215.0439 M,0,93145,93192,391.1706,215.0439,406.0155,238.2791 M,0,93192,93239,406.0155,238.2791,427.4726,255.4033 M,0,93239,93286,427.4726,255.4033,453.712,263.539
Sprite,Overlay,Centre,"sb\highlight.png",466,256 C,0,93380,,255,128,128 F,2,93380,93580,1,0 S,2,93380,93580,1,0.2 P,0,93380,93580,A
Sprite,Overlay,Centre,"sb\highlight.png",0,0 C,0,93567,,255,128,128 M,0,93567,93613,396,424,391.1989,396.7956 F,2,93567,93954,1,0 S,2,93567,93954,1,0.2 P,0,93567,93954,A M,0,93613,93660,391.1989,396.7956,386.1137,369.6429 M,0,93660,93707,386.1137,369.6429,380.7452,342.5448 M,0,93707,93754,380.7452,342.5448,375.1068,315.5015
Sprite,Overlay,Centre,"sb\highlight.png",314,265 C,0,93942,,255,128,128 F,2,93942,94142,1,0 S,2,93942,94142,1,0.2 P,0,93942,94142,A
Sprite,Overlay,Centre,"sb\highlight.png",468,151 C,0,94130,,255,128,128 F,2,94130,94330,1,0 S,2,94130,94330,1,0.2 P,0,94130,94330,A
Sprite,Overlay,Centre,"sb\highlight.png",319,171 C,0,94317,,255,128,128 F,2,94317,94517,1,0 S,2,94317,94517,1,0.2 P,0,94317,94517,A
Sprite,Overlay,Centre,"sb\highlight.png",0,0 C,0,94505,,128,128,192 M,0,94505,94551,512,79,532.7096,103.2058 F,2,94505,94986,1,0 S,2,94505,94986,1,0.2 P,0,94505,94986,A M,0,94551,94598,532.7096,103.2058,556.17,124.7557 M,0,94598,94645,556.17,124.7557,563.4127,146.8745 M,0,94645,94692,563.4127,146.8745,546.9709,174.1677 M,0,94692,94739,546.9709,174.1677,533.1758,202.8899 M,0,94739,94786,533.1758,202.8899,522.0775,232.7589
Sprite,Overlay,Centre,"sb\highlight.png",0,0 C,0,94880,,255,128,128 M,0,94880,94926,447,293,426.331,288.0659 F,2,94880,95173,1,0 S,2,94880,95173,1,0.2 P,0,94880,95173,A M,0,94926,94973,426.331,288.0659,406,283
Sprite,Overlay,Centre,"sb\highlight.png",0,0 C,0,95067,,255,128,128 M,0,95067,95113,484,375,498.5536,359.5182 F,2,95067,95360,1,0 S,2,95067,95360,1,0.2 P,0,95067,95360,A M,0,95113,95160,498.5536,359.5182,513.5383,344.453
Sprite,Overlay,Centre,"sb\highlight.png",0,0 C,0,95255,,255,128,128 M,0,95255,95301,395,365,401.8987,385.0838 F,2,95255,95548,1,0 S,2,95255,95548,1,0.2 P,0,95255,95548,A M,0,95301,95348,401.8987,385.0838,407,405
Sprite,Overlay,Centre,"sb\highlight.png",0,0 C,0,95630,,128,128,192 M,0,95630,95676,378,360,384.8987,380.0838 F,2,95630,95923,1,0 S,2,95630,95923,1,0.2 P,0,95630,95923,A M,0,95676,95723,384.8987,380.0838,390,400
Sprite,Overlay,Centre,"sb\highlight.png",0,0 C,0,96005,,255,128,128 M,0,96005,96051,273,295,258.3698,297.6872 F,2,96005,96486,1,0 S,2,96005,96486,1,0.2 P,0,96005,96486,A M,0,96051,96098,258.3698,297.6872,243.7395,300.3744 M,0,96098,96145,243.7395,300.3744,229.1092,303.0616 M,0,96145,96192,229.1092,303.0616,214.4789,305.7488 M,0,96192,96239,214.4789,305.7488,199.8487,308.436 M,0,96239,96286,199.8487,308.436,185.2184,311.1231
Sprite,Overlay,Centre,"sb\highlight.png",0,0 C,0,96380,,255,128,128 M,0,96380,96426,97,295,111.6303,297.6872 F,2,96380,96861,1,0 S,2,96380,96861,1,0.2 P,0,96380,96861,A M,0,96426,96473,111.6303,297.6872,126.2605,300.3744 M,0,96473,96520,126.2605,300.3744,140.8908,303.0616 M,0,96520,96567,140.8908,303.0616,155.5211,305.7488 M,0,96567,96614,155.5211,305.7488,170.1513,308.436 M,0,96614,96661,170.1513,308.436,184.7816,311.1231
Sprite,Overlay,Centre,"sb\highlight.png",0,0 C,0,96755,,255,128,128 M,0,96755,96801,276,178,261.3698,175.3128 F,2,96755,97236,1,0 S,2,96755,97236,1,0.2 P,0,96755,97236,A M,0,96801,96848,261.3698,175.3128,246.7395,172.6256 M,0,96848,96895,246.7395,172.6256,232.1092,169.9384 M,0,96895,96942,232.1092,169.9384,217.4789,167.2512 M,0,96942,96989,217.4789,167.2512,202.8487,164.564 M,0,96989,97036,202.8487,164.564,188.2184,161.8769
Sprite,Overlay,Centre,"sb\highlight.png",0,0 C,0,97130,,255,128,128 M,0,97130,97176,100,178,114.6303,175.3128 F,2,97130,97611,1,0 S,2,97130,97611,1,0.2 P,0,97130,97611,A M,0,97176,97223,114.6303,175.3128,129.2605,172.6256 M,0,97223,97270,129.2605,172.6256,143.8908,169.9384 M,0,97270,97317,143.8908,169.9384,158.5211,167.2512 M,0,97317,97364,158.5211,167.2512,173.1513,164.564 M,0,97364,97411,173.1513,164.564,187.7816,161.8769
Sprite,Overlay,Centre,"sb\highlight.png",0,0 C,0,97505,,128,128,192 M,0,97505,97551,354,261,360.7343,274.167 F,2,97505,97986,1,0 S,2,97505,97986,1,0.2 P,0,97505,97986,A M,0,97551,97598,360.7343,274.167,364.8099,288.3233 M,0,97598,97645,364.8099,288.3233,365.6104,303.0464 M,0,97645,97692,365.6104,303.0464,363.0872,317.5941 M,0,97692,97739,363.0872,317.5941,357.3562,331.2306 M,0,97739,97786,357.3562,331.2306,349,343
Sprite,Overlay,Centre,"sb\highlight.png",0,0 C,0,97880,,128,128,192 M,0,97880,97926,344,426,336.9232,413.0178 F,2,97880,98361,1,0 S,2,97880,98361,1,0.2 P,0,97880,98361,A M,0,97926,97973,336.9232,413.0178,332.4723,398.9783 M,0,97973,98020,332.4723,398.9783,331.2924,384.2774 M,0,98020,98067,331.2924,384.2774,333.4558,369.6587 M,0,98067,98114,333.4558,369.6587,338.8701,355.8656 M,0,98114,98161,338.8701,355.8656,347.4071,343.7326
Sprite,Overlay,Centre,"sb\highlight.png",0,0 C,0,98255,,128,128,192 M,0,98255,98301,488,261,480.879,273.9557 F,2,98255,98736,1,0 S,2,98255,98736,1,0.2 P,0,98255,98736,A M,0,98301,98348,480.879,273.9557,476.4527,287.9975 M,0,98348,98395,476.4527,287.9975,475.3726,302.6969 M,0,98395,98442,475.3726,302.6969,477.7058,317.2743 M,0,98442,98489,477.7058,317.2743,483.3425,330.9533 M,0,98489,98536,483.3425,330.9533,491.9998,342.9998
Sprite,Overlay,Centre,"sb\highlight.png",0,0 C,0,98630,,128,128,192 M,0,98630,98676,498,426,504.6953,412.8111 F,2,98630,99111,1,0 S,2,98630,99111,1,0.2 P,0,98630,99111,A M,0,98676,98723,504.6953,412.8111,508.7995,398.6581 M,0,98723,98770,508.7995,398.6581,509.7008,383.9325 M,0,98770,98817,509.7008,383.9325,507.3456,369.3429 M,0,98817,98864,507.3456,369.3429,501.8332,355.5944 M,0,98864,98911,501.8332,355.5944,493.3406,343.4273
Sprite,Overlay,Centre,"sb\highlight.png",0,0 C,0,99005,,255,128,128 M,0,99005,99051,354,261,339.216,262.6427 F,2,99005,99486,1,0 S,2,99005,99486,1,0.2 P,0,99005,99486,A M,0,99051,99098,339.216,262.6427,324.4319,264.2853 M,0,99098,99145,324.4319,264.2853,309.6479,265.928 M,0,99145,99192,309.6479,265.928,294.8639,267.5707 M,0,99192,99239,294.8639,267.5707,280.0799,269.2133 M,0,99239,99286,280.0799,269.2133,265.2959,270.856
Sprite,Overlay,Centre,"sb\highlight.png",0,0 C,0,99380,,255,128,128 M,0,99380,99426,188,325,186.3573,310.216 F,2,99380,99861,1,0 S,2,99380,99861,1,0.2 P,0,99380,99861,A M,0,99426,99473,186.3573,310.216,184.7147,295.4319 M,0,99473,99520,184.7147,295.4319,183.072,280.6479 M,0,99520,99567,183.072,280.6479,181.4293,265.8639 M,0,99567,99614,181.4293,265.8639,179.7867,251.0799 M,0,99614,99661,179.7867,251.0799,178.144,236.2959
Sprite,Overlay,Centre,"sb\highlight.png",0,0 C,0,99755,,255,128,128 M,0,99755,99801,124,159,138.784,157.3573 F,2,99755,100236,1,0 S,2,99755,100236,1,0.2 P,0,99755,100236,A M,0,99801,99848,138.784,157.3573,153.568,155.7147 M,0,99848,99895,153.568,155.7147,168.3521,154.072 M,0,99895,99942,168.3521,154.072,183.1361,152.4293 M,0,99942,99989,183.1361,152.4293,197.9201,150.7867 M,0,99989,100036,197.9201,150.7867,212.7041,149.144
Sprite,Overlay,Centre,"sb\highlight.png",0,0 C,0,100130,,255,128,128 M,0,100130,100176,290,95,291.6427,109.784 F,2,100130,100611,1,0 S,2,100130,100611,1,0.2 P,0,100130,100611,A M,0,100176,100223,291.6427,109.784,293.2853,124.568 M,0,100223,100270,293.2853,124.568,294.928,139.3521 M,0,100270,100317,294.928,139.3521,296.5707,154.1361 M,0,100317,100364,296.5707,154.1361,298.2133,168.9201 M,0,100364,100411,298.2133,168.9201,299.856,183.7041
Sprite,Overlay,Centre,"sb\highlight.png",0,0 C,0,100505,,128,128,192 M,0,100505,100551,405,337,406.6427,322.216 F,2,100505,100986,1,0 S,2,100505,100986,1,0.2 P,0,100505,100986,A M,0,100551,100598,406.6427,322.216,408.2853,307.4319 M,0,100598,100645,408.2853,307.4319,409.928,292.6479 M,0,100645,100692,409.928,292.6479,411.5707,277.8639 M,0,100692,100739,411.5707,277.8639,413.2133,263.0799 M,0,100739,100786,413.2133,263.0799,414.856,248.2959
Sprite,Overlay,Centre,"sb\highlight.png",0,0 C,0,100880,,128,128,192 M,0,100880,100926,450,166,462.9557,158.879 F,2,100880,101361,1,0 S,2,100880,101361,1,0.2 P,0,100880,101361,A M,0,100926,100973,462.9557,158.879,476.9975,154.4527 M,0,100973,101020,476.9975,154.4527,491.6969,153.3725 M,0,101020,101067,491.6969,153.3725,506.2743,155.7058 M,0,101067,101114,506.2743,155.7058,519.9532,161.3425 M,0,101114,101161,519.9532,161.3425,531.9998,169.9998
Sprite,Overlay,Centre,"sb\highlight.png",0,0 C,0,101255,,128,128,192 M,0,101255,101301,569,244,556.5905,235.9465 F,2,101255,101736,1,0 S,2,101255,101736,1,0.2 P,0,101255,101736,A M,0,101301,101348,556.5905,235.9465,545.9127,225.7848 M,0,101348,101395,545.9127,225.7848,537.676,213.5416 M,0,101395,101442,537.676,213.5416,532.274,199.7849 M,0,101442,101489,532.274,199.7849,529.9717,185.1544 M,0,101489,101536,529.9717,185.1544,530.9552,170.348
Sprite,Overlay,Centre,"sb\highlight.png",0,0 C,0,101630,,128,128,192 M,0,101630,101676,576,101,574.9407,115.7569 F,2,101630,102111,1,0 S,2,101630,102111,1,0.2 P,0,101630,102111,A M,0,101676,101723,574.9407,115.7569,571.201,130.0162 M,0,101723,101770,571.201,130.0162,564.4673,143.1455 M,0,101770,101817,564.4673,143.1455,555.0463,154.529 M,0,101817,101864,555.0463,154.529,543.3686,163.6281 M,0,101864,101911,543.3686,163.6281,530,170
Sprite,Overlay,Centre,"sb\highlight.png",450,166 C,0,102005,,255,128,128 F,2,102005,102205,1,0 S,2,102005,102205,1,0.2 P,0,102005,102205,A
Sprite,Overlay,Centre,"sb\highlight.png",372,145 C,0,102192,,255,128,128 F,2,102192,102392,1,0 S,2,102192,102392,1,0.2 P,0,102192,102392,A
Sprite,Overlay,Centre,"sb\highlight.png",352,222 C,0,102380,,255,128,128 F,2,102380,102580,1,0 S,2,102380,102580,1,0.2 P,0,102380,102580,A
Sprite,Overlay,Centre,"sb\highlight.png",429,243 C,0,102567,,255,128,128 F,2,102567,102767,1,0 S,2,102567,102767,1,0.2 P,0,102567,102767,A
Sprite,Overlay,Centre,"sb\highlight.png",301,366 C,0,102755,,128,128,192 F,2,102755,102955,1,0 S,2,102755,102955,1,0.2 P,0,102755,102955,A
Sprite,Overlay,Centre,"sb\highlight.png",223,387 C,0,102942,,128,128,192 F,2,102942,103142,1,0 S,2,102942,103142,1,0.2 P,0,102942,103142,A
Sprite,Overlay,Centre,"sb\highlight.png",203,310 C,0,103130,,128,128,192 F,2,103130,103330,1,0 S,2,103130,103330,1,0.2 P,0,103130,103330,A
Sprite,Overlay,Centre,"sb\highlight.png",280,289 C,0,103317,,128,128,192 F,2,103317,103517,1,0 S,2,103317,103517,1,0.2 P,0,103317,103517,A
Sprite,Overlay,Centre,"sb\highlight.png",130.352,182.352 C,0,103505,,255,128,128 F,2,103505,103705,1,0 S,2,103505,103705,1,0.2 P,0,103505,103705,A
Sprite,Overlay,Centre,"sb\highlight.png",134,186 C,0,103692,,255,128,128 F,2,103692,103892,1,0 S,2,103692,103892,1,0.2 P,0,103692,103892,A
Sprite,Overlay,Centre,"sb\highlight.png",256.352,95.352 C,0,103879,,255,128,128 F,2,103879,104079,1,0 S,2,103879,104079,1,0.2 P,0,103879,104079,A
Sprite,Overlay,Centre,"sb\highlight.png",260,99 C,0,104067,,255,128,128 F,2,104067,104267,1,0 S,2,104067,104267,1,0.2 P,0,104067,104267,A
Sprite,Overlay,Centre,"sb\highlight.png",104.352,264.352 C,0,104255,,128,128,192 F,2,104255,104455,1,0 S,2,104255,104455,1,0.2 P,0,104255,104455,A
Sprite,Overlay,Centre,"sb\highlight.png",108,268 C,0,104442,,128,128,192 F,2,104442,104642,1,0 S,2,104442,104642,1,0.2 P,0,104442,104642,A
Sprite,Overlay,Centre,"sb\highlight.png",343.352,103.352 C,0,104630,,128,128,192 F,2,104630,104830,1,0 S,2,104630,104830,1,0.2 P,0,104630,104830,A
Sprite,Overlay,Centre,"sb\highlight.png",347,107 C,0,104817,,128,128,192 F,2,104817,105017,1,0 S,2,104817,105017,1,0.2 P,0,104817,105017,A
Sprite,Overlay,Centre,"sb\highlight.png",280,288 C,0,105005,,255,128,128 F,2,105005,105205,1,0 S,2,105005,105205,1,0.2 P,0,105005,105205,A
Sprite,Overlay,Centre,"sb\highlight.png",175,113 C,0,105192,,255,128,128 F,2,105192,105392,1,0 S,2,105192,105392,1,0.2 P,0,105192,105392,A
Sprite,Overlay,Centre,"sb\highlight.png",376,179 C,0,105380,,255,128,128 F,2,105380,105580,1,0 S,2,105380,105580,1,0.2 P,0,105380,105580,A
Sprite,Overlay,Centre,"sb\highlight.png",190,303 C,0,105567,,255,128,128 F,2,105567,105767,1,0 S,2,105567,105767,1,0.2 P,0,105567,105767,A
Sprite,Overlay,Centre,"sb\highlight.png",387,175 C,0,105755,,128,128,192 F,2,105755,105955,1,0 S,2,105755,105955,1,0.2 P,0,105755,105955,A
Sprite,Overlay,Centre,"sb\highlight.png",245,368 C,0,105942,,128,128,192 F,2,105942,106142,1,0 S,2,105942,106142,1,0.2 P,0,105942,106142,A
Sprite,Overlay,Centre,"sb\highlight.png",262,109 C,0,106130,,128,128,192 F,2,106130,106330,1,0 S,2,106130,106330,1,0.2 P,0,106130,106330,A
Sprite,Overlay,Centre,"sb\highlight.png",399,306 C,0,106317,,128,128,192 F,2,106317,106517,1,0 S,2,106317,106517,1,0.2 P,0,106317,106517,A
Sprite,Overlay,Centre,"sb\highlight.png",0,0 C,0,106505,,255,128,128 M,0,106505,106551,180,209,177.8896,209.2483 F,2,106505,107455,1,0 S,2,106505,107455,1,0.2 P,0,106505,107455,A M,0,106551,106598,177.8896,209.2483,175.7791,209.4966 M,0,106598,106645,175.7791,209.4966,173.6687,209.7449 M,0,106645,106692,173.6687,209.7449,171.5582,209.9931 M,0,106692,106739,171.5582,209.9931,169.4478,210.2414 M,0,106739,106786,169.4478,210.2414,167.3373,210.4897 M,0,106786,106833,167.3373,210.4897,165.2269,210.738 M,0,106833,106880,165.2269,210.738,163.1164,210.9863 M,0,106880,106926,163.1164,210.9863,161.006,211.2346 M,0,106926,106973,161.006,211.2346,158.8956,211.4829 M,0,106973,107020,158.8956,211.4829,156.7851,211.7312 M,0,107020,107067,156.7851,211.7312,154.6747,211.9794 M,0,107067,107114,154.6747,211.9794,152.5642,212.2277 M,0,107114,107161,152.5642,212.2277,150.4538,212.476 M,0,107161,107208,150.4538,212.476,148.3433,212.7243 M,0,107208,107255,148.3433,212.7243,146.2329,212.9726
Sprite,Overlay,Centre,"sb\highlight.png",92,265 C,0,107630,,128,128,192 F,2,107630,107830,1,0 S,2,107630,107830,1,0.2 P,0,107630,107830,A
Sprite,Overlay,Centre,"sb\highlight.png",108,286 C,0,107723,,128,128,192 F,2,107723,107923,1,0 S,2,107723,107923,1,0.2 P,0,107723,107923,A
Sprite,Overlay,Centre,"sb\highlight.png",105,324 C,0,107817,,128,128,192 F,2,107817,108017,1,0 S,2,107817,108017,1,0.2 P,0,107817,108017,A
Sprite,Overlay,Centre,"sb\highlight.png",133,364 C,0,107911,,128,128,192 F,2,107911,108111,1,0 S,2,107911,108111,1,0.2 P,0,107911,108111,A
//Storyboard Sound Samples

[TimingPoints]
12005,375,4,2,1,75,1,0
12005,-111.111111111111,4,2,1,75,0,0
22880,-142.857142857143,4,2,1,75,0,0
23255,-83.3333333333333,4,2,1,75,0,0
23630,-58.8235294117647,4,2,1,75,0,0
24005,-83.3333333333333,4,2,2,90,0,0
25317,-142.857142857143,4,2,2,90,0,0
25505,-83.3333333333333,4,2,2,90,0,0
26442,-142.857142857143,4,2,2,90,0,0
27005,-83.3333333333333,4,2,2,90,0,0
28317,-142.857142857143,4,2,2,90,0,0
28505,-83.3333333333333,4,2,2,90,0,0
29442,-142.857142857143,4,2,2,90,0,0
29630,-100,4,2,2,90,0,0
30005,-83.3333333333333,4,2,2,90,0,0
31317,-142.857142857143,4,2,2,90,0,0
31505,-83.3333333333333,4,2,2,90,0,0
34317,-142.857142857143,4,2,2,90,0,0
34505,-83.3333333333333,4,2,2,90,0,0
34880,-111.111111111111,4,2,2,90,0,0
36005,-76.9230769230769,4,2,2,95,0,1
36567,-100,4,2,2,95,0,1
36755,-66.6666666666667,4,2,2,95,0,1
37505,-76.9230769230769,4,2,2,95,0,1
38067,-100,4,2,2,95,0,1
38255,-66.6666666666667,4,2,2,95,0,1
39005,-76.9230769230769,4,2,2,95,0,1
40505,-66.6666666666667,4,2,2,95,0,1
40880,-100,4,2,2,95,0,1
42005,-76.9230769230769,4,2,2,95,0,1
42567,-100,4,2,2,95,0,1
42755,-66.6666666666667,4,2,2,95,0,1
43505,-76.9230769230769,4,2,2,95,0,1
44067,-100,4,2,2,95,0,1
44255,-66.6666666666667,4,2,2,95,0,1
45005,-76.9230769230769,4,2,2,95,0,1
46505,-66.6666666666667,4,2,2,95,0,1
46880,-100,4,2,2,95,0,1
48005,-100,4,2,2,80,0,0
59255,-333.333333333333,4,2,2,80,0,0
60005,-100,4,2,2,85,0,0
61317,-83.3333333333333,4,2,2,85,0,0
63755,-100,4,2,2,85,0,0
64317,-83.3333333333333,4,2,2,85,0,0
66755,-100,4,2,2,85,0,0
67317,-83.3333333333333,4,2,2,85,0,0
69755,-100,4,2,2,85,0,0
72005,-83.3333333333333,4,2,2,90,0,0
84005,-76.9230769230769,4,2,2,95,0,1
84567,-100,4,2,2,95,0,1
84755,-66.6666666666667,4,2,2,95,0,1
85505,-76.9230769230769,4,2,2,95,0,1
86067,-100,4,2,2,95,0,1
86255,-66.6666666666667,4,2,2,95,0,1
87005,-76.9230769230769,4,2,2,95,0,1
88505,-66.6666666666667,4,2,2,95,0,1
88880,-100,4,2,2,95,0,1
90005,-76.9230769230769,4,2,2,95,0,1
90567,-100,4,2,2,95,0,1
90755,-66.6666666666667,4,2,2,95,0,1
91505,-76.9230769230769,4,2,2,95,0,1
92067,-100,4,2,2,95,0,1
92255,-66.6666666666667,4,2,2,95,0,1
93005,-76.9230769230769,4,2,2,95,0,1
94505,-66.6666666666667,4,2,2,95,0,1
94880,-100,4,2,2,95,0,1
96005,-142.857142857143,4,2,2,90,0,1
106505,-1000,4,2,2,90,0,1
108005,-100,4,2,2,90,0,0

[Colours]
Combo1 : 255,128,128
Combo2 : 128,128,192

[HitObjects]
18,227,12005,6,0,B|64:220|92:255|74:294|157:298,1,152.999986747742,6|10,3:2|0:0,0:0:0:0:
210,346,12567,1,2,0:0:0:0:
156,214,12755,2,0,P|161:185|175:133,1,76.4999933738711,2|0,0:0|3:2,0:0:0:0:
49,48,13130,2,0,P|59:84|65:122,1,76.4999933738711,10|0,0:0|0:0,0:0:0:0:
156,214,13505,6,0,P|224:229|284:168,2,152.999986747742,2|10|2,3:2|0:0|0:0,0:0:0:0:
279,48,14630,2,0,L|329:60,1,38.2499966869356,10|0,0:0|0:0,0:0:0:0:
283,63,14817,2,0,L|333:75,1,38.2499966869356,2|0,0:0|0:0,0:0:0:0:
339,49,15005,6,0,P|374:40|419:28,1,76.4999933738711,2|0,3:2|0:0,0:0:0:0:
512,89,15380,2,0,P|428:111|344:137,1,152.999986747742,10|2,0:0|0:0,0:0:0:0:
286,257,16130,2,0,L|278:228,2,25.4999977912904,10|0|0,0:0|0:0|0:0,0:0:0:0:
276,267,16317,6,0,B|230:274|202:239|220:200|137:196,1,152.999986747742,2|2,0:0|0:0,0:0:0:0:
82,325,16880,2,0,P|118:317|143:289,1,76.4999933738711,10|0,0:0|0:0,0:0:0:0:
46,172,17255,2,0,P|63:215|78:267,1,76.4999933738711,2|0,0:0|3:0,0:0:0:0:
199,141,17630,1,10,0:0:0:0:
205,137,17723,1,2,0:0:0:0:
211,133,17817,1,2,0:0:0:0:
217,128,17911,1,2,0:0:0:0:
240,135,18005,6,0,P|279:155|352:126,1,114.749990060807,2|0,3:2|0:0,0:0:0:0:
356,120,18380,2,0,P|335:80|332:27,1,76.4999933738711,10|0,0:0|0:0,0:0:0:0:
458,125,18755,2,0,P|451:162|432:195,1,76.4999933738711,2|0,0:0|3:0,0:0:0:0:
280,258,19130,1,10,0:0:0:0:
284,252,19223,1,0,0:0:0:0:
288,245,19317,6,0,B|316:217|361:239|361:239|383:274|427:278,1,152.999986747742,2|2,0:0|0:0,0:0:0:0:
321,353,19880,2,0,P|286:368|248:365,1,76.4999933738711,10|0,0:0|0:0,0:0:0:0:
155,233,20255,2,0,P|185:255|201:289,1,76.4999933738711,2|0,0:0|3:0,0:0:0:0:
98,354,20630,2,0,L|110:304,1,38.2499966869356,10|0,0:0|0:0,0:0:0:0:
113,350,20817,2,0,L|125:300,1,38.2499966869356,2|0,0:0|0:0,0:0:0:0:
46,260,21005,6,0,L|34:210,1,38.2499966869356,2|0,3:2|0:0,0:0:0:0:
31,256,21192,2,0,L|19:206,1,38.2499966869356
74,144,21380,5,10,0:0:0:0:
74,144,21755,2,0,P|112:115|168:120,1,76.4999933738711,2|0,0:0|3:0,0:0:0:0:
139,190,22130,1,10,0:0:0:0:
215,65,22317,2,0,P|265:107|364:100,1,152.999986747742,2|2,0:0|0:0,0:0:0:0:
460,25,22880,6,0,P|451:67|442:122,1,89.2499922695163,2|0,0:0|0:0,0:0:0:0:
438,194,23255,6,0,B|480:196|506:161|506:161|482:192|491:247,1,152.999986747742,2|0,0:0|0:0,0:0:0:0:
488,367,23630,6,0,P|425:292|279:251,1,216.749991974831,2|0,0:0|0:0,0:0:0:0:
304,237,24005,6,0,B|223:271|223:271|214:289|214:289|119:321|119:321|103:369|103:369|59:272,1,356.999969078065,6|0,3:2|0:0,0:0:0:0:
62,279,24755,1,10,0:0:0:0:
55,143,25317,6,0,L|6:159,1,29.7499974231721,2|0,3:2|0:0,0:0:0:0:
64,134,25505,6,0,B|106:118|150:152|112:162|152:208|227:193,1,152.999986747742,2|0,0:1|0:0,0:0:0:0:
268,152,25880,2,0,P|222:179|237:289,1,152.999986747742,2|0,3:2|0:0,0:0:0:0:
219,271,26255,1,10,0:0:0:0:
375,326,26442,6,0,L|324:340,1,29.7499974231721,0|0,3:0|0:0,0:0:0:0:
374,325,26817,6,0,L|346:333,1,29.7499974231721,2|0,3:2|0:0,0:0:0:0:
395,323,27005,6,0,B|417:239|417:239|435:228|435:228|458:146|458:146|450:129|450:129|470:69|470:69|400:112,1,356.999969078065,2|0,3:1|0:0,0:0:0:0:
400,112,27755,1,10,0:0:0:0:
315,33,28317,6,0,L|343:39,1,29.7499974231721,2|0,3:2|0:0,0:0:0:0:
294,25,28505,6,0,B|263:35|254:68|254:68|291:154,1,152.999986747742,2|0,0:1|0:0,0:0:0:0:
283,161,28880,2,0,B|246:77|246:77|215:61|187:77,1,152.999986747742,2|0,3:2|0:0,0:0:0:0:
187,76,29255,1,10,0:0:0:0:
127,194,29442,6,0,P|140:201|154:205,1,29.7499974231721,0|0,3:2|0:0,0:0:0:0:
118,184,29630,6,0,P|52:206|46:270,1,127.499992847443,2|0,0:0|0:0,0:0:0:0:
38,357,30005,6,0,B|107:342|107:342|111:338|111:338|173:323|173:323|203:284|203:284|196:280|196:280|235:225|235:225|293:208|293:208|299:209|299:209|373:189,1,407.999964660646,2|2,3:1|0:0,0:0:0:0:
421,337,31317,6,0,L|370:328,1,29.7499974231721,2|0,3:2|0:0,0:0:0:0:
433,344,31505,6,0,B|449:302|415:258|405:296|359:256|374:181,1,152.999986747742,2|0,0:1|0:0,0:0:0:0:
415,140,31880,2,0,P|388:186|278:171,1,152.999986747742,2|0,3:2|0:0,0:0:0:0:
296,189,32255,1,10,0:0:0:0:
86,10,33005,6,0,B|142:24|142:24|146:29|146:29|208:48|208:48|181:147|181:147|170:149|170:149|138:259,1,356.999969078065,2|0,3:1|0:0,0:0:0:0:
138,259,33755,1,10,0:0:0:0:
40,366,34317,6,0,L|31:327,1,29.7499974231721,2|0,3:2|0:0,0:0:0:0:
49,374,34505,6,0,P|120:348|196:343,1,152.999986747742,2|0,0:1|0:0,0:0:0:0:
213,340,34880,2,0,P|240:372|299:376,2,76.4999933738711,2|2|2,3:2|0:0|0:0,0:0:0:0:
288,187,35630,5,2,0:0:0:0:
328,165,35723,1,2,0:0:0:0:
362,195,35817,1,2,0:0:0:0:
345,238,35911,1,2,0:0:0:0:
297,232,36005,6,0,B|247:195|179:271|222:264|193:347|110:338,1,220.999977485658,6|10,3:2|0:0,0:0:0:0:
86,235,36567,2,0,P|114:243|129:266,1,42.4999976158143,2|0,3:2|0:0,0:0:0:0:
29,383,36755,2,0,P|17:320|0:259,1,127.499997711182,2|0,0:0|3:0,0:0:0:0:
108,74,37130,5,10,0:2:0:0:
6,248,37317,1,2,3:2:0:0:
116,62,37505,2,0,P|165:35|238:62,1,110.499988742829,2|2,3:2|0:2,0:0:0:0:
342,182,37880,1,10,0:2:0:0:
305,49,38067,6,0,P|295:79|287:114,1,42.4999976158143,2|0,3:2|0:0,0:0:0:0:
227,249,38255,2,0,P|215:196|191:122,1,127.499997711182,2|2,0:2|3:2,0:0:0:0:
182,120,38536,1,0,3:2:0:0:
182,120,38630,1,10,0:2:0:0:
120,252,38817,1,2,3:2:0:0:
236,361,39005,6,0,B|292:349|292:349|313:314|313:314|379:301,1,165.749983114243,2|0,3:2|0:0,0:0:0:0:
393,314,39380,1,10,0:2:0:0:
512,181,39568,2,0,P|467:210|466:263,1,110.499988742829,2|2,3:2|0:2,0:0:0:0:
504,333,39942,1,2,3:2:0:0:
370,217,40130,1,10,0:2:0:0:
461,106,40317,1,2,3:2:0:0:
306,0,40505,6,0,B|281:33|247:57|247:57|279:101|296:154,1,191.249996566773,2|0,3:2|0:0,0:0:0:0:
370,217,40880,6,0,P|391:212|411:207,1,42.4999976158143,2|0,3:2|0:0,0:0:0:0:
321,302,41067,2,0,P|300:297|279:292,1,42.4999976158143,2|0,3:2|0:0,0:0:0:0:
167,143,41442,6,0,P|184:154|192:174,1,42.4999976158143,0|0,3:0|0:0,0:0:0:0:
104,237,41630,2,0,P|105:216|118:199,1,42.4999976158143,0|0,3:0|0:0,0:0:0:0:
215,246,41817,2,0,P|196:255|175:252,1,42.4999976158143,0|0,3:0|0:0,0:0:0:0:
4,51,42005,6,0,B|30:26|82:27|114:68|114:68|117:122|167:142,1,220.999977485658,2|10,3:2|0:0,0:0:0:0:
236,57,42567,2,0,P|214:57|196:66,1,42.4999976158143,2|0,3:2|0:0,0:0:0:0:
300,203,42755,2,0,P|312:141|330:76,1,127.499997711182,2|0,0:0|3:0,0:0:0:0:
166,142,43130,5,10,0:2:0:0:
266,294,43317,1,2,3:2:0:0:
150,129,43505,2,0,P|96:120|53:152,1,110.499988742829,2|2,3:2|0:2,0:0:0:0:
1,327,43880,1,10,0:2:0:0:
118,234,44067,6,0,P|142:239|167:246,1,42.4999976158143,2|0,3:2|0:0,0:0:0:0:
314,343,44255,2,0,P|237:354|175:368,1,127.499997711182,2|2,0:2|3:2,0:0:0:0:
181,384,44536,1,2,3:2:0:0:
181,384,44630,1,10,0:2:0:0:
71,296,44817,1,2,3:2:0:0:
153,147,45005,6,0,B|204:159|258:172|258:172|279:194|272:225,1,165.749983114243,2|0,3:2|0:0,0:0:0:0:
283,239,45380,1,10,0:2:0:0:
384,384,45568,2,0,P|370:332|400:287,1,110.499988742829,2|2,3:2|0:2,0:0:0:0:
462,237,45942,1,2,3:2:0:0:
371,82,46130,1,10,0:2:0:0:
506,154,46317,1,2,3:2:0:0:
398,0,46505,6,0,P|302:31|298:129,1,191.249996566773,2|0,3:2|0:0,0:0:0:0:
344,187,46880,6,0,P|365:182|385:177,1,42.4999976158143,2|0,3:2|0:0,0:0:0:0:
307,269,47067,2,0,P|292:253|277:238,1,42.4999976158143,2|0,3:2|0:0,0:0:0:0:
396,259,47255,2,0,P|389:279|384:299,1,42.4999976158143,2|0,3:2|0:0,0:0:0:0:
413,254,47630,6,0,P|406:274|401:294,1,42.4999976158143,2|2,3:2|0:0,0:0:0:0:
323,362,48005,5,6,0:2:0:0:
480,231,59255,6,0,P|437:236|414:273,1,89.2499922695163,2|0,0:0|0:0,0:0:0:0:
392,348,60005,6,0,P|375:286|347:206,1,127.499992847443,6|0,3:2|0:0,0:0:0:0:
340,221,60380,1,2,0:0:0:0:
366,148,60567,1,2,0:0:0:0:
278,69,60755,2,0,P|223:84|183:88,1,84.9999952316285,10|2,0:0|0:0,0:0:0:0:
142,30,61130,1,2,0:0:0:0:
25,135,61317,6,0,B|-12:203|70:271|76:213|158:271|130:345,1,254.999977912904,2|0,3:2|0:0,0:0:0:0:
56,322,61880,2,0,P|99:261|173:250,1,152.999986747742,2|0,3:2|0:0,0:0:0:0:
192,246,62255,1,10,0:2:0:0:
237,312,62442,1,2,0:2:0:0:
353,238,62630,2,0,B|369:208|387:184|387:184|366:151|341:91,1,152.999986747742,2|0,3:2|0:0,0:0:0:0:
454,14,63005,6,0,B|437:43|420:68|420:68|440:100|466:161,1,152.999986747742,2|0,3:2|0:0,0:0:0:0:
477,156,63380,1,2,0:2:0:0:
449,224,63567,1,2,0:2:0:0:
492,316,63755,2,0,P|476:264|463:227,1,84.9999952316285,10|2,0:2|0:2,0:0:0:0:
477,156,64130,1,2,0:2:0:0:
382,286,64317,6,0,B|344:343|237:322|251:242|276:230|233:184|180:193,1,254.999977912904,2|0,3:2|0:0,0:0:0:0:
136,144,64880,2,0,P|159:216|180:290,1,152.999986747742,0|0,3:2|0:0,0:0:0:0:
196,299,65255,1,10,0:0:0:0:
163,371,65442,1,2,0:0:0:0:
32,307,65630,2,0,P|73:245|147:233,1,152.999986747742,2|0,3:2|0:0,0:0:0:0:
136,144,66005,6,0,P|177:205|251:217,1,152.999986747742,2|0,3:2|0:0,0:0:0:0:
265,206,66380,1,2,0:0:0:0:
236,133,66567,1,2,0:0:0:0:
329,55,66755,2,0,P|368:70|410:79,1,84.9999952316285,10|2,0:0|0:0,0:0:0:0:
472,127,67130,1,2,0:0:0:0:
338,240,67317,6,0,B|386:229|398:159|398:159|390:244|451:290,1,254.999977912904,2|0,3:2|0:0,0:0:0:0:
501,231,67880,2,0,P|439:236|336:258,1,152.999986747742,0|0,3:2|0:0,0:0:0:0:
338,240,68255,1,10,0:0:0:0:
286,301,68442,1,2,0:0:0:0:
180,202,68630,2,0,P|199:136|238:45,1,152.999986747742,2|0,3:2|0:0,0:0:0:0:
46,116,69005,6,0,P|75:186|98:259,1,152.999986747742,2|0,3:2|0:0,0:0:0:0:
111,273,69380,1,2,0:0:0:0:
71,341,69567,1,2,0:0:0:0:
98,181,69755,2,0,P|138:193|192:205,1,84.9999952316285,10|2,0:0|0:0,0:0:0:0:
235,254,70130,1,2,0:0:0:0:
282,120,70317,1,2,3:2:0:0:
289,117,70505,5,2,0:0:0:0:
289,117,72005,6,0,B|357:110|357:110|367:102|367:102|454:91|454:91|470:196|470:196|464:215|464:215|485:344,1,407.999964660646,6|2,3:2|0:0,0:0:0:0:
289,117,73505,6,0,B|305:50|250:18|250:18|249:10|249:10|173:5|163:75|163:75|170:80|170:80|144:177|144:177|133:182|133:182|113:267|113:267|125:221|174:199|174:199|260:210|260:210|288:254|288:254|366:266,1,764.999933738711,6|0,3:2|0:0,0:0:0:0:
479,223,75005,6,0,B|433:137|433:137|419:221|419:221|425:226|425:226|416:276|416:276|408:284|408:284|394:349|394:349|364:265,1,407.999964660646,6|2,3:2|0:2,0:0:0:0:
483,26,76505,6,0,B|341:49|341:49|334:33|334:33|237:44|237:44|327:89|327:89|318:150|318:150|323:158|323:158|308:247|308:247|300:256|300:256|282:344|282:344|285:301|247:271|247:271|261:205,1,764.999933738711,6|0,3:2|0:0,0:0:0:0:
202,152,78005,6,0,B|134:133|134:133|129:124|129:124|58:105|58:105|31:206|31:206|94:228|94:228|102:224|102:224|197:250,1,407.999964660646,6|2,3:2|0:0,0:0:0:0:
202,152,79505,6,0,B|283:118|283:118|292:100|292:100|387:68|387:68|403:20|403:20|448:126|448:126|446:135|446:135|489:220|489:220|459:182|410:182|410:182|344:209|344:209|339:223|339:223|234:268,1,764.999933738711,6|0,3:2|0:0,0:0:0:0:
152,291,81005,6,0,B|222:334|222:334|202:274|202:274|210:257|210:257|187:175|187:175|169:164|169:164|147:80,1,356.999969078065,6|0,3:2|0:0,0:0:0:0:
147,80,81755,1,6,3:2:0:0:
143,76,82505,6,0,B|274:58|274:58|301:104|301:104|296:126|296:126|328:170|328:170|484:148,1,407.999964660646,6|2,3:2|0:2,0:0:0:0:
367,293,83630,5,2,0:2:0:0:
407,315,83723,1,2,0:2:0:0:
441,285,83817,1,2,0:2:0:0:
424,242,83911,1,2,0:2:0:0:
376,248,84005,6,0,B|326:285|258:209|301:216|272:133|189:142,1,220.999977485658,6|10,3:2|0:0,0:0:0:0:
195,266,84567,2,0,P|199:247|205:224,1,42.4999976158143,2|0,3:2|0:0,0:0:0:0:
76,71,84755,2,0,P|95:136|107:194,1,127.499997711182,2|0,0:0|3:0,0:0:0:0:
243,52,85130,5,10,0:2:0:0:
117,199,85317,1,2,3:2:0:0:
253,42,85505,2,0,P|306:29|358:64,1,110.499988742829,2|2,3:2|0:2,0:0:0:0:
490,185,85880,1,10,0:2:0:0:
448,50,86067,6,0,P|437:80|428:114,1,42.4999976158143,2|0,3:2|0:0,0:0:0:0:
327,178,86255,2,0,P|353:241|372:308,1,127.499997711182,2|2,0:2|3:2,0:0:0:0:
384,309,86536,1,0,3:2:0:0:
384,309,86630,1,10,0:2:0:0:
490,185,86817,1,2,3:2:0:0:
351,80,87005,6,0,P|262:91|222:163,1,165.749983114243,2|0,3:2|0:0,0:0:0:0:
207,154,87380,1,10,0:2:0:0:
69,50,87568,2,0,P|122:50|153:93,1,110.499988742829,2|2,3:2|0:2,0:0:0:0:
207,154,87942,1,2,3:2:0:0:
54,247,88130,1,10,0:2:0:0:
203,294,88317,1,2,3:2:0:0:
34,384,88505,6,0,P|18:296|0:195,1,191.249996566773,2|0,3:2|0:0,0:0:0:0:
55,114,88880,6,0,P|76:119|96:124,1,42.4999976158143,2|0,3:2|0:0,0:0:0:0:
182,28,89067,2,0,P|161:33|140:38,1,42.4999976158143,2|0,3:2|0:0,0:0:0:0:
269,199,89442,6,0,P|269:178|256:161,1,42.4999976158143,0|0,3:0|0:0,0:0:0:0:
159,208,89630,2,0,P|178:216|199:214,1,42.4999976158143,0|0,3:0|0:0,0:0:0:0:
207,105,89817,2,0,P|190:116|182:136,1,42.4999976158143,0|0,3:0|0:0,0:0:0:0:
0,294,90005,6,0,B|26:269|78:270|110:311|110:311|113:365|163:385,1,220.999977485658,2|10,3:2|0:0,0:0:0:0:
228,284,90567,2,0,P|208:290|193:305,1,42.4999976158143,2|0,3:2|0:0,0:0:0:0:
346,384,90755,2,0,P|332:330|316:257,1,127.499997711182,2|0,0:0|3:0,0:0:0:0:
224,95,91130,5,10,0:2:0:0:
324,247,91317,1,2,3:2:0:0:
208,82,91505,2,0,P|154:73|111:105,1,110.499988742829,2|2,3:2|0:2,0:0:0:0:
59,280,91880,1,10,0:2:0:0:
176,187,92067,6,0,P|200:192|225:199,1,42.4999976158143,2|0,3:2|0:0,0:0:0:0:
378,307,92255,2,0,P|301:323|241:341,1,127.499997711182,2|2,0:2|3:2,0:0:0:0:
248,357,92536,1,2,3:2:0:0:
248,357,92630,1,10,0:2:0:0:
129,249,92817,1,2,3:2:0:0:
258,129,93005,6,0,B|311:112|340:162|317:161|347:211|403:208,1,165.749983114243,2|0,3:2|0:0,0:0:0:0:
402,200,93380,1,10,0:2:0:0:
332,368,93567,2,0,P|322:313|311:259,1,110.499988742829,2|2,3:2|0:2,0:0:0:0:
250,209,93942,1,2,3:2:0:0:
404,95,94130,1,10,0:2:0:0:
255,115,94317,1,2,3:2:0:0:
448,23,94505,6,0,B|473:56|507:80|507:80|475:124|458:177,1,191.249996566773,2|0,3:2|0:0,0:0:0:0:
383,237,94880,6,0,P|362:232|342:227,1,42.4999976158143,2|0,3:2|0:0,0:0:0:0:
420,319,95067,2,0,P|435:303|450:288,1,42.4999976158143,2|0,3:2|0:0,0:0:0:0:
331,309,95255,2,0,P|338:329|343:349,1,42.4999976158143,2|0,3:2|0:0,0:0:0:0:
314,304,95630,6,0,P|321:324|326:344,1,42.4999976158143,2|2,3:2|0:0,0:0:0:0:
209,239,96005,6,0,L|111:257,1,89.2499922695163,6|0,3:2|0:0,0:0:0:0:
33,239,96380,2,0,L|131:257,1,89.2499922695163,2|0,3:2|0:0,0:0:0:0:
212,122,96755,2,0,L|114:104,1,89.2499922695163,2|0,3:2|0:0,0:0:0:0:
36,122,97130,2,0,L|134:104,1,89.2499922695163,2|0,3:2|0:0,0:0:0:0:
290,205,97505,6,0,P|302:247|285:287,1,89.2499922695163,2|0,3:2|0:0,0:0:0:0:
280,370,97880,2,0,P|267:327|284:287,1,89.2499922695163,2|0,3:2|0:0,0:0:0:0:
424,205,98255,2,0,P|411:247|428:287,1,89.2499922695163,2|0,3:2|0:0,0:0:0:0:
434,370,98630,2,0,P|446:327|429:287,1,89.2499922695163,2|0,3:2|0:0,0:0:0:0:
290,205,99005,6,0,L|200:215,1,89.2499922695163,2|0,3:2|0:0,0:0:0:0:
124,269,99380,2,0,L|114:179,1,89.2499922695163,2|0,3:2|0:0,0:0:0:0:
60,103,99755,2,0,L|150:93,1,89.2499922695163,2|0,3:2|0:0,0:0:0:0:
226,39,100130,2,0,L|236:129,1,89.2499922695163,2|0,3:2|0:0,0:0:0:0:
341,281,100505,6,0,L|351:191,1,89.2499922695163,2|0,3:2|0:0,0:0:0:0:
386,110,100880,2,0,P|428:97|468:114,1,89.2499922695163,2|0,3:2|0:0,0:0:0:0:
505,188,101255,2,0,P|473:157|467:114,1,89.2499922695163,2|0,3:2|0:0,0:0:0:0:
512,45,101630,2,0,P|501:87|466:114,1,89.2499922695163,0|0,3:2|0:0,0:0:0:0:
386,110,102005,5,2,3:2:0:0:
308,89,102192,1,2,3:2:0:0:
288,166,102380,1,2,3:2:0:0:
365,187,102567,1,2,3:2:0:0:
237,310,102755,5,2,3:2:0:0:
159,331,102942,1,0,3:2:0:0:
139,254,103130,1,2,3:2:0:0:
216,233,103317,1,2,3:2:0:0:
70,130,103505,5,2,3:2:0:0:
70,130,103692,1,2,3:2:0:0:
196,43,103879,1,2,3:2:0:0:
196,43,104067,1,2,3:2:0:0:
44,212,104255,5,2,3:2:0:0:
44,212,104442,1,2,3:2:0:0:
283,51,104630,1,2,3:2:0:0:
283,51,104817,1,2,3:2:0:0:
216,232,105005,5,2,3:2:0:0:
111,57,105192,1,2,3:2:0:0:
312,123,105380,1,2,3:2:0:0:
126,247,105567,1,2,3:2:0:0:
323,119,105755,5,2,3:2:0:0:
181,312,105942,1,2,3:2:0:0:
198,53,106130,1,2,3:2:0:0:
335,250,106317,1,2,3:2:0:0:
116,153,106505,6,0,L|82:157,1,33.9999980926514,2|2,0:0|0:0,0:0:0:0:
28,209,107630,5,4,0:3:0:0:
44,230,107723,1,4,0:3:0:0:
41,268,107817,1,8,0:3:0:0:
69,308,107911,1,8,0:3:0:0:
22,371,108005,5,14,3:3:0:0:
