osu file format v14

[General]
AudioFilename: audio.mp3
AudioLeadIn: 0
PreviewTime: 36005
Countdown: 0
SampleSet: Soft
StackLeniency: 0.7
Mode: 0
LetterboxInBreaks: 0
EpilepsyWarning: 1
WidescreenStoryboard: 1

[Editor]
Bookmarks: 12005,24005,30005,36005,42005,48005,60005,72005,78005,84005,90005,96005,108005
DistanceSpacing: 3.9
BeatDivisor: 4
GridSize: 32
TimelineZoom: 1

[Metadata]
Title:MP3
TitleUnicode:MP3
Artist:amekudeku, mlvine, Scandal
ArtistUnicode:amekudeku, mlvine, Scandal
Creator:Daycore
Version:plow & nemi's hard
Source:
Tags:electronic nemidnight plow -_lenkon ryxliee russian hyperpop hyper pop hip hop русский хайперпоп хайпер поп гиперпоп гипер амекудеку скандал млвин млвине de4n
BeatmapID:3979752
BeatmapSetID:1927238

[Difficulty]
HPDrainRate:4
CircleSize:3.6
OverallDifficulty:6.5
ApproachRate:8
SliderMultiplier:1.59999990463257
SliderTickRate:1

[Events]
//Background and Video events
0,0,"bgr.jpg",0,0
//Break Periods
2,48204,59255
//Storyboard Layer 0 (Background)
//Storyboard Layer 1 (Fail)
//Storyboard Layer 2 (Pass)
//Storyboard Layer 3 (Foreground)
//Storyboard Layer 4 (Overlay)
Sprite,Overlay,Centre,"sb\highlight.png",0,0 C,0,36005,,128,128,192 M,0,36005,36051,337,75,358.6222,79.05849 F,2,36005,36580,1,0 S,2,36005,36580,1,0.2 P,0,36005,36580,A M,0,36051,36098,358.6222,79.05849,380.2875,82.87926 M,0,36098,36145,380.2875,82.87926,401.9966,86.44421 M,0,36145,36192,401.9966,86.44421,423.7493,89.73155 M,0,36192,36239,423.7493,89.73155,445.5376,92.7738 M,0,36239,36286,445.5376,92.7738,467.3603,95.55893 M,0,36286,36333,467.3603,95.55893,489.2144,98.08659 M,0,36333,36380,489.2144,98.08659,511.0994,100.3308
Sprite,Overlay,Centre,"sb\highlight.png",571,175 C,0,36567,,128,128,192 F,2,36567,36767,1,0 S,2,36567,36767,1,0.2 P,0,36567,36767,A
Sprite,Overlay,Centre,"sb\highlight.png",0,0 C,0,36755,,128,128,192 M,0,36755,36801,510,273,488.3778,277.0585 F,2,36755,37330,1,0 S,2,36755,37330,1,0.2 P,0,36755,37330,A M,0,36801,36848,488.3778,277.0585,466.7125,280.8793 M,0,36848,36895,466.7125,280.8793,445.0034,284.4442 M,0,36895,36942,445.0034,284.4442,423.2507,287.7316 M,0,36942,36989,423.2507,287.7316,401.4624,290.7738 M,0,36989,37036,401.4624,290.7738,379.6397,293.5589 M,0,37036,37083,379.6397,293.5589,357.7856,296.0866 M,0,37083,37130,357.7856,296.0866,335.9006,298.3308
Sprite,Overlay,Centre,"sb\highlight.png",268,228 C,0,37317,,255,128,128 F,2,37317,37517,1,0 S,2,37317,37517,1,0.2 P,0,37317,37517,A
Sprite,Overlay,Centre,"sb\highlight.png",0,0 C,0,37505,,255,128,128 M,0,37505,37551,205,302,210.1199,323.3955 F,2,37505,37892,1,0 S,2,37505,37892,1,0.2 P,0,37505,37892,A M,0,37551,37598,210.1199,323.3955,215.2339,344.7934 M,0,37598,37645,215.2339,344.7934,220.336,366.1935 M,0,37645,37692,220.336,366.1935,225.4285,387.5962
Sprite,Overlay,Centre,"sb\highlight.png",315.1728,422.1728 C,0,37880,,255,128,128 F,2,37880,38080,1,0 S,2,37880,38080,1,0.2 P,0,37880,38080,A
Sprite,Overlay,Centre,"sb\highlight.png",319,426 C,0,38067,,255,128,128 F,2,38067,38267,1,0 S,2,38067,38267,1,0.2 P,0,38067,38267,A
Sprite,Overlay,Centre,"sb\highlight.png",0,0 C,0,38255,,255,128,128 M,0,38255,38301,385,331,397.9905,313.576 F,2,38255,38642,1,0 S,2,38255,38642,1,0.2 P,0,38255,38642,A M,0,38301,38348,397.9905,313.576,416.2849,301.9389 M,0,38348,38395,416.2849,301.9389,437.7525,298.8466 M,0,38395,38442,437.7525,298.8466,458.9356,303.6038
Sprite,Overlay,Centre,"sb\highlight.png",473.1728,322.1728 C,0,38536,,255,128,128 F,2,38536,38736,1,0 S,2,38536,38736,1,0.2 P,0,38536,38736,A
Sprite,Overlay,Centre,"sb\highlight.png",0,0 C,0,38630,,255,128,128 M,0,38630,38676,477,326,490.1815,343.2905 F,2,38630,39017,1,0 S,2,38630,39017,1,0.2 P,0,38630,39017,A M,0,38676,38723,490.1815,343.2905,508.4586,355.1448 M,0,38723,38770,508.4586,355.1448,529.978,358.2119 M,0,38770,38817,529.978,358.2119,551,354
Sprite,Overlay,Centre,"sb\highlight.png",0,0 C,0,39005,,128,128,192 M,0,39005,39051,572,259,567.3032,237.5083 F,2,39005,39392,1,0 S,2,39005,39392,1,0.2 P,0,39005,39392,A M,0,39051,39098,567.3032,237.5083,562.116,216.1298 M,0,39098,39145,562.116,216.1298,556.3464,194.9011 M,0,39145,39192,556.3464,194.9011,550.0768,173.8149
Sprite,Overlay,Centre,"sb\highlight.png",0,0 C,0,39380,,128,128,192 M,0,39380,39426,478,108,471.0638,128.874 F,2,39380,39767,1,0 S,2,39380,39767,1,0.2 P,0,39380,39767,A M,0,39426,39473,471.0638,128.874,464.9961,150.0175 M,0,39473,39520,464.9961,150.0175,460.0478,171.4499 M,0,39520,39567,460.0478,171.4499,456,193
Sprite,Overlay,Centre,"sb\highlight.png",393,267 C,0,39755,,128,128,192 F,2,39755,39955,1,0 S,2,39755,39955,1,0.2 P,0,39755,39955,A
Sprite,Overlay,Centre,"sb\highlight.png",367,173 C,0,39942,,128,128,192 F,2,39942,40142,1,0 S,2,39942,40142,1,0.2 P,0,39942,40142,A
Sprite,Overlay,Centre,"sb\highlight.png",275,204 C,0,40130,,128,128,192 F,2,40130,40330,1,0 S,2,40130,40330,1,0.2 P,0,40130,40330,A
Sprite,Overlay,Centre,"sb\highlight.png",303,296 C,0,40317,,128,128,192 F,2,40317,40517,1,0 S,2,40317,40517,1,0.2 P,0,40317,40517,A
Sprite,Overlay,Centre,"sb\highlight.png",0,0 C,0,40505,,255,128,128 M,0,40505,40551,363,188,357.982,166.5806 F,2,40505,40892,1,0 S,2,40505,40892,1,0.2 P,0,40505,40892,A M,0,40551,40598,357.982,166.5806,352.5863,145.2533 M,0,40598,40645,352.5863,145.2533,346.7401,124.045 M,0,40645,40692,346.7401,124.045,340.5201,102.9433
Sprite,Overlay,Centre,"sb\highlight.png",254.1728,59.1728 C,0,40880,,255,128,128 F,2,40880,41080,1,0 S,2,40880,41080,1,0.2 P,0,40880,41080,A
Sprite,Overlay,Centre,"sb\highlight.png",0,0 C,0,41067,,255,128,128 M,0,41067,41113,258,63,254.2098,84.54823 F,2,41067,41642,1,0 S,2,41067,41642,1,0.2 P,0,41067,41642,A M,0,41113,41160,254.2098,84.54823,245.3288,104.519 M,0,41160,41207,245.3288,104.519,231.1852,121.1857 M,0,41207,41254,231.1852,121.1857,213.319,133.7186 M,0,41254,41301,213.319,133.7186,192.7642,141.181 M,0,41301,41348,192.7642,141.181,170.9414,142.502 M,0,41348,41395,170.9414,142.502,149.5148,138.3288 M,0,41395,41442,149.5148,138.3288,129.8694,128.6966
Sprite,Overlay,Centre,"sb\highlight.png",79.1728,60.1728 C,0,41630,,255,128,128 F,2,41630,41830,1,0 S,2,41630,41830,1,0.2 P,0,41630,41830,A
Sprite,Overlay,Centre,"sb\highlight.png",83,64 C,0,41817,,255,128,128 F,2,41817,42017,1,0 S,2,41817,42017,1,0.2 P,0,41817,42017,A
Sprite,Overlay,Centre,"sb\highlight.png",0,0 C,0,42005,,128,128,192 M,0,42005,42051,129,128,133.1165,149.6115 F,2,42005,42580,1,0 S,2,42005,42580,1,0.2 P,0,42005,42580,A M,0,42051,42098,133.1165,149.6115,137.2329,171.2229 M,0,42098,42145,137.2329,171.2229,140.5087,192.8015 M,0,42145,42192,140.5087,192.8015,134.7201,214.0263 M,0,42192,42239,134.7201,214.0263,129.0511,235.2552 M,0,42239,42286,129.0511,235.2552,133.3656,256.828 M,0,42286,42333,133.3656,256.828,137.6802,278.4008 M,0,42333,42380,137.6802,278.4008,141.9947,299.9736
Sprite,Overlay,Centre,"sb\highlight.png",218,359 C,0,42567,,128,128,192 F,2,42567,42767,1,0 S,2,42567,42767,1,0.2 P,0,42567,42767,A
Sprite,Overlay,Centre,"sb\highlight.png",0,0 C,0,42755,,128,128,192 M,0,42755,42801,291,270,312.6222,265.9415 F,2,42755,43330,1,0 S,2,42755,43330,1,0.2 P,0,42755,43330,A M,0,42801,42848,312.6222,265.9415,334.2875,262.1207 M,0,42848,42895,334.2875,262.1207,355.9966,258.5558 M,0,42895,42942,355.9966,258.5558,377.7493,255.2684 M,0,42942,42989,377.7493,255.2684,399.5376,252.2262 M,0,42989,43036,399.5376,252.2262,421.3603,249.4411 M,0,43036,43083,421.3603,249.4411,443.2144,246.9134 M,0,43083,43130,443.2144,246.9134,465.0994,244.6692
Sprite,Overlay,Centre,"sb\highlight.png",529,172 C,0,43317,,255,128,128 F,2,43317,43517,1,0 S,2,43317,43517,1,0.2 P,0,43317,43517,A
Sprite,Overlay,Centre,"sb\highlight.png",0,0 C,0,43505,,255,128,128 M,0,43505,43551,473,92,451.6045,86.8801 F,2,43505,43892,1,0 S,2,43505,43892,1,0.2 P,0,43505,43892,A M,0,43551,43598,451.6045,86.8801,430.2066,81.76614 M,0,43598,43645,430.2066,81.76614,408.8065,76.66396 M,0,43645,43692,408.8065,76.66396,387.4038,71.57154
Sprite,Overlay,Centre,"sb\highlight.png",301.1728,119.1728 C,0,43880,,255,128,128 F,2,43880,44080,1,0 S,2,43880,44080,1,0.2 P,0,43880,44080,A
Sprite,Overlay,Centre,"sb\highlight.png",305,123 C,0,44067,,255,128,128 F,2,44067,44267,1,0 S,2,44067,44267,1,0.2 P,0,44067,44267,A
Sprite,Overlay,Centre,"sb\highlight.png",0,0 C,0,44255,,255,128,128 M,0,44255,44301,210,100,227.424,112.9905 F,2,44255,44642,1,0 S,2,44255,44642,1,0.2 P,0,44255,44642,A M,0,44301,44348,227.424,112.9905,239.0611,131.2849 M,0,44348,44395,239.0611,131.2849,242.1534,152.7525 M,0,44395,44442,242.1534,152.7525,237.3962,173.9357
Sprite,Overlay,Centre,"sb\highlight.png",210.1728,188.1728 C,0,44536,,255,128,128 F,2,44536,44736,1,0 S,2,44536,44736,1,0.2 P,0,44536,44736,A
Sprite,Overlay,Centre,"sb\highlight.png",0,0 C,0,44630,,255,128,128 M,0,44630,44676,214,192,196.576,204.9905 F,2,44630,45017,1,0 S,2,44630,45017,1,0.2 P,0,44630,45017,A M,0,44676,44723,196.576,204.9905,184.9389,223.2849 M,0,44723,44770,184.9389,223.2849,181.8466,244.7525 M,0,44770,44817,181.8466,244.7525,186.6038,265.9357
Sprite,Overlay,Centre,"sb\highlight.png",0,0 C,0,45005,,128,128,192 M,0,45005,45051,257,332,278.4916,327.3031 F,2,45005,45392,1,0 S,2,45005,45392,1,0.2 P,0,45005,45392,A M,0,45051,45098,278.4916,327.3031,299.8702,322.1159 M,0,45098,45145,299.8702,322.1159,321.0989,316.3464 M,0,45145,45192,321.0989,316.3464,342.1851,310.0768
Sprite,Overlay,Centre,"sb\highlight.png",0,0 C,0,45380,,128,128,192 M,0,45380,45426,413,244,434.4916,248.6969 F,2,45380,45767,1,0 S,2,45380,45767,1,0.2 P,0,45380,45767,A M,0,45426,45473,434.4916,248.6969,455.8702,253.884 M,0,45473,45520,455.8702,253.884,477.0989,259.6536 M,0,45520,45567,477.0989,259.6536,498.1851,265.9232
Sprite,Overlay,Centre,"sb\highlight.png",561,192 C,0,45755,,255,128,128 F,2,45755,45955,1,0 S,2,45755,45955,1,0.2 P,0,45755,45955,A
Sprite,Overlay,Centre,"sb\highlight.png",504,113 C,0,45942,,255,128,128 F,2,45942,46142,1,0 S,2,45942,46142,1,0.2 P,0,45942,46142,A
Sprite,Overlay,Centre,"sb\highlight.png",409,136 C,0,46130,,255,128,128 F,2,46130,46330,1,0 S,2,46130,46330,1,0.2 P,0,46130,46330,A
Sprite,Overlay,Centre,"sb\highlight.png",371,224 C,0,46317,,255,128,128 F,2,46317,46517,1,0 S,2,46317,46517,1,0.2 P,0,46317,46517,A
Sprite,Overlay,Centre,"sb\highlight.png",0,0 C,0,46505,,128,128,192 M,0,46505,46551,270,185,264.982,163.5806 F,2,46505,46892,1,0 S,2,46505,46892,1,0.2 P,0,46505,46892,A M,0,46551,46598,264.982,163.5806,259.5863,142.2533 M,0,46598,46645,259.5863,142.2533,253.7401,121.045 M,0,46645,46692,253.7401,121.045,247.5201,99.94333
Sprite,Overlay,Centre,"sb\highlight.png",154.1728,57.1728 C,0,46880,,128,128,192 F,2,46880,47080,1,0 S,2,46880,47080,1,0.2 P,0,46880,47080,A
Sprite,Overlay,Centre,"sb\highlight.png",158,61 C,0,47067,,128,128,192 F,2,47067,47267,1,0 S,2,47067,47267,1,0.2 P,0,47067,47267,A
Sprite,Overlay,Centre,"sb\highlight.png",0,0 C,0,47255,,128,128,192 M,0,47255,47301,112,146,115.7392,167.6795 F,2,47255,48205,1,0 S,2,47255,48205,1,0.2 P,0,47255,48205,A M,0,47301,47348,115.7392,167.6795,119.7871,189.3034 M,0,47348,47395,119.7871,189.3034,124.165,210.863 M,0,47395,47442,124.165,210.863,128.8973,232.3475 M,0,47442,47489,128.8973,232.3475,133.9441,253.7603 M,0,47489,47536,133.9441,253.7603,139.3176,275.0934 M,0,47536,47583,139.3176,275.0934,145.0167,296.3421 M,0,47583,47630,145.0167,296.3421,151.0677,317.4931 M,0,47630,47676,151.0677,317.4931,145.0167,296.3421 M,0,47676,47723,145.0167,296.3421,139.3176,275.0934 M,0,47723,47770,139.3176,275.0934,133.9441,253.7603 M,0,47770,47817,133.9441,253.7603,128.8973,232.3475 M,0,47817,47864,128.8973,232.3475,124.165,210.863 M,0,47864,47911,124.165,210.863,119.7871,189.3034 M,0,47911,47958,119.7871,189.3034,115.7392,167.6795 M,0,47958,48005,115.7392,167.6795,112,146
Sprite,Overlay,Centre,"sb\highlight.png",0,0 C,0,84005,,255,128,128 M,0,84005,84051,576,113,554.213,110.016 F,2,84005,84580,1,0 S,2,84005,84580,1,0.2 P,0,84005,84580,A M,0,84051,84098,554.213,110.016,532.2461,110.0777 M,0,84098,84145,532.2461,110.0777,511.0974,115.7534 M,0,84145,84192,511.0974,115.7534,492.6251,127.6216 M,0,84192,84239,492.6251,127.6216,473.9641,139.1781 M,0,84239,84286,473.9641,139.1781,452.8063,144.9095 M,0,84286,84333,452.8063,144.9095,430.8471,145.6768 M,0,84333,84380,430.8471,145.6768,408.9564,143.5795
Sprite,Overlay,Centre,"sb\highlight.png",335,79 C,0,84567,,255,128,128 F,2,84567,84767,1,0 S,2,84567,84767,1,0.2 P,0,84567,84767,A
Sprite,Overlay,Centre,"sb\highlight.png",0,0 C,0,84755,,255,128,128 M,0,84755,84801,260,164,265.4039,185.3257 F,2,84755,85330,1,0 S,2,84755,85330,1,0.2 P,0,84755,85330,A M,0,84801,84848,265.4039,185.3257,270.5726,206.7096 M,0,84848,84895,270.5726,206.7096,275.4878,228.1534 M,0,84895,84942,275.4878,228.1534,280.1224,249.6593 M,0,84942,84989,280.1224,249.6593,284.5172,271.2156 M,0,84989,85036,284.5172,271.2156,288.6564,292.8224 M,0,85036,85083,288.6564,292.8224,292.5158,314.481 M,0,85083,85130,292.5158,314.481,296.131,336.1816
Sprite,Overlay,Centre,"sb\highlight.png",360,408 C,0,85317,,255,128,128 F,2,85317,85517,1,0 S,2,85317,85517,1,0.2 P,0,85317,85517,A
Sprite,Overlay,Centre,"sb\highlight.png",0,0 C,0,85505,,128,128,192 M,0,85505,85551,434,345,455.1442,350.5412 F,2,85505,85892,1,0 S,2,85505,85892,1,0.2 P,0,85505,85892,A M,0,85551,85598,455.1442,350.5412,476.9644,350.2896 M,0,85598,85645,476.9644,350.2896,497.874,343.8293 M,0,85645,85692,497.874,343.8293,515.6844,331.167
Sprite,Overlay,Centre,"sb\highlight.png",561.1728,245.1728 C,0,85880,,128,128,192 F,2,85880,86080,1,0 S,2,85880,86080,1,0.2 P,0,85880,86080,A
Sprite,Overlay,Centre,"sb\highlight.png",565,249 C,0,86067,,128,128,192 F,2,86067,86267,1,0 S,2,86067,86267,1,0.2 P,0,86067,86267,A
Sprite,Overlay,Centre,"sb\highlight.png",0,0 C,0,86255,,128,128,192 M,0,86255,86301,490,163,468.179,165.7584 F,2,86255,86642,1,0 S,2,86255,86642,1,0.2 P,0,86255,86642,A M,0,86301,86348,468.179,165.7584,446.5228,169.6024 M,0,86348,86395,446.5228,169.6024,425.1419,174.7597 M,0,86395,86442,425.1419,174.7597,404.0444,180.9779
Sprite,Overlay,Centre,"sb\highlight.png",380.1728,193.1728 C,0,86536,,128,128,192 F,2,86536,86736,1,0 S,2,86536,86736,1,0.2 P,0,86536,86736,A
Sprite,Overlay,Centre,"sb\highlight.png",0,0 C,0,86630,,128,128,192 M,0,86630,86676,384,197,363.005,190.451 F,2,86630,87017,1,0 S,2,86630,87017,1,0.2 P,0,86630,87017,A M,0,86676,86723,363.005,190.451,341.6487,185.2089 M,0,86723,86770,341.6487,185.2089,319.9908,181.3883 M,0,86770,86817,319.9908,181.3883,298.1246,179.0106
Sprite,Overlay,Centre,"sb\highlight.png",0,0 C,0,87005,,255,128,128 M,0,87005,87051,220,120,198.9417,124.9178 F,2,87005,87392,1,0 S,2,87005,87392,1,0.2 P,0,87005,87392,A M,0,87051,87098,198.9417,124.9178,182.132,138.3251 M,0,87098,87145,182.132,138.3251,173.2844,158.0351 M,0,87145,87192,173.2844,158.0351,175.155,179.5361
Sprite,Overlay,Centre,"sb\highlight.png",0,0 C,0,87380,,255,128,128 M,0,87380,87426,85,219,78.47351,239.6004 F,2,87380,87767,1,0 S,2,87380,87767,1,0.2 P,0,87380,87767,A M,0,87426,87473,78.47351,239.6004,81.60107,260.8527 M,0,87473,87520,81.60107,260.8527,94.34487,278.2786 M,0,87520,87567,94.34487,278.2786,114.0335,287.0771
Sprite,Overlay,Centre,"sb\highlight.png",206,257 C,0,87755,,128,128,192 F,2,87755,87955,1,0 S,2,87755,87955,1,0.2 P,0,87755,87955,A
Sprite,Overlay,Centre,"sb\highlight.png",183,350 C,0,87942,,128,128,192 F,2,87942,88142,1,0 S,2,87942,88142,1,0.2 P,0,87942,88142,A
Sprite,Overlay,Centre,"sb\highlight.png",280,288 C,0,88130,,128,128,192 F,2,88130,88330,1,0 S,2,88130,88330,1,0.2 P,0,88130,88330,A
Sprite,Overlay,Centre,"sb\highlight.png",300,382 C,0,88317,,128,128,192 F,2,88317,88517,1,0 S,2,88317,88517,1,0.2 P,0,88317,88517,A
Sprite,Overlay,Centre,"sb\highlight.png",0,0 C,0,88505,,255,128,128 M,0,88505,88551,383,305,404.6404,308.956 F,2,88505,88892,1,0 S,2,88505,88892,1,0.2 P,0,88505,88892,A M,0,88551,88598,404.6404,308.956,426.1856,313.3996 M,0,88598,88645,426.1856,313.3996,447.617,318.3657 M,0,88645,88692,447.617,318.3657,468.9061,323.9089
Sprite,Overlay,Centre,"sb\highlight.png",561.1728,278.1728 C,0,88880,,255,128,128 F,2,88880,89080,1,0 S,2,88880,89080,1,0.2 P,0,88880,89080,A
Sprite,Overlay,Centre,"sb\highlight.png",0,0 C,0,89067,,255,128,128 M,0,89067,89113,565,282,543.9099,276.1702 F,2,89067,89642,1,0 S,2,89067,89642,1,0.2 P,0,89067,89642,A M,0,89113,89160,543.9099,276.1702,524.9478,265.3314 M,0,89160,89207,524.9478,265.3314,509.5013,249.8452 M,0,89207,89254,509.5013,249.8452,499.0415,230.642 M,0,89254,89301,499.0415,230.642,493.847,209.4437 M,0,89301,89348,493.847,209.4437,494.4374,187.6102 M,0,89348,89395,494.4374,187.6102,500.7851,166.6783 M,0,89395,89442,500.7851,166.6783,512.7673,148.386
Sprite,Overlay,Centre,"sb\highlight.png",567.1728,66.1728 C,0,89630,,255,128,128 F,2,89630,89830,1,0 S,2,89630,89830,1,0.2 P,0,89630,89830,A
Sprite,Overlay,Centre,"sb\highlight.png",571,70 C,0,89817,,255,128,128 F,2,89817,90017,1,0 S,2,89817,90017,1,0.2 P,0,89817,90017,A
Sprite,Overlay,Centre,"sb\highlight.png",0,0 C,0,90005,,128,128,192 M,0,90005,90051,487,119,465.2528,115.7002 F,2,90005,90580,1,0 S,2,90005,90580,1,0.2 P,0,90005,90580,A M,0,90051,90098,465.2528,115.7002,443.3293,113.9314 M,0,90098,90145,443.3293,113.9314,421.3362,113.9283 M,0,90145,90192,421.3362,113.9283,399.4374,115.9404 M,0,90192,90239,399.4374,115.9404,377.8639,120.1953 M,0,90239,90286,377.8639,120.1953,356.9108,126.8593 M,0,90286,90333,356.9108,126.8593,336.9065,135.9818 M,0,90333,90380,336.9065,135.9818,318.1593,147.4684
Sprite,Overlay,Centre,"sb\highlight.png",221,147 C,0,90567,,128,128,192 F,2,90567,90767,1,0 S,2,90567,90767,1,0.2 P,0,90567,90767,A
Sprite,Overlay,Centre,"sb\highlight.png",0,0 C,0,90755,,128,128,192 M,0,90755,90801,278,246,290.5978,264.0136 F,2,90755,91330,1,0 S,2,90755,91330,1,0.2 P,0,90755,91330,A M,0,90801,90848,290.5978,264.0136,301.3928,283.1559 M,0,90848,90895,301.3928,283.1559,310.1455,303.3215 M,0,90895,90942,310.1455,303.3215,316.5586,324.3454 M,0,90942,90989,316.5586,324.3454,320.8685,345.893 M,0,90989,91036,320.8685,345.893,322.9193,367.7768 M,0,91036,91083,322.9193,367.7768,322.5206,389.7524 M,0,91083,91130,322.5206,389.7524,319.9194,411.5711
Sprite,Overlay,Centre,"sb\highlight.png",227,440 C,0,91317,,128,128,192 F,2,91317,91517,1,0 S,2,91317,91517,1,0.2 P,0,91317,91517,A
Sprite,Overlay,Centre,"sb\highlight.png",0,0 C,0,91505,,255,128,128 M,0,91505,91551,161,368,139.8558,373.5412 F,2,91505,91892,1,0 S,2,91505,91892,1,0.2 P,0,91505,91892,A M,0,91551,91598,139.8558,373.5412,118.0356,373.2896 M,0,91598,91645,118.0356,373.2896,97.12601,366.8293 M,0,91645,91692,97.12601,366.8293,79.31562,354.167
Sprite,Overlay,Centre,"sb\highlight.png",68.1728,257.1728 C,0,91880,,255,128,128 F,2,91880,92080,1,0 S,2,91880,92080,1,0.2 P,0,91880,92080,A
Sprite,Overlay,Centre,"sb\highlight.png",72,261 C,0,92067,,255,128,128 F,2,92067,92267,1,0 S,2,92067,92267,1,0.2 P,0,92067,92267,A
Sprite,Overlay,Centre,"sb\highlight.png",0,0 C,0,92255,,255,128,128 M,0,92255,92301,126,180,147.821,177.2416 F,2,92255,92642,1,0 S,2,92255,92642,1,0.2 P,0,92255,92642,A M,0,92301,92348,147.821,177.2416,169.4772,173.3976 M,0,92348,92395,169.4772,173.3976,190.8582,168.2403 M,0,92395,92442,190.8582,168.2403,211.9556,162.0221
Sprite,Overlay,Centre,"sb\highlight.png",234.1728,144.1728 C,0,92536,,255,128,128 F,2,92536,92736,1,0 S,2,92536,92736,1,0.2 P,0,92536,92736,A
Sprite,Overlay,Centre,"sb\highlight.png",0,0 C,0,92630,,255,128,128 M,0,92630,92676,238,148,258.995,154.549 F,2,92630,93017,1,0 S,2,92630,93017,1,0.2 P,0,92630,93017,A M,0,92676,92723,258.995,154.549,280.3513,159.7911 M,0,92723,92770,280.3513,159.7911,302.0092,163.6117 M,0,92770,92817,302.0092,163.6117,323.8754,165.9894
Sprite,Overlay,Centre,"sb\highlight.png",0,0 C,0,93005,,128,128,192 M,0,93005,93051,415,198,427.8352,180.3853 F,2,93005,93392,1,0 S,2,93005,93392,1,0.2 P,0,93005,93392,A M,0,93051,93098,427.8352,180.3853,434.3866,159.6579 M,0,93098,93145,434.3866,159.6579,433.4784,137.8568 M,0,93145,93192,433.4784,137.8568,424.541,117.9923
Sprite,Overlay,Centre,"sb\highlight.png",0,0 C,0,93380,,128,128,192 M,0,93380,93426,344,242,337.1077,262.67 F,2,93380,93767,1,0 S,2,93380,93767,1,0.2 P,0,93380,93767,A M,0,93426,93473,337.1077,262.67,337.2128,284.4056 M,0,93473,93520,337.2128,284.4056,344.831,304.8665 M,0,93520,93567,344.831,304.8665,359.611,320.8672
Sprite,Overlay,Centre,"sb\highlight.png",468,358 C,0,93755,,255,128,128 F,2,93755,93955,1,0 S,2,93755,93955,1,0.2 P,0,93755,93955,A
Sprite,Overlay,Centre,"sb\highlight.png",378,322 C,0,93942,,255,128,128 F,2,93942,94142,1,0 S,2,93942,94142,1,0.2 P,0,93942,94142,A
Sprite,Overlay,Centre,"sb\highlight.png",324,402 C,0,94130,,255,128,128 F,2,94130,94330,1,0 S,2,94130,94330,1,0.2 P,0,94130,94330,A
Sprite,Overlay,Centre,"sb\highlight.png",414,434 C,0,94317,,255,128,128 F,2,94317,94517,1,0 S,2,94317,94517,1,0.2 P,0,94317,94517,A
Sprite,Overlay,Centre,"sb\highlight.png",0,0 C,0,94505,,128,128,192 M,0,94505,94551,500,350,503.956,328.3596 F,2,94505,94892,1,0 S,2,94505,94892,1,0.2 P,0,94505,94892,A M,0,94551,94598,503.956,328.3596,508.3996,306.8144 M,0,94598,94645,508.3996,306.8144,513.3657,285.383 M,0,94645,94692,513.3657,285.383,518.9089,264.0939
Sprite,Overlay,Centre,"sb\highlight.png",561.1728,174.1728 C,0,94880,,128,128,192 F,2,94880,95080,1,0 S,2,94880,95080,1,0.2 P,0,94880,95080,A
Sprite,Overlay,Centre,"sb\highlight.png",565,178 C,0,95067,,128,128,192 F,2,95067,95267,1,0 S,2,95067,95267,1,0.2 P,0,95067,95267,A
Sprite,Overlay,Centre,"sb\highlight.png",0,0 C,0,95255,,128,128,192 M,0,95255,95301,486,120,464.1638,117.4088 F,2,95255,95830,1,0 S,2,95255,95830,1,0.2 P,0,95255,95830,A M,0,95301,95348,464.1638,117.4088,442.2086,118.0268 M,0,95348,95395,442.2086,118.0268,421.2464,124.363 M,0,95395,95442,421.2464,124.363,402.8693,136.4016 M,0,95442,95489,402.8693,136.4016,384.1864,147.9405 M,0,95489,95536,384.1864,147.9405,363.2072,154.3487 M,0,95536,95583,363.2072,154.3487,341.3107,156.199 M,0,95583,95630,341.3107,156.199,319.3408,155.2444
Sprite,Overlay,Centre,"sb\highlight.png",0,0 C,0,96005,,255,128,128 M,0,96005,96051,137,223,142.8563,201.7939 F,2,96005,96955,1,0 S,2,96005,96955,1,0.2 P,0,96005,96955,A M,0,96051,96098,142.8563,201.7939,148.8932,180.6386 M,0,96098,96145,148.8932,180.6386,155.123,159.5392 M,0,96145,96192,155.123,159.5392,161.5586,138.5018 M,0,96192,96239,161.5586,138.5018,168.1793,117.5218 M,0,96239,96286,168.1793,117.5218,174.9911,96.60313 M,0,96286,96333,174.9911,96.60313,181.9936,75.74751 M,0,96333,96380,181.9936,75.74751,189.2004,54.96153 M,0,96380,96426,189.2004,54.96153,181.9936,75.7475 M,0,96426,96473,181.9936,75.7475,174.9911,96.60313 M,0,96473,96520,174.9911,96.60313,168.1793,117.5218 M,0,96520,96567,168.1793,117.5218,161.5586,138.5018 M,0,96567,96614,161.5586,138.5018,155.123,159.5392 M,0,96614,96661,155.123,159.5392,148.8932,180.6386 M,0,96661,96708,148.8932,180.6386,142.8564,201.7939 M,0,96708,96755,142.8564,201.7939,137,223
Sprite,Overlay,Centre,"sb\highlight.png",243,384 C,0,97130,,255,128,128 F,2,97130,97330,1,0 S,2,97130,97330,1,0.2 P,0,97130,97330,A
Sprite,Overlay,Centre,"sb\highlight.png",0,0 C,0,97505,,128,128,192 M,0,97505,97551,258,394,279.0314,387.5804 F,2,97505,97892,1,0 S,2,97505,97892,1,0.2 P,0,97505,97892,A M,0,97551,97598,279.0314,387.5804,300.4646,382.6682 M,0,97598,97645,300.4646,382.6682,322.2396,379.6139 M,0,97645,97692,322.2396,379.6139,344.1773,378.111
Sprite,Overlay,Centre,"sb\highlight.png",0,0 C,0,97880,,128,128,192 M,0,97880,97926,412,309,433.0314,315.4196 F,2,97880,98267,1,0 S,2,97880,98267,1,0.2 P,0,97880,98267,A M,0,97926,97973,433.0314,315.4196,454.4646,320.3318 M,0,97973,98020,454.4646,320.3318,476.2396,323.3861 M,0,98020,98067,476.2396,323.3861,498.1773,324.889
Sprite,Overlay,Centre,"sb\highlight.png",0,0 C,0,98255,,128,128,192 M,0,98255,98301,562,252,570.9025,232.0319 F,2,98255,98830,1,0 S,2,98255,98830,1,0.2 P,0,98255,98830,A M,0,98301,98348,570.9025,232.0319,574.2553,210.4678 M,0,98348,98395,574.2553,210.4678,571.4073,188.7791 M,0,98395,98442,571.4073,188.7791,562.0706,169.0213 M,0,98442,98489,562.0706,169.0213,547.83,152.5034 M,0,98489,98536,547.83,152.5034,529.4885,140.629 M,0,98536,98583,529.4885,140.629,508.4261,134.8342 M,0,98583,98630,508.4261,134.8342,486.6271,134.975
Sprite,Overlay,Centre,"sb\highlight.png",0,0 C,0,99005,,255,128,128 M,0,99005,99051,302,73,319.1272,59.46216 F,2,99005,99580,1,0 S,2,99005,99580,1,0.2 P,0,99005,99580,A M,0,99051,99098,319.1272,59.46216,339.378,51.4085 M,0,99098,99145,339.378,51.4085,361.1597,50.46189 M,0,99145,99192,361.1597,50.46189,382.1684,56.0909 M,0,99192,99239,382.1684,56.0909,361.1597,50.46189 M,0,99239,99286,361.1597,50.46189,339.378,51.4085 M,0,99286,99333,339.378,51.4085,319.1272,59.46215 M,0,99333,99380,319.1272,59.46215,302,73
Sprite,Overlay,Centre,"sb\highlight.png",222,105 C,0,99567,,255,128,128 F,2,99567,99767,1,0 S,2,99567,99767,1,0.2 P,0,99567,99767,A
Sprite,Overlay,Centre,"sb\highlight.png",0,0 C,0,99755,,255,128,128 M,0,99755,99801,180,176,158.7527,181.0572 F,2,99755,100330,1,0 S,2,99755,100330,1,0.2 P,0,99755,100330,A M,0,99801,99848,158.7527,181.0572,136.993,179.8905 M,0,99848,99895,136.993,179.8905,116.5648,172.1617 M,0,99895,99942,116.5648,172.1617,99.47512,158.4783 M,0,99942,99989,99.47512,158.4783,116.5648,172.1617 M,0,99989,100036,116.5648,172.1617,136.993,179.8905 M,0,100036,100083,136.993,179.8905,158.7527,181.0572 M,0,100083,100130,158.7527,181.0572,180,176
Sprite,Overlay,Centre,"sb\highlight.png",231,114 C,0,100317,,128,128,192 F,2,100317,100517,1,0 S,2,100317,100517,1,0.2 P,0,100317,100517,A
Sprite,Overlay,Centre,"sb\highlight.png",0,0 C,0,100505,,128,128,192 M,0,100505,100551,300,186,297.1381,207.801 F,2,100505,101455,1,0 S,2,100505,101455,1,0.2 P,0,100505,101455,A M,0,100551,100598,297.1381,207.801,290.9351,228.8657 M,0,100598,100645,290.9351,228.8657,279.2962,247.4164 M,0,100645,100692,279.2962,247.4164,263.2344,262.425 M,0,100692,100739,263.2344,262.425,248.1901,278.4126 M,0,100739,100786,248.1901,278.4126,237.6291,297.6484 M,0,100786,100833,237.6291,297.6484,231.0338,318.6137 M,0,100833,100880,231.0338,318.6137,226.9798,340.2285 M,0,100880,100926,226.9798,340.2285,231.0338,318.6137 M,0,100926,100973,231.0338,318.6137,237.6291,297.6484 M,0,100973,101020,237.6291,297.6484,248.1901,278.4126 M,0,101020,101067,248.1901,278.4126,263.2344,262.425 M,0,101067,101114,263.2344,262.425,279.2962,247.4164 M,0,101114,101161,279.2962,247.4164,290.9351,228.8657 M,0,101161,101208,290.9351,228.8657,297.1381,207.8011 M,0,101208,101255,297.1381,207.8011,300,186
Sprite,Overlay,Centre,"sb\highlight.png",395,360 C,0,101630,,128,128,192 F,2,101630,101830,1,0 S,2,101630,101830,1,0.2 P,0,101630,101830,A
Sprite,Overlay,Centre,"sb\highlight.png",0,0 C,0,102005,,255,128,128 M,0,102005,102051,403,374,409.3373,352.9366 F,2,102005,102392,1,0 S,2,102005,102392,1,0.2 P,0,102005,102392,A M,0,102051,102098,409.3373,352.9366,416.5905,332.1715 M,0,102098,102145,416.5905,332.1715,424.9081,311.8093 M,0,102145,102192,424.9081,311.8093,434.1093,291.8306
Sprite,Overlay,Centre,"sb\highlight.png",0,0 C,0,102380,,255,128,128 M,0,102380,102426,517,226,510.6627,204.9366 F,2,102380,102767,1,0 S,2,102380,102767,1,0.2 P,0,102380,102767,A M,0,102426,102473,510.6627,204.9366,503.4095,184.1715 M,0,102473,102520,503.4095,184.1715,495.0919,163.8093 M,0,102520,102567,495.0919,163.8093,485.8907,143.8306
Sprite,Overlay,Centre,"sb\highlight.png",403.1728,77.1728 C,0,102755,,255,128,128 F,2,102755,102955,1,0 S,2,102755,102955,1,0.2 P,0,102755,102955,A
Sprite,Overlay,Centre,"sb\highlight.png",407,81 C,0,102942,,255,128,128 F,2,102942,103142,1,0 S,2,102942,103142,1,0.2 P,0,102942,103142,A
Sprite,Overlay,Centre,"sb\highlight.png",0,0 C,0,103130,,255,128,128 M,0,103130,103176,356,173,338.6572,186.276 F,2,103130,103517,1,0 S,2,103130,103517,1,0.2 P,0,103130,103517,A M,0,103176,103223,338.6572,186.276,318.3046,194.0553 M,0,103223,103270,318.3046,194.0553,296.5058,195.2804 M,0,103270,103317,296.5058,195.2804,275.5005,189.3621
Sprite,Overlay,Centre,"sb\highlight.png",0,0 C,0,103505,,128,128,192 M,0,103505,103551,208,117,187.221,110.5519 F,2,103505,103892,1,0 S,2,103505,103892,1,0.2 P,0,103505,103892,A M,0,103551,103598,187.221,110.5519,165.5285,111.5382 M,0,103598,103645,165.5285,111.5382,145.9875,121.014 M,0,103645,103692,145.9875,121.014,131.1029,136.7344
Sprite,Overlay,Centre,"sb\highlight.png",189.1728,224.1728 C,0,103880,,128,128,192 F,2,103880,104080,1,0 S,2,103880,104080,1,0.2 P,0,103880,104080,A
Sprite,Overlay,Centre,"sb\highlight.png",193,228 C,0,104067,,128,128,192 F,2,104067,104267,1,0 S,2,104067,104267,1,0.2 P,0,104067,104267,A
Sprite,Overlay,Centre,"sb\highlight.png",0,0 C,0,104255,,128,128,192 M,0,104255,104301,137,318,143.7634,338.9341 F,2,104255,104642,1,0 S,2,104255,104642,1,0.2 P,0,104255,104642,A M,0,104301,104348,143.7634,338.9341,150.211,359.9675 M,0,104348,104395,150.211,359.9675,156.2867,381.1114 M,0,104395,104442,156.2867,381.1114,162.0435,402.3443
Sprite,Overlay,Centre,"sb\highlight.png",257.1728,357.1728 C,0,104630,,128,128,192 F,2,104630,104830,1,0 S,2,104630,104830,1,0.2 P,0,104630,104830,A
Sprite,Overlay,Centre,"sb\highlight.png",261,361 C,0,104817,,128,128,192 F,2,104817,105017,1,0 S,2,104817,105017,1,0.2 P,0,104817,105017,A
Sprite,Overlay,Centre,"sb\highlight.png",0,0 C,0,105005,,255,128,128 M,0,105005,105051,341,430,362.5835,425.7427 F,2,105005,105392,1,0 S,2,105005,105392,1,0.2 P,0,105005,105392,A M,0,105051,105098,362.5835,425.7427,384.0882,421.1046 M,0,105098,105145,384.0882,421.1046,405.5012,416.0583 M,0,105145,105192,405.5012,416.0583,426.8082,410.5818
Sprite,Overlay,Centre,"sb\highlight.png",0,0 C,0,105380,,255,128,128 M,0,105380,105426,486,323,464.7417,317.3388 F,2,105380,105767,1,0 S,2,105380,105767,1,0.2 P,0,105380,105767,A M,0,105426,105473,464.7417,317.3388,443.373,312.1108 M,0,105473,105520,443.373,312.1108,421.8953,307.3494 M,0,105520,105567,421.8953,307.3494,400.3179,303.0606
Sprite,Overlay,Centre,"sb\highlight.png",315.1728,231.1728 C,0,105755,,255,128,128 F,2,105755,105955,1,0 S,2,105755,105955,1,0.2 P,0,105755,105955,A
Sprite,Overlay,Centre,"sb\highlight.png",319,235 C,0,105942,,255,128,128 F,2,105942,106142,1,0 S,2,105942,106142,1,0.2 P,0,105942,106142,A
Sprite,Overlay,Centre,"sb\highlight.png",408.1728,180.1728 C,0,106130,,255,128,128 F,2,106130,106330,1,0 S,2,106130,106330,1,0.2 P,0,106130,106330,A
Sprite,Overlay,Centre,"sb\highlight.png",412,184 C,0,106317,,255,128,128 F,2,106317,106517,1,0 S,2,106317,106517,1,0.2 P,0,106317,106517,A
Sprite,Overlay,Centre,"sb\highlight.png",0,0 C,0,106505,,128,128,192 M,0,106505,106551,327,120,305.0711,118.6351 F,2,106505,107455,1,0 S,2,106505,107455,1,0.2 P,0,106505,107455,A M,0,106551,106598,305.0711,118.6351,283.1453,119.9197 M,0,106598,106645,283.1453,119.9197,261.5582,124.0318 M,0,106645,106692,261.5582,124.0318,240.779,131.1655 M,0,106692,106739,240.779,131.1655,221.0338,140.7788 M,0,106739,106786,221.0338,140.7788,202.6897,152.8706 M,0,106786,106833,202.6897,152.8706,186.2256,167.4151 M,0,106833,106880,186.2256,167.4151,171.6942,183.8784 M,0,106880,106926,171.6942,183.8784,159.4097,202.0896 M,0,106926,106973,159.4097,202.0896,149.7687,221.8281 M,0,106973,107020,149.7687,221.8281,142.6829,242.6112 M,0,107020,107067,142.6829,242.6112,138.3434,264.1423 M,0,107067,107114,138.3434,264.1423,136.8245,286.0659 M,0,107114,107161,136.8245,286.0659,138.4413,307.9763 M,0,107161,107208,138.4413,307.9763,142.7113,329.5187 M,0,107208,107255,142.7113,329.5187,149.7352,350.3375
Sprite,Overlay,Centre,"sb\highlight.png",0,0 C,0,107630,,255,128,128 M,0,107630,107676,351,414,371.4153,405.8615 F,2,107630,108111,1,0 S,2,107630,108111,1,0.2 P,0,107630,108111,A M,0,107676,107723,371.4153,405.8615,392.5938,400.0175 M,0,107723,107770,392.5938,400.0175,371.4153,405.8615 M,0,107770,107817,371.4153,405.8615,351,414 M,0,107817,107864,351,414,371.4153,405.8615 M,0,107864,107911,371.4153,405.8615,392.5938,400.0175
//Storyboard Sound Samples

[TimingPoints]
12005,375,4,2,1,75,1,0
12005,-111.111111111111,4,2,1,75,0,0
24005,-100,4,2,2,90,0,0
36005,-90.9090909090909,4,2,2,95,0,1
48005,-111.111111111111,4,2,2,80,0,0
60005,-111.111111111111,4,2,2,85,0,0
72005,-100,4,2,2,90,0,0
73505,-166.666666666667,4,2,2,90,0,0
75005,-100,4,2,2,90,0,0
76505,-166.666666666667,4,2,2,90,0,0
78005,-100,4,2,2,90,0,0
79505,-166.666666666667,4,2,2,90,0,0
81005,-100,4,2,2,90,0,0
82505,-166.666666666667,4,2,2,90,0,0
84005,-90.9090909090909,4,2,2,95,0,1
96005,-90.9090909090909,4,2,2,90,0,1
108005,-100,4,2,2,90,0,0

[Colours]
Combo1 : 255,128,128
Combo2 : 128,128,192

[HitObjects]
174,81,12005,6,0,P|152:38|53:44,1,143.9999870224,6|10,3:2|0:0,0:0:0:0:
7,88,12567,1,2,0:0:0:0:
7,88,12755,2,0,P|20:145|36:234,1,143.9999870224,2|10,0:0|0:0,0:0:0:0:
185,278,13505,6,0,B|94:295|144:327|35:343,2,143.9999870224,2|10|2,3:2|0:0|0:0,0:0:0:0:
300,212,14630,2,0,P|293:175|267:148,2,71.9999935112002,10|2|2,0:0|0:0|3:2,0:0:0:0:
349,281,15192,1,0,0:0:0:0:
349,281,15380,2,0,P|393:270|426:263,1,71.9999935112002,10|0,0:0|0:0,0:0:0:0:
481,194,15755,6,0,P|468:137|434:31,1,143.9999870224,2|10,0:0|0:0,0:0:0:0:
375,12,16317,2,0,P|364:51|268:63,1,143.9999870224,2|2,0:0|0:0,0:0:0:0:
212,15,16880,1,10,0:0:0:0:
78,100,17255,6,0,P|92:140|105:182,1,71.9999935112002,2|0,0:0|3:0,0:0:0:0:
165,214,17630,2,0,P|157:240|152:255,3,35.9999967556001,10|2|2|2,0:0|0:0|0:0|0:0,0:0:0:0:
129,277,18005,1,2,3:2:0:0:
275,336,18380,6,0,P|321:327|348:323,1,71.9999935112002,10|0,0:0|0:0,0:0:0:0:
420,349,18755,2,0,P|390:310|420:219,1,143.9999870224,2|10,0:0|0:0,0:0:0:0:
486,193,19317,2,0,P|516:154|486:63,1,143.9999870224,2|2,0:0|0:0,0:0:0:0:
417,44,19880,2,0,P|374:55|331:68,1,71.9999935112002,10|0,0:0|0:0,0:0:0:0:
280,104,20255,6,0,P|269:143|284:173,1,71.9999935112002,2|0,0:0|3:0,0:0:0:0:
346,216,20630,2,0,P|357:255|342:285,2,71.9999935112002,10|2|2,0:0|0:0|3:2,0:0:0:0:
293,164,21192,1,0,0:0:0:0:
293,164,21380,1,10,0:0:0:0:
187,282,21755,6,0,P|126:267|46:242,1,143.9999870224,2|10,0:0|0:0,0:0:0:0:
0,170,22317,2,0,P|61:155|141:130,1,143.9999870224,2|2,0:0|0:0,0:0:0:0:
191,70,22880,1,2,0:0:0:0:
340,122,23255,6,0,P|349:84|360:47,1,71.9999935112002,2|0,0:0|0:0,0:0:0:0:
446,9,23630,2,0,P|456:43|464:78,1,71.9999935112002,2|0,0:0|0:0,0:0:0:0:
512,157,24005,6,0,P|448:140|399:212,1,159.999990463257,6|2,3:2|0:0,0:0:0:0:
373,292,24567,1,2,0:0:0:0:
283,246,24755,2,0,P|228:259|198:268,1,79.9999952316285,10|0,0:0|0:0,0:0:0:0:
196,272,25317,5,2,3:2:0:0:
196,272,25505,2,0,P|184:227|176:186,1,79.9999952316285,2|2,0:1|0:0,0:0:0:0:
243,135,25880,2,0,P|255:90|263:49,1,79.9999952316285,2|2,3:2|0:0,0:0:0:0:
190,4,26255,1,10,0:0:0:0:
107,65,26442,1,0,3:0:0:0:
97,60,26817,5,2,3:2:0:0:
198,0,27005,2,0,P|257:11|367:35,1,159.999990463257,2|2,3:1|0:0,0:0:0:0:
439,9,27567,1,2,0:0:0:0:
489,81,27755,2,0,P|478:124|469:164,1,79.9999952316285,10|2,0:0|0:0,0:0:0:0:
406,219,28130,1,2,0:0:0:0:
458,288,28317,1,2,3:2:0:0:
372,338,28505,6,0,P|310:354|231:290,1,159.999990463257,2|2,0:1|3:2,0:0:0:0:
273,222,29067,1,2,0:0:0:0:
201,168,29255,2,0,P|211:125|222:82,1,79.9999952316285,10|0,0:0|3:2,0:0:0:0:
269,17,29630,1,2,0:0:0:0:
388,146,30005,6,0,B|513:171|513:171|466:134,1,159.999990463257,2|2,3:1|0:0,0:0:0:0:
496,63,30567,1,2,0:0:0:0:
409,4,30755,2,0,P|354:17|324:26,1,79.9999952316285,2|0,0:0|0:0,0:0:0:0:
319,20,31317,5,2,3:2:0:0:
319,20,31505,2,0,P|327:59|337:97,1,79.9999952316285,2|2,0:1|0:0,0:0:0:0:
264,146,31880,2,0,P|252:191|244:232,1,79.9999952316285,2|2,3:2|0:0,0:0:0:0:
302,291,32255,1,10,0:0:0:0:
0,362,33005,6,0,P|43:305|132:321,1,159.999990463257,2|2,3:1|0:0,0:0:0:0:
196,264,33567,1,2,0:0:0:0:
238,341,33755,2,0,P|269:363|321:361,1,79.9999952316285,10|2,0:0|0:0,0:0:0:0:
381,312,34130,1,2,0:0:0:0:
455,358,34317,1,2,3:2:0:0:
490,268,34505,6,0,P|447:206|351:235,1,159.999990463257,2|2,0:1|3:2,0:0:0:0:
299,267,35067,1,2,0:0:0:0:
227,211,35255,2,0,P|247:170|248:125,1,79.9999952316285,2|0,0:0|0:0,0:0:0:0:
313,75,35630,2,0,P|307:53|295:33,3,39.9999976158142,2|2|2|2,0:0|0:0|0:0|0:0,0:0:0:0:
273,19,36005,6,0,P|348:32|465:46,1,175.999994880676,6|10,3:2|0:0,0:0:0:0:
507,119,36567,1,2,3:2:0:0:
446,217,36755,2,0,P|371:230|254:244,1,175.999994880676,2|10,0:0|0:2,0:0:0:0:
204,172,37317,5,2,3:2:0:0:
141,246,37505,2,0,P|152:292|162:334,1,87.9999974403381,2|2,3:2|0:2,0:0:0:0:
255,370,37880,1,10,0:2:0:0:
255,370,38067,1,2,3:2:0:0:
321,275,38255,2,0,P|354:245|398:249,1,87.9999974403381,2|2,0:2|3:2,0:0:0:0:
413,270,38536,1,0,3:2:0:0:
413,270,38630,2,0,P|444:299|487:298,1,87.9999974403381,10|2,0:2|3:2,0:0:0:0:
508,203,39005,6,0,P|496:152|482:105,1,87.9999974403381,2|2,3:2|0:2,0:0:0:0:
414,52,39380,2,0,P|401:94|392:137,1,87.9999974403381,10|2,0:2|3:2,0:0:0:0:
329,211,39755,1,2,0:2:0:0:
303,117,39942,1,2,3:2:0:0:
211,148,40130,1,10,0:2:0:0:
239,240,40317,1,2,3:2:0:0:
299,132,40505,6,0,P|288:87|275:42,1,87.9999974403381,2|2,3:2|0:2,0:0:0:0:
194,7,40880,1,2,3:2:0:0:
194,7,41067,2,0,P|172:61|54:63,1,175.999994880676,2|0,3:2|3:0,0:0:0:0:
19,8,41630,1,0,3:0:0:0:
19,8,41817,1,0,3:0:0:0:
65,72,42005,6,0,B|77:135|77:135|65:179|65:179|80:254,1,175.999994880676,2|10,3:2|0:0,0:0:0:0:
154,303,42567,1,2,3:2:0:0:
227,214,42755,2,0,P|302:201|419:187,1,175.999994880676,2|10,0:0|0:2,0:0:0:0:
465,116,43317,5,2,3:2:0:0:
409,36,43505,2,0,P|363:25|321:15,1,87.9999974403381,2|2,3:2|0:2,0:0:0:0:
241,67,43880,1,10,0:2:0:0:
241,67,44067,1,2,3:2:0:0:
146,44,44255,2,0,P|176:77|172:121,1,87.9999974403381,2|2,0:2|3:2,0:0:0:0:
150,136,44536,1,2,3:2:0:0:
150,136,44630,2,0,P|120:169|124:213,1,87.9999974403381,10|2,0:2|3:2,0:0:0:0:
193,276,45005,6,0,P|244:264|291:250,1,87.9999974403381,2|2,3:2|0:2,0:0:0:0:
349,188,45380,2,0,P|400:200|447:214,1,87.9999974403381,10|2,0:2|3:2,0:0:0:0:
497,136,45755,5,2,0:2:0:0:
440,57,45942,1,2,3:2:0:0:
345,80,46130,1,10,0:2:0:0:
307,168,46317,1,2,3:2:0:0:
206,129,46505,6,0,P|195:84|182:39,1,87.9999974403381,2|2,3:2|0:2,0:0:0:0:
94,5,46880,1,2,3:2:0:0:
94,5,47067,1,2,3:2:0:0:
48,90,47255,2,0,P|63:168|92:278,2,175.999994880676,2|2|6,3:2|3:2|0:2,0:0:0:0:
503,32,60005,6,0,B|368:47|460:117|307:142,1,215.999980533601,6|2,3:2|0:0,0:0:0:0:
255,101,60755,2,0,P|232:68|180:61,1,71.9999935112002,10|2,0:0|0:0,0:0:0:0:
129,7,61130,5,2,0:0:0:0:
129,7,61317,2,0,P|107:71|82:161,1,143.9999870224,2|2,3:2|0:0,0:0:0:0:
30,201,61880,1,2,3:2:0:0:
127,325,62255,6,0,P|170:314|206:310,1,71.9999935112002,10|2,0:2|0:2,0:0:0:0:
260,358,62630,2,0,P|303:369|339:373,1,71.9999935112002,2|2,3:2|0:2,0:0:0:0:
408,317,63005,2,0,P|426:276|359:216,1,143.9999870224,2|2,3:2|0:2,0:0:0:0:
296,258,63567,1,2,0:2:0:0:
239,201,63755,2,0,P|245:167|259:120,1,71.9999935112002,10|2,0:2|0:2,0:0:0:0:
330,104,64130,2,0,P|324:70|310:23,1,71.9999935112002,2|2,0:2|3:2,0:0:0:0:
227,0,64505,6,0,P|169:15|83:58,1,143.9999870224,2|0,0:2|3:2,0:0:0:0:
0,151,65255,2,0,P|17:199|29:238,1,71.9999935112002,10|2,0:0|0:0,0:0:0:0:
100,239,65630,2,0,P|83:287|71:326,1,71.9999935112002,2|2,3:2|0:0,0:0:0:0:
131,364,66005,6,0,P|178:350|280:342,1,143.9999870224,2|2,3:2|0:0,0:0:0:0:
334,292,66567,1,2,0:0:0:0:
412,350,66755,2,0,P|385:309|429:216,1,143.9999870224,10|2,0:0|0:0,0:0:0:0:
468,153,67317,6,0,P|387:171|248:211,1,215.999980533601,2|0,3:2|3:2,0:0:0:0:
218,77,68255,6,0,P|255:68|295:56,1,71.9999935112002,10|2,0:0|0:0,0:0:0:0:
343,2,68630,2,0,P|380:11|420:23,1,71.9999935112002,2|2,3:2|0:0,0:0:0:0:
487,82,69005,6,0,P|408:115|434:253,1,215.999980533601,2|2,3:2|0:0,0:0:0:0:
398,310,69755,2,0,P|350:328|316:343,1,71.9999935112002,10|2,0:0|0:0,0:0:0:0:
276,278,70130,2,0,P|228:260|194:245,1,71.9999935112002,2|2,0:0|3:2,0:0:0:0:
138,287,70505,1,2,0:0:0:0:
203,20,72005,6,0,P|98:28|70:217,1,319.999980926514,6|2,3:2|0:0,0:0:0:0:
64,210,73505,6,0,P|135:201|412:158,1,335.999969718934,6|2,3:2|0:2,0:0:0:0:
477,145,75005,6,0,B|411:261|402:163|259:239|377:307|247:370,1,319.999980926514,6|2,3:2|0:2,0:0:0:0:
261,361,76505,6,0,P|245:259|203:16,1,335.999969718934,6|2,3:2|0:2,0:0:0:0:
287,0,78005,6,0,B|328:-3|351:36|351:36|312:56|289:93|298:140|327:179|418:198|416:113|380:94,1,319.999980926514,6|2,3:2|0:0,0:0:0:0:
391,105,79505,6,0,B|196:56|277:217|69:173,1,335.999969718934,6|2,3:2|0:2,0:0:0:0:
19,123,81005,6,0,B|92:149|10:202|128:269|146:174|266:217|257:335,1,319.999980926514,6|6,3:2|3:2,0:0:0:0:
255,301,82505,6,0,P|279:228|197:261,1,191.999982696534,6|2,3:2|0:2,0:0:0:0:
512,57,84005,6,0,B|409:38|451:104|341:87,1,175.999994880676,6|10,3:2|0:0,0:0:0:0:
271,23,84567,1,2,3:2:0:0:
196,108,84755,2,0,P|213:179|234:292,1,175.999994880676,2|10,0:0|0:2,0:0:0:0:
296,352,85317,1,2,3:2:0:0:
370,289,85505,6,0,P|416:294|459:268,1,87.9999974403381,2|2,3:2|0:2,0:0:0:0:
501,193,85880,1,10,0:2:0:0:
501,193,86067,1,2,3:2:0:0:
426,107,86255,2,0,P|376:115|334:127,1,87.9999974403381,2|2,0:2|3:2,0:0:0:0:
320,141,86536,1,0,3:2:0:0:
320,141,86630,2,0,P|277:129|234:123,1,87.9999974403381,10|2,0:2|3:2,0:0:0:0:
156,64,87005,6,0,P|115:86|118:138,1,87.9999974403381,2|2,3:2|0:2,0:0:0:0:
21,163,87380,2,0,P|19:209|66:232,1,87.9999974403381,10|2,0:2|3:2,0:0:0:0:
142,201,87755,5,2,0:2:0:0:
119,294,87942,1,2,3:2:0:0:
216,232,88130,1,10,0:2:0:0:
236,326,88317,1,2,3:2:0:0:
319,249,88505,6,0,P|365:258|423:273,1,87.9999974403381,2|2,3:2|0:2,0:0:0:0:
501,226,88880,1,2,3:2:0:0:
501,226,89067,2,0,P|434:173|460:81,1,175.999994880676,2|0,3:2|3:0,0:0:0:0:
507,14,89630,1,0,3:0:0:0:
507,14,89817,1,0,3:0:0:0:
423,63,90005,6,0,B|320:44|252:93,1,175.999994880676,2|10,3:2|0:0,0:0:0:0:
157,91,90567,1,2,3:2:0:0:
214,190,90755,2,0,P|251:262|252:374,1,175.999994880676,2|10,0:0|0:2,0:0:0:0:
163,384,91317,1,2,3:2:0:0:
97,312,91505,6,0,P|51:317|8:291,1,87.9999974403381,2|2,3:2|0:2,0:0:0:0:
8,205,91880,1,10,0:2:0:0:
8,205,92067,1,2,3:2:0:0:
62,124,92255,2,0,P|112:116|154:104,1,87.9999974403381,2|2,0:2|3:2,0:0:0:0:
174,92,92536,1,2,3:2:0:0:
174,92,92630,2,0,P|217:104|260:110,1,87.9999974403381,10|2,0:2|3:2,0:0:0:0:
351,142,93005,6,0,P|371:101|355:54,1,87.9999974403381,2|2,3:2|0:2,0:0:0:0:
280,186,93380,2,0,P|273:229|304:271,1,87.9999974403381,10|2,0:2|3:2,0:0:0:0:
404,302,93755,5,2,0:2:0:0:
314,266,93942,1,2,3:2:0:0:
260,346,94130,1,10,0:2:0:0:
350,378,94317,1,2,3:2:0:0:
436,294,94505,6,0,P|445:248|460:190,1,87.9999974403381,2|2,3:2|0:2,0:0:0:0:
501,122,94880,1,2,3:2:0:0:
501,122,95067,1,2,3:2:0:0:
422,64,95255,2,0,B|315:46|367:120|224:95,1,175.999994880676,2|2,3:2|3:2,0:0:0:0:
73,167,96005,6,0,P|88:114|128:-9,2,175.999994880676,6|2|2,3:2|3:2|3:2,0:0:0:0:
179,328,97130,1,2,3:2:0:0:
194,338,97505,6,0,P|240:326|286:322,1,87.9999974403381,2|2,3:2|0:0,0:0:0:0:
348,253,97880,2,0,P|394:265|440:269,1,87.9999974403381,2|2,3:2|0:0,0:0:0:0:
498,196,98255,2,0,P|510:145|412:81,1,175.999994880676,2|2,3:2|3:2,0:0:0:0:
238,17,99005,6,0,P|276:-5|328:5,2,87.9999974403381,2|2|2,3:2|0:0|3:2,0:0:0:0:
158,49,99567,1,2,0:0:0:0:
116,120,99755,2,0,P|72:124|35:102,2,87.9999974403381,2|2|2,3:2|0:0|3:2,0:0:0:0:
167,58,100317,5,2,0:0:0:0:
236,130,100505,2,0,B|228:231|173:174|161:301,2,175.999994880676,2|2|2,3:2|3:2|3:2,0:0:0:0:
331,304,101630,1,0,3:2:0:0:
339,318,102005,6,0,P|353:275|372:232,1,87.9999974403381,2|2,3:2|3:2,0:0:0:0:
453,170,102380,2,0,P|439:127|420:84,1,87.9999974403381,2|2,3:2|3:2,0:0:0:0:
343,25,102755,1,2,3:2:0:0:
343,25,102942,1,0,3:2:0:0:
292,117,103130,2,0,P|251:139|204:130,1,87.9999974403381,2|2,3:2|3:2,0:0:0:0:
144,61,103505,6,0,P|81:65|58:116,1,87.9999974403381,2|2,3:2|3:2,0:0:0:0:
129,172,103880,1,2,3:2:0:0:
129,172,104067,1,2,3:2:0:0:
73,262,104255,2,0,P|88:310|99:350,1,87.9999974403381,2|2,3:2|3:2,0:0:0:0:
197,305,104630,1,2,3:2:0:0:
197,305,104817,1,2,3:2:0:0:
277,374,105005,6,0,P|325:364|365:354,1,87.9999974403381,2|2,3:2|3:2,0:0:0:0:
422,267,105380,2,0,P|379:256|336:247,1,87.9999974403381,2|2,3:2|3:2,0:0:0:0:
255,179,105755,1,2,3:2:0:0:
255,179,105942,1,2,3:2:0:0:
348,128,106130,1,2,3:2:0:0:
348,128,106317,1,2,3:2:0:0:
263,64,106505,6,0,P|206:66|96:315,1,351.999989761353,2|2,0:0|0:0,0:0:0:0:
287,358,107630,6,0,P|316:347|338:342,3,43.9999987201691,4|4|8|8,0:3|0:3|0:3|0:3,0:0:0:0:
357,322,108005,1,14,3:3:0:0:
