osu file format v14

[General]
AudioFilename: audio.mp3
AudioLeadIn: 0
PreviewTime: 36005
Countdown: 0
SampleSet: Soft
StackLeniency: 0.7
Mode: 0
LetterboxInBreaks: 0
EpilepsyWarning: 1
WidescreenStoryboard: 1

[Editor]
Bookmarks: 12005,24005,36005,48005,60005,72005,84005,96005,108005
DistanceSpacing: 3.9
BeatDivisor: 4
GridSize: 32
TimelineZoom: 1

[Metadata]
Title:MP3
TitleUnicode:MP3
Artist:amekudeku, mlvine, Scandal
ArtistUnicode:amekudeku, mlvine, Scandal
Creator:Daycore
Version:nemi's expert
Source:
Tags:electronic nemidnight plow -_lenkon ryxliee russian hyperpop hyper pop hip hop русский хайперпоп хайпер поп гиперпоп гипер амекудеку скандал млвин млвине de4n
BeatmapID:3979750
BeatmapSetID:1927238

[Difficulty]
HPDrainRate:5
CircleSize:4
OverallDifficulty:9
ApproachRate:9.2
SliderMultiplier:1.99999990463257
SliderTickRate:1

[Events]
//Background and Video events
0,0,"bgr.jpg",0,0
//Break Periods
2,48205,59435
//Storyboard Layer 0 (Background)
//Storyboard Layer 1 (Fail)
//Storyboard Layer 2 (Pass)
//Storyboard Layer 3 (Foreground)
//Storyboard Layer 4 (Overlay)
Sprite,Overlay,Centre,"sb\highlight.png",0,0 C,0,36005,,128,128,192 M,0,36005,36051,358,259,386.0682,234.2819 F,2,36005,36580,1,0 S,2,36005,36580,1,0.2 P,0,36005,36580,A M,0,36051,36098,386.0682,234.2819,420.4266,219.8983 M,0,36098,36145,420.4266,219.8983,457.5976,221.3585 M,0,36145,36192,457.5976,221.3585,491.8402,236.301 M,0,36192,36239,491.8402,236.301,521.7775,258.8025 M,0,36239,36286,521.7775,258.8025,486.5695,269.7073 M,0,36286,36333,486.5695,269.7073,458.1668,293.7154 M,0,36333,36380,458.1668,293.7154,441.4504,327.077
Sprite,Overlay,Centre,"sb\highlight.png",254,383 C,0,36567,,128,128,192 F,2,36567,36767,1,0 S,2,36567,36767,1,0.2 P,0,36567,36767,A
Sprite,Overlay,Centre,"sb\highlight.png",0,0 C,0,36755,,128,128,192 M,0,36755,36801,398,140,421.2823,169.3887 F,2,36755,37236,1,0 S,2,36755,37236,1,0.2 P,0,36755,37236,A M,0,36801,36848,421.2823,169.3887,442.8922,200.0278 M,0,36848,36895,442.8922,200.0278,462.6494,231.8929 M,0,36895,36942,462.6494,231.8929,480.589,264.8152 M,0,36942,36989,480.589,264.8152,496.5601,298.7361 M,0,36989,37036,496.5601,298.7361,510.5912,333.5039
Sprite,Overlay,Centre,"sb\highlight.png",506,345 C,0,37130,,255,128,128 F,2,37130,37330,1,0 S,2,37130,37330,1,0.2 P,0,37130,37330,A
Sprite,Overlay,Centre,"sb\highlight.png",286,203 C,0,37317,,255,128,128 F,2,37317,37517,1,0 S,2,37317,37517,1,0.2 P,0,37317,37517,A
Sprite,Overlay,Centre,"sb\highlight.png",0,0 C,0,37505,,255,128,128 M,0,37505,37551,214,265,188.1588,274.3769 F,2,37505,37892,1,0 S,2,37505,37892,1,0.2 P,0,37505,37892,A M,0,37551,37598,188.1588,274.3769,163.1257,285.7299 M,0,37598,37645,163.1257,285.7299,139.0326,298.9609 M,0,37645,37692,139.0326,298.9609,116.1016,314.1183
Sprite,Overlay,Centre,"sb\highlight.png",0,0 C,0,37880,,128,128,192 M,0,37880,37926,299,105,325.8763,105.0223 F,2,37880,38173,1,0 S,2,37880,38173,1,0.2 P,0,37880,38173,A M,0,37926,37973,325.8763,105.0223,347.671,120.7539
Sprite,Overlay,Centre,"sb\highlight.png",0,0 C,0,38067,,128,128,192 M,0,38067,38113,451,252,477.8763,251.9777 F,2,38067,38360,1,0 S,2,38067,38360,1,0.2 P,0,38067,38360,A M,0,38113,38160,477.8763,251.9777,499.671,236.2461
Sprite,Overlay,Centre,"sb\highlight.png",0,0 C,0,38255,,128,128,192 M,0,38255,38301,232,80,239.6972,106.3962 F,2,38255,38642,1,0 S,2,38255,38642,1,0.2 P,0,38255,38642,A M,0,38301,38348,239.6972,106.3962,248.7848,132.3452 M,0,38348,38395,248.7848,132.3452,259.2371,157.7745 M,0,38395,38442,259.2371,157.7745,270.9872,182.6313
Sprite,Overlay,Centre,"sb\highlight.png",351,194 C,0,38536,,128,128,192 F,2,38536,38736,1,0 S,2,38536,38736,1,0.2 P,0,38536,38736,A
Sprite,Overlay,Centre,"sb\highlight.png",0,0 C,0,38630,,128,128,192 M,0,38630,38676,352,176,327.6955,188.7738 F,2,38630,39111,1,0 S,2,38630,39111,1,0.2 P,0,38630,39111,A M,0,38676,38723,327.6955,188.7738,307.7398,207.4941 M,0,38723,38770,307.7398,207.4941,294.8881,231.7225 M,0,38770,38817,294.8881,231.7225,284.041,256.9846 M,0,38817,38864,284.041,256.9846,269.5158,280.282 M,0,38864,38911,269.5158,280.282,250.8796,300.4585
Sprite,Overlay,Centre,"sb\highlight.png",0,0 C,0,39005,,255,128,128 M,0,39005,39051,172,302,161.1297,276.7402 F,2,39005,39298,1,0 S,2,39005,39298,1,0.2 P,0,39005,39298,A M,0,39051,39098,161.1297,276.7402,149.795,251.6855
Sprite,Overlay,Centre,"sb\highlight.png",0,0 C,0,39192,,255,128,128 M,0,39192,39238,391,273,410.1258,269.6011 F,2,39192,39485,1,0 S,2,39192,39485,1,0.2 P,0,39192,39485,A M,0,39238,39285,410.1258,269.6011,394.5826,280.7007
Sprite,Overlay,Centre,"sb\highlight.png",0,0 C,0,39380,,128,128,192 M,0,39380,39426,263,416,237.6803,426.7304 F,2,39380,39673,1,0 S,2,39380,39673,1,0.2 P,0,39380,39673,A M,0,39426,39473,237.6803,426.7304,212.4975,437.7783
Sprite,Overlay,Centre,"sb\highlight.png",0,0 C,0,39567,,128,128,192 M,0,39567,39613,407,257,426.1258,260.3989 F,2,39567,39860,1,0 S,2,39567,39860,1,0.2 P,0,39567,39860,A M,0,39613,39660,426.1258,260.3989,410.5826,249.2993
Sprite,Overlay,Centre,"sb\highlight.png",0,0 C,0,39755,,255,128,128 M,0,39755,39801,365,192,372.214,218.5359 F,2,39755,40142,1,0 S,2,39755,40142,1,0.2 P,0,39755,40142,A M,0,39801,39848,372.214,218.5359,378.7932,245.2361 M,0,39848,39895,378.7932,245.2361,384.7494,272.0822 M,0,39895,39942,384.7494,272.0822,390.025,299.0703
Sprite,Overlay,Centre,"sb\highlight.png",472.352,357.352 C,0,40036,,255,128,128 F,2,40036,40236,1,0 S,2,40036,40236,1,0.2 P,0,40036,40236,A
Sprite,Overlay,Centre,"sb\highlight.png",0,0 C,0,40130,,255,128,128 M,0,40130,40176,476,361,501.9864,353.9016 F,2,40130,40423,1,0 S,2,40130,40423,1,0.2 P,0,40130,40423,A M,0,40176,40223,501.9864,353.9016,518.2046,332.4062
Sprite,Overlay,Centre,"sb\highlight.png",0,0 C,0,40317,,255,128,128 M,0,40317,40363,543,173,517.0136,180.0984 F,2,40317,40610,1,0 S,2,40317,40610,1,0.2 P,0,40317,40610,A M,0,40363,40410,517.0136,180.0984,500.7954,201.5938
Sprite,Overlay,Centre,"sb\highlight.png",0,0 C,0,40505,,128,128,192 M,0,40505,40551,262.352,88.352,288.7579,56.42223 F,2,40505,40986,1,0 S,2,40505,40986,1,0.2 P,0,40505,40986,A M,0,40551,40598,288.7579,56.42223,329.1854,59.61147 M,0,40598,40645,329.1854,59.61147,350.6907,94.9282 M,0,40645,40692,350.6907,94.9282,346.1783,136.7106 M,0,40692,40739,346.1783,136.7106,324.5126,172.9964 M,0,40739,40786,324.5126,172.9964,291.5462,199.4318
Sprite,Overlay,Centre,"sb\highlight.png",0,0 C,0,40880,,128,128,192 M,0,40880,40926,295,203,293.8834,188.0874 F,2,40880,41173,1,0 S,2,40880,41173,1,0.2 P,0,40880,41173,A M,0,40926,40973,293.8834,188.0874,291.3074,173.3345
Sprite,Overlay,Centre,"sb\highlight.png",0,0 C,0,41067,,255,128,128 M,0,41067,41113,266,92,228.2385,74.80466 F,2,41067,41548,1,0 S,2,41067,41548,1,0.2 P,0,41067,41548,A M,0,41113,41160,228.2385,74.80466,192.8899,94.70839 M,0,41160,41207,192.8899,94.70839,188.3876,135.7918 M,0,41207,41254,188.3876,135.7918,210.3493,171.6166 M,0,41254,41301,210.3493,171.6166,245.4951,195.0858 M,0,41301,41348,245.4951,195.0858,286.6175,204.8185
Sprite,Overlay,Centre,"sb\highlight.png",0,0 C,0,41442,,128,128,192 M,0,41442,41488,295,203,293.8834,188.0874 F,2,41442,41735,1,0 S,2,41442,41735,1,0.2 P,0,41442,41735,A M,0,41488,41535,293.8834,188.0874,291.3074,173.3345
Sprite,Overlay,Centre,"sb\highlight.png",0,0 C,0,41630,,128,128,192 M,0,41630,41676,347,292,348.1166,277.0874 F,2,41630,41923,1,0 S,2,41630,41923,1,0.2 P,0,41630,41923,A M,0,41676,41723,348.1166,277.0874,350.6926,262.3345
Sprite,Overlay,Centre,"sb\highlight.png",0,0 C,0,41817,,128,128,192 M,0,41817,41863,299,385,297.8834,370.0874 F,2,41817,42110,1,0 S,2,41817,42110,1,0.2 P,0,41817,42110,A M,0,41863,41910,297.8834,370.0874,295.3074,355.3345
Sprite,Overlay,Centre,"sb\highlight.png",0,0 C,0,42005,,255,128,128 M,0,42005,42051,366,432,341.6786,403.891 F,2,42005,42580,1,0 S,2,42005,42580,1,0.2 P,0,42005,42580,A M,0,42051,42098,341.6786,403.891,325.7883,369.9348 M,0,42098,42145,325.7883,369.9348,304.0281,339.6865 M,0,42145,42192,304.0281,339.6865,270.9573,322.896 M,0,42192,42239,270.9573,322.896,233.6694,321.8952 M,0,42239,42286,233.6694,321.8952,197.0829,329.9987 M,0,42286,42333,197.0829,329.9987,160.3674,337.3911 M,0,42333,42380,160.3674,337.3911,123.0787,335.1239
Sprite,Overlay,Centre,"sb\highlight.png",427,248 C,0,42567,,255,128,128 F,2,42567,42767,1,0 S,2,42567,42767,1,0.2 P,0,42567,42767,A
Sprite,Overlay,Centre,"sb\highlight.png",0,0 C,0,42755,,255,128,128 M,0,42755,42801,230,428,218.8781,392.5947 F,2,42755,43236,1,0 S,2,42755,43236,1,0.2 P,0,42755,43236,A M,0,42801,42848,218.8781,392.5947,224.827,355.6896 M,0,42848,42895,224.827,355.6896,244.5943,324.4733 M,0,42895,42942,244.5943,324.4733,274.8865,302.4644 M,0,42942,42989,274.8865,302.4644,310.5756,292.4649 M,0,42989,43036,310.5756,292.4649,347.5486,297.7873
Sprite,Overlay,Centre,"sb\highlight.png",357,310 C,0,43130,,128,128,192 F,2,43130,43330,1,0 S,2,43130,43330,1,0.2 P,0,43130,43330,A
Sprite,Overlay,Centre,"sb\highlight.png",0,0 C,0,43317,,128,128,192 M,0,43317,43363,556,418,551.9417,390.847 F,2,43317,43610,1,0 S,2,43317,43610,1,0.2 P,0,43317,43610,A M,0,43363,43410,551.9417,390.847,544.1861,364.5111
Sprite,Overlay,Centre,"sb\highlight.png",0,0 C,0,43505,,255,128,128 M,0,43505,43551,511,139,510.2162,166.1827 F,2,43505,43892,1,0 S,2,43505,43892,1,0.2 P,0,43505,43892,A M,0,43551,43598,510.2162,166.1827,498.0025,190.3826 M,0,43598,43645,498.0025,190.3826,476.7001,207.0739 M,0,43645,43692,476.7001,207.0739,450.3584,213.3436
Sprite,Overlay,Centre,"sb\highlight.png",381,172 C,0,43786,,255,128,128 F,2,43786,43986,1,0 S,2,43786,43986,1,0.2 P,0,43786,43986,A
Sprite,Overlay,Centre,"sb\highlight.png",385,159 C,0,43880,,255,128,128 F,2,43880,44080,1,0 S,2,43880,44080,1,0.2 P,0,43880,44080,A
Sprite,Overlay,Centre,"sb\highlight.png",553,332 C,0,44067,,255,128,128 F,2,44067,44267,1,0 S,2,44067,44267,1,0.2 P,0,44067,44267,A
Sprite,Overlay,Centre,"sb\highlight.png",0,0 C,0,44255,,255,128,128 M,0,44255,44301,445,218,418.7109,226.0695 F,2,44255,44642,1,0 S,2,44255,44642,1,0.2 P,0,44255,44642,A M,0,44301,44348,418.7109,226.0695,392.5335,234.4942 M,0,44348,44395,392.5335,234.4942,366.4726,243.2721 M,0,44395,44442,366.4726,243.2721,340.5301,252.3946
Sprite,Overlay,Centre,"sb\highlight.png",267,255 C,0,44536,,128,128,192 F,2,44536,44736,1,0 S,2,44536,44736,1,0.2 P,0,44536,44736,A
Sprite,Overlay,Centre,"sb\highlight.png",0,0 C,0,44630,,128,128,192 M,0,44630,44676,262,244,234.7466,240.4258 F,2,44630,44923,1,0 S,2,44630,44923,1,0.2 P,0,44630,44923,A M,0,44676,44723,234.7466,240.4258,207.9051,234.5017
Sprite,Overlay,Centre,"sb\highlight.png",0,0 C,0,44817,,128,128,192 M,0,44817,44863,422,347,415.8519,373.7954 F,2,44817,45110,1,0 S,2,44817,45110,1,0.2 P,0,44817,45110,A M,0,44863,44910,415.8519,373.7954,412,401
Sprite,Overlay,Centre,"sb\highlight.png",0,0 C,0,45005,,255,128,128 M,0,45005,45051,326,166,329.0622,138.6943 F,2,45005,45298,1,0 S,2,45005,45298,1,0.2 P,0,45005,45298,A M,0,45051,45098,329.0622,138.6943,334.7857,111.8205
Sprite,Overlay,Centre,"sb\highlight.png",0,0 C,0,45192,,255,128,128 M,0,45192,45238,145,288,117.7466,291.5742 F,2,45192,45485,1,0 S,2,45192,45485,1,0.2 P,0,45192,45485,A M,0,45238,45285,117.7466,291.5742,90.90514,297.4983
Sprite,Overlay,Centre,"sb\highlight.png",0,0 C,0,45380,,128,128,192 M,0,45380,45426,327,400,319.8417,381.7302 F,2,45380,45673,1,0 S,2,45380,45673,1,0.2 P,0,45380,45673,A M,0,45426,45473,319.8417,381.7302,315.3165,398.5396
Sprite,Overlay,Centre,"sb\highlight.png",0,0 C,0,45567,,128,128,192 M,0,45567,45613,145,169,117.7466,165.4258 F,2,45567,45860,1,0 S,2,45567,45860,1,0.2 P,0,45567,45860,A M,0,45613,45660,117.7466,165.4258,90.90514,159.5017
Sprite,Overlay,Centre,"sb\highlight.png",0,0 C,0,45755,,255,128,128 M,0,45755,45801,448,243,421.3129,249.6166 F,2,45755,46142,1,0 S,2,45755,46142,1,0.2 P,0,45755,46142,A M,0,45801,45848,421.3129,249.6166,395.0372,257.7096 M,0,45848,45895,395.0372,257.7096,369.2541,267.2539 M,0,45895,45942,369.2541,267.2539,344.0214,278.1729
Sprite,Overlay,Centre,"sb\highlight.png",272,324 C,0,46036,,255,128,128 F,2,46036,46236,1,0 S,2,46036,46236,1,0.2 P,0,46036,46236,A
Sprite,Overlay,Centre,"sb\highlight.png",0,0 C,0,46130,,255,128,128 M,0,46130,46176,282,330,294.7583,354.3018 F,2,46130,46423,1,0 S,2,46130,46423,1,0.2 P,0,46130,46423,A M,0,46176,46223,294.7583,354.3018,302.7255,380.553
Sprite,Overlay,Centre,"sb\highlight.png",0,0 C,0,46317,,255,128,128 M,0,46317,46363,476,183,462.9506,207.1527 F,2,46317,46610,1,0 S,2,46317,46610,1,0.2 P,0,46317,46610,A M,0,46363,46410,462.9506,207.1527,455,233
Sprite,Overlay,Centre,"sb\highlight.png",0,0 C,0,46505,,128,128,192 M,0,46505,46551,198.352,111.352,155.0466,81.80059 F,2,46505,46986,1,0 S,2,46505,46986,1,0.2 P,0,46505,46986,A M,0,46551,46598,155.0466,81.80059,195.5004,72.1711 M,0,46598,46645,195.5004,72.1711,246.8207,88.80765 M,0,46645,46692,246.8207,88.80765,270.0556,136.5921 M,0,46692,46739,270.0556,136.5921,242.641,177.4574 M,0,46739,46786,242.641,177.4574,204.6852,215.2831
Sprite,Overlay,Centre,"sb\highlight.png",0,0 C,0,46880,,255,128,128 M,0,46880,46926,208,218,215.1583,199.7302 F,2,46880,47173,1,0 S,2,46880,47173,1,0.2 P,0,46880,47173,A M,0,46926,46973,215.1583,199.7302,219.6835,216.5396
Sprite,Overlay,Centre,"sb\highlight.png",0,0 C,0,47067,,255,128,128 M,0,47067,47113,401,305,393.8417,286.7302 F,2,47067,47360,1,0 S,2,47067,47360,1,0.2 P,0,47067,47360,A M,0,47113,47160,393.8417,286.7302,389.3165,303.5396
Sprite,Overlay,Centre,"sb\highlight.png",0,0 C,0,47255,,128,128,192 M,0,47255,47301,125,206,98.08891,231.5128 F,2,47255,47736,1,0 S,2,47255,47736,1,0.2 P,0,47255,47736,A M,0,47301,47348,98.08891,231.5128,86.26913,266.8107 M,0,47348,47395,86.26913,266.8107,112.3977,245.7462 M,0,47395,47442,112.3977,245.7462,145.956,229.2199 M,0,47442,47489,145.956,229.2199,182.255,220.0003 M,0,47489,47536,182.255,220.0003,219.5428,216.2508
Sprite,Overlay,Centre,"sb\highlight.png",0,0 C,0,47630,,255,128,128 M,0,47630,47676,276,155,283.2422,143.1272 F,2,47630,48111,1,0 S,2,47630,48111,1,0.2 P,0,47630,48111,A M,0,47676,47723,283.2422,143.1272,295.7037,138.754 M,0,47723,47770,295.7037,138.754,307.6577,144.8055 M,0,47770,47817,307.6577,144.8055,311.6111,157.9029 M,0,47817,47864,311.6111,157.9029,304.6349,170.0976 M,0,47864,47911,304.6349,170.0976,290.534,173.4596
Sprite,Overlay,Centre,"sb\highlight.png",0,0 C,0,84005,,255,128,128 M,0,84005,84051,569,338,546.3602,308.376 F,2,84005,84486,1,0 S,2,84005,84486,1,0.2 P,0,84005,84486,A M,0,84051,84098,546.3602,308.376,512.7469,293.2755 M,0,84098,84145,512.7469,293.2755,477.9117,304.7045 M,0,84145,84192,477.9117,304.7045,450.406,330.1555 M,0,84192,84239,450.406,330.1555,419.7126,351.444 M,0,84239,84286,419.7126,351.444,384.2271,363.3067
Sprite,Overlay,Centre,"sb\highlight.png",369,357 C,0,84380,,255,128,128 F,2,84380,84580,1,0 S,2,84380,84580,1,0.2 P,0,84380,84580,A
Sprite,Overlay,Centre,"sb\highlight.png",576,431 C,0,84567,,255,128,128 F,2,84567,84767,1,0 S,2,84567,84767,1,0.2 P,0,84567,84767,A
Sprite,Overlay,Centre,"sb\highlight.png",0,0 C,0,84755,,255,128,128 M,0,84755,84801,387,226,407.6726,257.2807 F,2,84755,85236,1,0 S,2,84755,85236,1,0.2 P,0,84755,85236,A M,0,84801,84848,407.6726,257.2807,426.7206,289.5758 M,0,84848,84895,426.7206,289.5758,444.0079,322.8466 M,0,84895,84942,444.0079,322.8466,459.5497,356.9672 M,0,84942,84989,459.5497,356.9672,473.2865,391.8544 M,0,84989,85036,473.2865,391.8544,485.1251,427.4304
Sprite,Overlay,Centre,"sb\highlight.png",497,430 C,0,85130,,128,128,192 F,2,85130,85330,1,0 S,2,85130,85330,1,0.2 P,0,85130,85330,A
Sprite,Overlay,Centre,"sb\highlight.png",301,291 C,0,85317,,128,128,192 F,2,85317,85517,1,0 S,2,85317,85517,1,0.2 P,0,85317,85517,A
Sprite,Overlay,Centre,"sb\highlight.png",0,0 C,0,85505,,128,128,192 M,0,85505,85551,235,343,208.4182,349.9918 F,2,85505,85892,1,0 S,2,85505,85892,1,0.2 P,0,85505,85892,A M,0,85551,85598,208.4182,349.9918,182.6092,359.4339 M,0,85598,85645,182.6092,359.4339,157.743,371.1439 M,0,85645,85692,157.743,371.1439,134.177,385.2898
Sprite,Overlay,Centre,"sb\highlight.png",0,0 C,0,85880,,255,128,128 M,0,85880,85926,362,212,368.5391,185.2895 F,2,85880,86173,1,0 S,2,85880,86173,1,0.2 P,0,85880,86173,A M,0,85926,85973,368.5391,185.2895,374.4841,158.4407
Sprite,Overlay,Centre,"sb\highlight.png",0,0 C,0,86067,,255,128,128 M,0,86067,86113,340,427,333.4609,400.2895 F,2,86067,86360,1,0 S,2,86067,86360,1,0.2 P,0,86067,86360,A M,0,86113,86160,333.4609,400.2895,327.5159,373.4407
Sprite,Overlay,Centre,"sb\highlight.png",0,0 C,0,86255,,128,128,192 M,0,86255,86301,355,94,360.0341,121.0349 F,2,86255,86642,1,0 S,2,86255,86642,1,0.2 P,0,86255,86642,A M,0,86301,86348,360.0341,121.0349,365.4965,147.9865 M,0,86348,86395,365.4965,147.9865,371.3858,174.8479 M,0,86395,86442,371.3858,174.8479,377.7004,201.6125
Sprite,Overlay,Centre,"sb\highlight.png",431,261 C,0,86536,,128,128,192 F,2,86536,86736,1,0 S,2,86536,86736,1,0.2 P,0,86536,86736,A
Sprite,Overlay,Centre,"sb\highlight.png",0,0 C,0,86630,,128,128,192 M,0,86630,86676,441,251,420.6078,232.5499 F,2,86630,87111,1,0 S,2,86630,87111,1,0.2 P,0,86630,87111,A M,0,86676,86723,420.6078,232.5499,393.7929,237.0032 M,0,86723,86770,393.7929,237.0032,366.7808,242.16 M,0,86770,86817,366.7808,242.16,339.7686,247.3169 M,0,86817,86864,339.7686,247.3169,312.7564,252.4738 M,0,86864,86911,312.7564,252.4738,291.3788,236.7816
Sprite,Overlay,Centre,"sb\highlight.png",0,0 C,0,87005,,255,128,128 M,0,87005,87051,220,170,245.9775,161.0205 F,2,87005,87298,1,0 S,2,87005,87298,1,0.2 P,0,87005,87298,A M,0,87051,87098,245.9775,161.0205,272,155
Sprite,Overlay,Centre,"sb\highlight.png",0,0 C,0,87192,,255,128,128 M,0,87192,87238,421,334,414.0904,351.4757 F,2,87192,87485,1,0 S,2,87192,87485,1,0.2 P,0,87192,87485,A M,0,87238,87285,414.0904,351.4757,426,337
Sprite,Overlay,Centre,"sb\highlight.png",0,0 C,0,87380,,128,128,192 M,0,87380,87426,506,310,517.3463,320.8946 F,2,87380,87673,1,0 S,2,87380,87673,1,0.2 P,0,87380,87673,A M,0,87426,87473,517.3463,320.8946,512.4514,306.1118
Sprite,Overlay,Centre,"sb\highlight.png",0,0 C,0,87567,,128,128,192 M,0,87567,87613,291,236,264.4815,243.2639 F,2,87567,87860,1,0 S,2,87567,87860,1,0.2 P,0,87567,87860,A M,0,87613,87660,264.4815,243.2639,238.4095,251.9957
Sprite,Overlay,Centre,"sb\highlight.png",0,0 C,0,87755,,255,128,128 M,0,87755,87801,449,82,475.5558,89.13727 F,2,87755,88142,1,0 S,2,87755,88142,1,0.2 P,0,87755,88142,A M,0,87801,87848,475.5558,89.13727,501.8589,97.154 M,0,87848,87895,501.8589,97.154,527.8883,106.0193 M,0,87895,87942,527.8883,106.0193,553.5887,115.798
Sprite,Overlay,Centre,"sb\highlight.png",572,185 C,0,88036,,255,128,128 F,2,88036,88236,1,0 S,2,88036,88236,1,0.2 P,0,88036,88236,A
Sprite,Overlay,Centre,"sb\highlight.png",0,0 C,0,88130,,255,128,128 M,0,88130,88176,575,196,563.2617,220.5513 F,2,88130,88423,1,0 S,2,88130,88423,1,0.2 P,0,88130,88423,A M,0,88176,88223,563.2617,220.5513,542.5038,238.1518
Sprite,Overlay,Centre,"sb\highlight.png",0,0 C,0,88317,,255,128,128 M,0,88317,88363,401,309,389.2617,284.4487 F,2,88317,88610,1,0 S,2,88317,88610,1,0.2 P,0,88317,88610,A M,0,88363,88410,389.2617,284.4487,368.5038,266.8482
Sprite,Overlay,Centre,"sb\highlight.png",0,0 C,0,88505,,128,128,192 M,0,88505,88551,187.352,143.352,213.7579,111.4222 F,2,88505,88986,1,0 S,2,88505,88986,1,0.2 P,0,88505,88986,A M,0,88551,88598,213.7579,111.4222,254.1854,114.6115 M,0,88598,88645,254.1854,114.6115,275.6907,149.9282 M,0,88645,88692,275.6907,149.9282,271.1783,191.7106 M,0,88692,88739,271.1783,191.7106,249.5126,227.9965 M,0,88739,88786,249.5126,227.9965,216.5462,254.4318
Sprite,Overlay,Centre,"sb\highlight.png",0,0 C,0,88880,,128,128,192 M,0,88880,88926,220,258,218.8834,243.0874 F,2,88880,89173,1,0 S,2,88880,89173,1,0.2 P,0,88880,89173,A M,0,88926,88973,218.8834,243.0874,216.3074,228.3345
Sprite,Overlay,Centre,"sb\highlight.png",0,0 C,0,89067,,255,128,128 M,0,89067,89113,191,147,153.2385,129.8047 F,2,89067,89548,1,0 S,2,89067,89548,1,0.2 P,0,89067,89548,A M,0,89113,89160,153.2385,129.8047,117.8899,149.7084 M,0,89160,89207,117.8899,149.7084,113.3876,190.7918 M,0,89207,89254,113.3876,190.7918,135.3493,226.6166 M,0,89254,89301,135.3493,226.6166,170.4951,250.0858 M,0,89301,89348,170.4951,250.0858,211.6175,259.8185
Sprite,Overlay,Centre,"sb\highlight.png",0,0 C,0,89442,,128,128,192 M,0,89442,89488,220,258,218.8834,243.0874 F,2,89442,89735,1,0 S,2,89442,89735,1,0.2 P,0,89442,89735,A M,0,89488,89535,218.8834,243.0874,216.3074,228.3345
Sprite,Overlay,Centre,"sb\highlight.png",0,0 C,0,89630,,128,128,192 M,0,89630,89676,279,175,280.1166,160.0874 F,2,89630,89923,1,0 S,2,89630,89923,1,0.2 P,0,89630,89923,A M,0,89676,89723,280.1166,160.0874,282.6926,145.3345
Sprite,Overlay,Centre,"sb\highlight.png",0,0 C,0,89817,,128,128,192 M,0,89817,89863,345,255,343.8834,240.0874 F,2,89817,90110,1,0 S,2,89817,90110,1,0.2 P,0,89817,90110,A M,0,89863,89910,343.8834,240.0874,341.3074,225.3345
Sprite,Overlay,Centre,"sb\highlight.png",0,0 C,0,90005,,255,128,128 M,0,90005,90051,412,199,367.497,192.6636 F,2,90005,90486,1,0 S,2,90005,90486,1,0.2 P,0,90005,90486,A M,0,90051,90098,367.497,192.6636,323.489,183.3774 M,0,90098,90145,323.489,183.3774,279.0417,187.2658 M,0,90145,90192,279.0417,187.2658,239.9136,209.0894 M,0,90192,90239,239.9136,209.0894,202.9255,234.6515 M,0,90239,90286,202.9255,234.6515,160.7361,249.6949
Sprite,Overlay,Centre,"sb\highlight.png",140,241 C,0,90380,,255,128,128 F,2,90380,90580,1,0 S,2,90380,90580,1,0.2 P,0,90380,90580,A
Sprite,Overlay,Centre,"sb\highlight.png",367,340 C,0,90567,,255,128,128 F,2,90567,90767,1,0 S,2,90567,90767,1,0.2 P,0,90567,90767,A
Sprite,Overlay,Centre,"sb\highlight.png",0,0 C,0,90755,,255,128,128 M,0,90755,90801,388,96,343.6901,91.70081 F,2,90755,91236,1,0 S,2,90755,91236,1,0.2 P,0,90755,91236,A M,0,90801,90848,343.6901,91.70081,302.0561,107.4892 M,0,90848,90895,302.0561,107.4892,272.4733,140.7496 M,0,90895,90942,272.4733,140.7496,260.7117,183.6877 M,0,90942,90989,260.7117,183.6877,270.1479,227.1839 M,0,90989,91036,270.1479,227.1839,297.9156,261.974
Sprite,Overlay,Centre,"sb\highlight.png",318,271 C,0,91130,,128,128,192 F,2,91130,91330,1,0 S,2,91130,91330,1,0.2 P,0,91130,91330,A
Sprite,Overlay,Centre,"sb\highlight.png",0,0 C,0,91317,,128,128,192 M,0,91317,91363,188,119,161.5409,126.3992 F,2,91317,91610,1,0 S,2,91317,91610,1,0.2 P,0,91317,91610,A M,0,91363,91410,161.5409,126.3992,136.2939,137.2343
Sprite,Overlay,Centre,"sb\highlight.png",0,0 C,0,91505,,255,128,128 M,0,91505,91551,420,211,446.7886,217.194 F,2,91505,91892,1,0 S,2,91505,91892,1,0.2 P,0,91505,91892,A M,0,91551,91598,446.7886,217.194,473.1985,224.8389 M,0,91598,91645,473.1985,224.8389,499.1514,233.9121 M,0,91645,91692,499.1514,233.9121,524.593,244.3361
Sprite,Overlay,Centre,"sb\highlight.png",567,312 C,0,91786,,255,128,128 F,2,91786,91986,1,0 S,2,91786,91986,1,0.2 P,0,91786,91986,A
Sprite,Overlay,Centre,"sb\highlight.png",564,322 C,0,91880,,255,128,128 F,2,91880,92080,1,0 S,2,91880,92080,1,0.2 P,0,91880,92080,A
Sprite,Overlay,Centre,"sb\highlight.png",391,135 C,0,92067,,255,128,128 F,2,92067,92267,1,0 S,2,92067,92267,1,0.2 P,0,92067,92267,A
Sprite,Overlay,Centre,"sb\highlight.png",0,0 C,0,92255,,255,128,128 M,0,92255,92301,569,338,542.2114,344.194 F,2,92255,92642,1,0 S,2,92255,92642,1,0.2 P,0,92255,92642,A M,0,92301,92348,542.2114,344.194,515.8015,351.8389 M,0,92348,92395,515.8015,351.8389,489.8486,360.912 M,0,92395,92442,489.8486,360.912,464.407,371.3361
Sprite,Overlay,Centre,"sb\highlight.png",388,364 C,0,92536,,128,128,192 F,2,92536,92736,1,0 S,2,92536,92736,1,0.2 P,0,92536,92736,A
Sprite,Overlay,Centre,"sb\highlight.png",0,0 C,0,92630,,128,128,192 M,0,92630,92676,378,355,350.9073,350.2958 F,2,92630,92923,1,0 S,2,92630,92923,1,0.2 P,0,92630,92923,A M,0,92676,92723,350.9073,350.2958,323.9895,344.6764
Sprite,Overlay,Centre,"sb\highlight.png",0,0 C,0,92817,,128,128,192 M,0,92817,92863,143,305,116.1512,299.0635 F,2,92817,93110,1,0 S,2,92817,93110,1,0.2 P,0,92817,93110,A M,0,92863,92910,116.1512,299.0635,89.09129,294.1777
Sprite,Overlay,Centre,"sb\highlight.png",0,0 C,0,93005,,255,128,128 M,0,93005,93051,331,219,323.8417,200.7302 F,2,93005,93298,1,0 S,2,93005,93298,1,0.2 P,0,93005,93298,A M,0,93051,93098,323.8417,200.7302,319.3165,217.5396
Sprite,Overlay,Centre,"sb\highlight.png",0,0 C,0,93192,,255,128,128 M,0,93192,93238,144,404,136.8417,422.2698 F,2,93192,93485,1,0 S,2,93192,93485,1,0.2 P,0,93192,93485,A M,0,93238,93285,136.8417,422.2698,132.3165,405.4604
Sprite,Overlay,Centre,"sb\highlight.png",0,0 C,0,93380,,128,128,192 M,0,93380,93426,201,211,193.0135,184.693 F,2,93380,93673,1,0 S,2,93380,93673,1,0.2 P,0,93380,93673,A M,0,93426,93473,193.0135,184.693,183.2571,158.9922
Sprite,Overlay,Centre,"sb\highlight.png",0,0 C,0,93567,,128,128,192 M,0,93567,93613,268,423,260.0135,396.6931 F,2,93567,93860,1,0 S,2,93567,93860,1,0.2 P,0,93567,93860,A M,0,93613,93660,260.0135,396.6931,250.2571,370.9922
Sprite,Overlay,Centre,"sb\highlight.png",0,0 C,0,93755,,255,128,128 M,0,93755,93801,318,150,308.7141,175.8806 F,2,93755,94048,1,0 S,2,93755,94048,1,0.2 P,0,93755,94048,A M,0,93801,93848,308.7141,175.8806,301,202
Sprite,Overlay,Centre,"sb\highlight.png",0,0 C,0,93942,,255,128,128 M,0,93942,93988,161,351,151.7141,376.8806 F,2,93942,94235,1,0 S,2,93942,94235,1,0.2 P,0,93942,94235,A M,0,93988,94035,151.7141,376.8806,144,403
Sprite,Overlay,Centre,"sb\highlight.png",0,0 C,0,94130,,128,128,192 M,0,94130,94176,212,215,204.1562,188.6526 F,2,94130,94423,1,0 S,2,94130,94423,1,0.2 P,0,94130,94423,A M,0,94176,94223,204.1562,188.6526,194.3972,162.9521
Sprite,Overlay,Centre,"sb\highlight.png",0,0 C,0,94317,,128,128,192 M,0,94317,94363,347,347,356.286,372.8806 F,2,94317,94610,1,0 S,2,94317,94610,1,0.2 P,0,94317,94610,A M,0,94363,94410,356.286,372.8806,364,399
Sprite,Overlay,Centre,"sb\highlight.png",0,0 C,0,94505,,255,128,128 M,0,94505,94551,514,248,564.3889,236.4957 F,2,94505,94986,1,0 S,2,94505,94986,1,0.2 P,0,94505,94986,A M,0,94551,94598,564.3889,236.4957,551.8742,189.4664 M,0,94598,94645,551.8742,189.4664,499.167,186.4025 M,0,94645,94692,499.167,186.4025,456.643,220.751 M,0,94692,94739,456.643,220.751,409.214,246.7936 M,0,94739,94786,409.214,246.7936,354.8507,242.4852
Sprite,Overlay,Centre,"sb\highlight.png",0,0 C,0,94880,,128,128,192 M,0,94880,94926,330,174,337.1583,155.7302 F,2,94880,95173,1,0 S,2,94880,95173,1,0.2 P,0,94880,95173,A M,0,94926,94973,337.1583,155.7302,341.6835,172.5396
Sprite,Overlay,Centre,"sb\highlight.png",0,0 C,0,95067,,128,128,192 M,0,95067,95113,462,345,469.1583,363.2698 F,2,95067,95360,1,0 S,2,95067,95360,1,0.2 P,0,95067,95360,A M,0,95113,95160,469.1583,363.2698,473.6835,346.4604
Sprite,Overlay,Centre,"sb\highlight.png",0,0 C,0,95255,,255,128,128 M,0,95255,95301,521,132,487.3979,143.1024 F,2,95255,95736,1,0 S,2,95255,95736,1,0.2 P,0,95255,95736,A M,0,95301,95348,487.3979,143.1024,468.3357,175.396 M,0,95348,95395,468.3357,175.396,449.2734,207.6897 M,0,95395,95442,449.2734,207.6897,430.2112,239.9834 M,0,95442,95489,430.2112,239.9834,411.149,272.277 M,0,95489,95536,411.149,272.277,379.1324,286.2242
Sprite,Overlay,Centre,"sb\highlight.png",0,0 C,0,95630,,255,128,128 M,0,95630,95676,295.352,251.352,327.8441,264.9938 F,2,95630,96111,1,0 S,2,95630,96111,1,0.2 P,0,95630,96111,A M,0,95676,95723,327.8441,264.9938,346.8478,297.322 M,0,95723,95770,346.8478,297.322,365.8516,329.6501 M,0,95770,95817,365.8516,329.6501,384.8553,361.9782 M,0,95817,95864,384.8553,361.9782,403.859,394.3064 M,0,95864,95911,403.859,394.3064,434.5895,410.0431
Sprite,Overlay,Centre,"sb\highlight.png",0,0 C,0,96005,,128,128,192 M,0,96005,96051,439,414,443.8963,412.987 F,2,96005,96486,1,0 S,2,96005,96486,1,0.2 P,0,96005,96486,A M,0,96051,96098,443.8963,412.987,448.7926,411.9739 M,0,96098,96145,448.7926,411.9739,453.6889,410.9609 M,0,96145,96192,453.6889,410.9609,458.5852,409.9479 M,0,96192,96239,458.5852,409.9479,463.4815,408.9349 M,0,96239,96286,463.4815,408.9349,468,408
Sprite,Overlay,Centre,"sb\highlight.png",0,0 C,0,96380,,255,128,128 M,0,96380,96426,250,381,262.1035,377.8765 F,2,96380,96673,1,0 S,2,96380,96673,1,0.2 P,0,96380,96673,A M,0,96426,96473,262.1035,377.8765,274.2069,374.7531
Sprite,Overlay,Centre,"sb\highlight.png",0,0 C,0,96567,,255,128,128 M,0,96567,96613,362,348,374.1035,344.8765 F,2,96567,96860,1,0 S,2,96567,96860,1,0.2 P,0,96567,96860,A M,0,96613,96660,374.1035,344.8765,386.2069,341.7531
Sprite,Overlay,Centre,"sb\highlight.png",0,0 C,0,96755,,128,128,192 M,0,96755,96801,473,309,477.8963,307.987 F,2,96755,97236,1,0 S,2,96755,97236,1,0.2 P,0,96755,97236,A M,0,96801,96848,477.8963,307.987,482.7926,306.9739 M,0,96848,96895,482.7926,306.9739,487.6889,305.9609 M,0,96895,96942,487.6889,305.9609,492.5852,304.9479 M,0,96942,96989,492.5852,304.9479,497.4815,303.9349 M,0,96989,97036,497.4815,303.9349,502,303
Sprite,Overlay,Centre,"sb\highlight.png",0,0 C,0,97130,,255,128,128 M,0,97130,97176,272,272,276.9273,272.8495 F,2,97130,97611,1,0 S,2,97130,97611,1,0.2 P,0,97130,97611,A M,0,97176,97223,276.9273,272.8495,281.8546,273.6991 M,0,97223,97270,281.8546,273.6991,286.7819,274.5486 M,0,97270,97317,286.7819,274.5486,291.7092,275.3981 M,0,97317,97364,291.7092,275.3981,296.6365,276.2477 M,0,97364,97411,296.6365,276.2477,301,277
Sprite,Overlay,Centre,"sb\highlight.png",0,0 C,0,97505,,128,128,192 M,0,97505,97551,99,82,94.06803,82.82199 F,2,97505,97986,1,0 S,2,97505,97986,1,0.2 P,0,97505,97986,A M,0,97551,97598,94.06803,82.82199,89.13606,83.64399 M,0,97598,97645,89.13606,83.64399,84.20409,84.46599 M,0,97645,97692,84.20409,84.46599,79.27213,85.28798 M,0,97692,97739,79.27213,85.28798,74.34015,86.10997 M,0,97739,97786,74.34015,86.10997,69.40819,86.93197
Sprite,Overlay,Centre,"sb\highlight.png",0,0 C,0,97880,,255,128,128 M,0,97880,97926,169,126,181.3103,123.8307 F,2,97880,98173,1,0 S,2,97880,98173,1,0.2 P,0,97880,98173,A M,0,97926,97973,181.3103,123.8307,193.6108,121.6069
Sprite,Overlay,Centre,"sb\highlight.png",0,0 C,0,98067,,255,128,128 M,0,98067,98113,286,101,298.3103,98.83073 F,2,98067,98360,1,0 S,2,98067,98360,1,0.2 P,0,98067,98360,A M,0,98113,98160,298.3103,98.83073,310.6108,96.60692
Sprite,Overlay,Centre,"sb\highlight.png",0,0 C,0,98255,,128,128,192 M,0,98255,98301,406,79,410.9221,78.12252 F,2,98255,98736,1,0 S,2,98255,98736,1,0.2 P,0,98255,98736,A M,0,98301,98348,410.9221,78.12252,415.8287,77.15864 M,0,98348,98395,415.8287,77.15864,420.7672,76.37887 M,0,98395,98442,420.7672,76.37887,425.693,75.51981 M,0,98442,98489,425.693,75.51981,430.646,74.83808 M,0,98489,98536,430.646,74.83808,435.5875,74.07309
Sprite,Overlay,Centre,"sb\highlight.png",0,0 C,0,98630,,128,128,192 M,0,98630,98676,125,201,120.0439,201.6608 F,2,98630,99111,1,0 S,2,98630,99111,1,0.2 P,0,98630,99111,A M,0,98676,98723,120.0439,201.6608,115.0877,202.3216 M,0,98723,98770,115.0877,202.3216,110.1316,202.9825 M,0,98770,98817,110.1316,202.9825,105.1754,203.6433 M,0,98817,98864,105.1754,203.6433,100.2193,204.3041 M,0,98864,98911,100.2193,204.3041,95.26317,204.9649
Sprite,Overlay,Centre,"sb\highlight.png",0,0 C,0,99005,,255,128,128 M,0,99005,99051,271,165,256.8496,162.6418 F,2,99005,99298,1,0 S,2,99005,99298,1,0.2 P,0,99005,99298,A M,0,99051,99098,256.8496,162.6418,268.8422,155.6976
Sprite,Overlay,Centre,"sb\highlight.png",0,0 C,0,99192,,128,128,192 M,0,99192,99238,349,205,345.9356,191.8562 F,2,99192,99485,1,0 S,2,99192,99485,1,0.2 P,0,99192,99485,A M,0,99238,99285,345.9356,191.8562,355.6074,196.6143
Sprite,Overlay,Centre,"sb\highlight.png",0,0 C,0,99380,,255,128,128 M,0,99380,99426,380,274,376.9356,287.1438 F,2,99380,99673,1,0 S,2,99380,99673,1,0.2 P,0,99380,99673,A M,0,99426,99473,376.9356,287.1438,386.6074,282.3857
Sprite,Overlay,Centre,"sb\highlight.png",0,0 C,0,99567,,128,128,192 M,0,99567,99613,331,356,318.4571,359.0667 F,2,99567,99860,1,0 S,2,99567,99860,1,0.2 P,0,99567,99860,A M,0,99613,99660,318.4571,359.0667,327.0241,364.2244
Sprite,Overlay,Centre,"sb\highlight.png",0,0 C,0,99755,,255,128,128 M,0,99755,99801,437,219,450.1438,215.9357 F,2,99755,100048,1,0 S,2,99755,100048,1,0.2 P,0,99755,100048,A M,0,99801,99848,450.1438,215.9357,445.3856,225.6073
Sprite,Overlay,Centre,"sb\highlight.png",0,0 C,0,99942,,128,128,192 M,0,99942,99988,289,271,275.8562,274.0643 F,2,99942,100235,1,0 S,2,99942,100235,1,0.2 P,0,99942,100235,A M,0,99988,100035,275.8562,274.0643,280.6143,264.3926
Sprite,Overlay,Centre,"sb\highlight.png",0,0 C,0,100130,,255,128,128 M,0,100130,100176,448,237,462.5198,238.7529 F,2,100130,100423,1,0 S,2,100130,100423,1,0.2 P,0,100130,100423,A M,0,100176,100223,462.5198,238.7529,454.4723,248.5008
Sprite,Overlay,Centre,"sb\highlight.png",0,0 C,0,100317,,128,128,192 M,0,100317,100363,287,256,272.7492,258.4125 F,2,100317,100610,1,0 S,2,100317,100610,1,0.2 P,0,100317,100610,A M,0,100363,100410,272.7492,258.4125,281.881,247.802
Sprite,Overlay,Centre,"sb\highlight.png",0,0 C,0,100505,,255,128,128 M,0,100505,100551,475,395,473.0988,399.6217 F,2,100505,100986,1,0 S,2,100505,100986,1,0.2 P,0,100505,100986,A M,0,100551,100598,473.0988,399.6217,471.1977,404.2434 M,0,100598,100645,471.1977,404.2434,469.2721,408.8473 M,0,100645,100692,469.2721,408.8473,467.6299,413.5672 M,0,100692,100739,467.6299,413.5672,465.8293,418.232 M,0,100739,100786,465.8293,418.232,464.318,422.9975
Sprite,Overlay,Centre,"sb\highlight.png",0,0 C,0,100880,,128,128,192 M,0,100880,100926,307,362,308.7525,366.682 F,2,100880,101361,1,0 S,2,100880,101361,1,0.2 P,0,100880,101361,A M,0,100926,100973,308.7525,366.682,310.6432,371.3123 M,0,100973,101020,310.6432,371.3123,312.2531,376.0452 M,0,101020,101067,312.2531,376.0452,314.0027,380.7306 M,0,101067,101114,314.0027,380.7306,315.541,385.4879 M,0,101114,101161,315.541,385.4879,317,390
Sprite,Overlay,Centre,"sb\highlight.png",0,0 C,0,101255,,255,128,128 M,0,101255,101301,475,395,473.0988,399.6217 F,2,101255,101736,1,0 S,2,101255,101736,1,0.2 P,0,101255,101736,A M,0,101301,101348,473.0988,399.6217,471.1977,404.2434 M,0,101348,101395,471.1977,404.2434,469.2721,408.8473 M,0,101395,101442,469.2721,408.8473,467.6299,413.5672 M,0,101442,101489,467.6299,413.5672,465.8293,418.232 M,0,101489,101536,465.8293,418.232,464.318,422.9975
Sprite,Overlay,Centre,"sb\highlight.png",0,0 C,0,101630,,128,128,192 M,0,101630,101676,307,362,308.7525,366.682 F,2,101630,102111,1,0 S,2,101630,102111,1,0.2 P,0,101630,102111,A M,0,101676,101723,308.7525,366.682,310.6432,371.3123 M,0,101723,101770,310.6432,371.3123,312.2531,376.0452 M,0,101770,101817,312.2531,376.0452,314.0027,380.7306 M,0,101817,101864,314.0027,380.7306,315.541,385.4879 M,0,101864,101911,315.541,385.4879,317,390
Sprite,Overlay,Centre,"sb\highlight.png",428,274 C,0,102005,,255,128,128 F,2,102005,102205,1,0 S,2,102005,102205,1,0.2 P,0,102005,102205,A
Sprite,Overlay,Centre,"sb\highlight.png",451,203 C,0,102192,,255,128,128 F,2,102192,102392,1,0 S,2,102192,102392,1,0.2 P,0,102192,102392,A
Sprite,Overlay,Centre,"sb\highlight.png",386,184 C,0,102380,,255,128,128 F,2,102380,102580,1,0 S,2,102380,102580,1,0.2 P,0,102380,102580,A
Sprite,Overlay,Centre,"sb\highlight.png",361,250 C,0,102567,,255,128,128 F,2,102567,102767,1,0 S,2,102567,102767,1,0.2 P,0,102567,102767,A
Sprite,Overlay,Centre,"sb\highlight.png",447,318 C,0,102755,,128,128,192 F,2,102755,102955,1,0 S,2,102755,102955,1,0.2 P,0,102755,102955,A
Sprite,Overlay,Centre,"sb\highlight.png",495,179 C,0,102942,,128,128,192 F,2,102942,103142,1,0 S,2,102942,103142,1,0.2 P,0,102942,103142,A
Sprite,Overlay,Centre,"sb\highlight.png",365,139 C,0,103130,,128,128,192 F,2,103130,103330,1,0 S,2,103130,103330,1,0.2 P,0,103130,103330,A
Sprite,Overlay,Centre,"sb\highlight.png",316,272 C,0,103317,,128,128,192 F,2,103317,103517,1,0 S,2,103317,103517,1,0.2 P,0,103317,103517,A
Sprite,Overlay,Centre,"sb\highlight.png",496,380 C,0,103505,,255,128,128 F,2,103505,103705,1,0 S,2,103505,103705,1,0.2 P,0,103505,103705,A
Sprite,Overlay,Centre,"sb\highlight.png",498,374 C,0,103692,,255,128,128 F,2,103692,103892,1,0 S,2,103692,103892,1,0.2 P,0,103692,103892,A
Sprite,Overlay,Centre,"sb\highlight.png",499,368 C,0,103880,,255,128,128 F,2,103880,104080,1,0 S,2,103880,104080,1,0.2 P,0,103880,104080,A
Sprite,Overlay,Centre,"sb\highlight.png",498,362 C,0,104067,,255,128,128 F,2,104067,104267,1,0 S,2,104067,104267,1,0.2 P,0,104067,104267,A
Sprite,Overlay,Centre,"sb\highlight.png",543,230 C,0,104255,,128,128,192 F,2,104255,104455,1,0 S,2,104255,104455,1,0.2 P,0,104255,104455,A
Sprite,Overlay,Centre,"sb\highlight.png",521,107 C,0,104442,,128,128,192 F,2,104442,104642,1,0 S,2,104442,104642,1,0.2 P,0,104442,104642,A
Sprite,Overlay,Centre,"sb\highlight.png",400,56 C,0,104630,,128,128,192 F,2,104630,104830,1,0 S,2,104630,104830,1,0.2 P,0,104630,104830,A
Sprite,Overlay,Centre,"sb\highlight.png",280,176 C,0,104817,,128,128,192 F,2,104817,105017,1,0 S,2,104817,105017,1,0.2 P,0,104817,105017,A
Sprite,Overlay,Centre,"sb\highlight.png",350,314 C,0,105005,,255,128,128 F,2,105005,105205,1,0 S,2,105005,105205,1,0.2 P,0,105005,105205,A
Sprite,Overlay,Centre,"sb\highlight.png",389,381 C,0,105192,,255,128,128 F,2,105192,105392,1,0 S,2,105192,105392,1,0.2 P,0,105192,105392,A
Sprite,Overlay,Centre,"sb\highlight.png",279,272 C,0,105380,,128,128,192 F,2,105380,105580,1,0 S,2,105380,105580,1,0.2 P,0,105380,105580,A
Sprite,Overlay,Centre,"sb\highlight.png",201,273 C,0,105567,,128,128,192 F,2,105567,105767,1,0 S,2,105567,105767,1,0.2 P,0,105567,105767,A
Sprite,Overlay,Centre,"sb\highlight.png",349,233 C,0,105755,,255,128,128 F,2,105755,105955,1,0 S,2,105755,105955,1,0.2 P,0,105755,105955,A
Sprite,Overlay,Centre,"sb\highlight.png",387,165 C,0,105942,,255,128,128 F,2,105942,106142,1,0 S,2,105942,106142,1,0.2 P,0,105942,106142,A
Sprite,Overlay,Centre,"sb\highlight.png",276,356 C,0,106130,,128,128,192 F,2,106130,106330,1,0 S,2,106130,106330,1,0.2 P,0,106130,106330,A
Sprite,Overlay,Centre,"sb\highlight.png",234,422 C,0,106317,,128,128,192 F,2,106317,106517,1,0 S,2,106317,106517,1,0.2 P,0,106317,106517,A
Sprite,Overlay,Centre,"sb\highlight.png",0,0 C,0,106505,,255,128,128 M,0,106505,106551,65,436,89.41927,407.7314 F,2,106505,107455,1,0 S,2,106505,107455,1,0.2 P,0,106505,107455,A M,0,106551,106598,89.41927,407.7314,122.0965,389.7073 M,0,106598,106645,122.0965,389.7073,157.0469,376.1611 M,0,106645,106692,157.0469,376.1611,187.7518,354.9274 M,0,106692,106739,187.7518,354.9274,212.569,326.8459 M,0,106739,106786,212.569,326.8459,238.163,299.4943 M,0,106786,106833,238.163,299.4943,269.0203,278.3416 M,0,106833,106880,269.0203,278.3416,303.1255,262.7846 M,0,106880,106926,303.1255,262.7846,337.1222,247.0027 M,0,106926,106973,337.1222,247.0027,367.4347,225.1062 M,0,106973,107020,367.4347,225.1062,391.529,196.453 M,0,107020,107067,391.529,196.453,412.7753,165.5543 M,0,107067,107114,412.7753,165.5543,437.557,137.5186 M,0,107114,107161,437.557,137.5186,469.0175,117.3524 M,0,107161,107208,469.0175,117.3524,503.5661,102.7908 M,0,107208,107255,503.5661,102.7908,532.3133,79.23631
Sprite,Overlay,Centre,"sb\highlight.png",349,181 C,0,107630,,128,128,192 F,2,107630,107830,1,0 S,2,107630,107830,1,0.2 P,0,107630,107830,A
Sprite,Overlay,Centre,"sb\highlight.png",342,208 C,0,107723,,128,128,192 F,2,107723,107923,1,0 S,2,107723,107923,1,0.2 P,0,107723,107923,A
Sprite,Overlay,Centre,"sb\highlight.png",380,231 C,0,107817,,128,128,192 F,2,107817,108017,1,0 S,2,107817,108017,1,0.2 P,0,107817,108017,A
Sprite,Overlay,Centre,"sb\highlight.png",334,282 C,0,107911,,128,128,192 F,2,107911,108111,1,0 S,2,107911,108111,1,0.2 P,0,107911,108111,A
//Storyboard Sound Samples

[TimingPoints]
12005,375,4,2,1,75,1,0
12005,-111.111111111111,4,2,1,75,0,0
23255,-86.2068965517241,4,2,1,75,0,0
23630,-55.5555555555556,4,2,1,75,0,0
24005,-83.3333333333333,4,2,2,90,0,0
24755,-250,4,2,2,90,0,0
25505,-71.4285714285714,4,2,2,90,0,0
26442,-250,4,2,2,90,0,0
27005,-83.3333333333333,4,2,2,90,0,0
27755,-250,4,2,2,90,0,0
28505,-76.9230769230769,4,2,2,90,0,0
29630,-250,4,2,2,90,0,0
30005,-83.3333333333333,4,2,2,90,0,0
31317,-250,4,2,2,90,0,0
31505,-71.4285714285714,4,2,2,90,0,0
32255,-370.37037037037,4,2,2,90,0,0
33005,-83.3333333333333,4,2,2,90,0,0
33755,-250,4,2,2,90,0,0
36005,-66.6666666666667,4,2,2,95,0,1
37130,-90.9090909090909,4,2,2,95,0,1
40505,-58.8235294117647,4,2,2,95,0,1
40880,-166.666666666667,4,2,2,95,0,1
41067,-58.8235294117647,4,2,2,95,0,1
41442,-166.666666666667,4,2,2,95,0,1
42005,-66.6666666666667,4,2,2,95,0,1
43130,-90.9090909090909,4,2,2,95,0,1
46505,-45.4545454545455,4,2,2,95,0,1
46880,-90.9090909090909,4,2,2,95,0,1
47255,-66.6666666666667,4,2,2,95,0,1
47630,-166.666666666667,4,2,2,95,0,1
48005,-111.111111111111,4,2,2,80,0,0
60005,-55.5555555555556,4,2,2,85,0,0
60567,-100,4,2,2,85,0,0
61505,-71.4285714285714,4,2,2,85,0,0
63380,-100,4,2,2,85,0,0
64505,-71.4285714285714,4,2,2,85,0,0
66380,-100,4,2,2,85,0,0
67505,-71.4285714285714,4,2,2,85,0,0
69380,-100,4,2,2,85,0,0
72005,-83.3333333333333,4,2,2,90,0,0
73505,-142.857142857143,4,2,2,90,0,0
78005,-83.3333333333333,4,2,2,90,0,0
79505,-142.857142857143,4,2,2,90,0,0
81005,-625,4,2,2,90,0,0
84005,-66.6666666666667,4,2,2,95,0,1
85130,-90.9090909090909,4,2,2,95,0,1
88505,-58.8235294117647,4,2,2,95,0,1
88880,-166.666666666667,4,2,2,95,0,1
89067,-58.8235294117647,4,2,2,95,0,1
89442,-166.666666666667,4,2,2,95,0,1
90005,-55.5555555555556,4,2,2,95,0,1
91130,-90.9090909090909,4,2,2,95,0,1
94505,-45.4545454545455,4,2,2,95,0,1
94880,-90.9090909090909,4,2,2,95,0,1
95255,-66.6666666666667,4,2,2,95,0,1
96005,-500.000000000003,4,2,2,90,0,1
96380,-200,4,2,2,90,0,1
96755,-500.000000000003,4,2,2,90,0,1
97880,-200,4,2,2,90,0,1
98255,-500.000000000003,4,2,2,90,0,1
99005,-125,4,2,2,90,0,1
100505,-500.000000000003,4,2,2,90,0,1
106505,-66.6666666666667,4,2,2,90,0,1
108005,-100,4,2,2,90,0,0

[Colours]
Combo1 : 255,128,128
Combo2 : 128,128,192

[HitObjects]
494,88,12005,6,0,P|426:76|347:167,1,179.999985923768,6|10,3:2|0:0,0:0:0:0:
236,220,12567,1,2,0:0:0:0:
172,151,12755,2,0,P|181:114|199:61,1,89.9999929618838,2|0,0:0|3:2,0:0:0:0:
350,146,13130,2,0,P|335:188|324:232,1,89.9999929618838,10|0,0:0|0:0,0:0:0:0:
354,336,13505,6,0,B|460:320|402:266|521:255,2,179.999985923768,2|10|2,3:2|0:0|0:0,0:0:0:0:
105,240,14630,6,0,P|87:252|63:269,1,44.9999964809419,10|0,0:0|0:0,0:0:0:0:
83,271,14817,2,0,P|65:259|41:242,1,44.9999964809419,2|0,0:0|0:0,0:0:0:0:
110,221,15005,6,0,P|127:261|152:318,2,89.9999929618838,2|0|10,3:2|0:0|0:0,0:0:0:0:
190,163,15567,1,0,0:0:0:0:
50,133,15755,2,0,P|9:182|30:233,1,89.9999929618838,2|0,0:0|3:2,0:0:0:0:
112,55,16130,1,10,0:0:0:0:
203,185,16317,6,0,P|210:134|106:68,1,179.999985923768,2|2,0:0|0:0,0:0:0:0:
344,113,16880,2,0,P|354:62|360:20,1,89.9999929618838,10|0,0:0|0:0,0:0:0:0:
423,241,17255,2,0,P|474:251|516:257,1,89.9999929618838,2|0,0:0|3:0,0:0:0:0:
256,280,17630,5,10,0:0:0:0:
243,254,17723,1,2,0:0:0:0:
239,290,17817,1,2,0:0:0:0:
223,267,17911,1,2,0:0:0:0:
216,288,18005,6,0,P|168:296|100:315,1,89.9999929618838,2|0,3:2|0:0,0:0:0:0:
285,132,18380,2,0,P|322:167|320:215,1,89.9999929618838,10|0,0:0|0:0,0:0:0:0:
184,65,18755,2,0,P|169:133|155:214,1,134.999989442826,2|0,0:0|0:0,0:0:0:0:
149,210,19130,5,10,0:0:0:0:
265,345,19317,2,0,P|259:301|225:273,1,89.9999929618838,2|0,0:0|3:2,0:0:0:0:
344,228,19692,1,2,0:0:0:0:
406,373,19880,2,0,P|411:329|445:301,1,89.9999929618838,10|0,0:0|0:0,0:0:0:0:
304,156,20255,2,0,P|309:199|343:227,1,89.9999929618838,2|0,0:0|3:0,0:0:0:0:
453,88,20630,6,0,P|464:59|470:37,1,44.9999964809419,10|0,0:0|0:0,0:0:0:0:
424,37,20817,2,0,P|430:58|438:79,1,44.9999964809419,2|0,0:0|0:0,0:0:0:0:
439,93,21005,6,0,P|450:64|456:42,1,44.9999964809419,2|0,3:2|0:0,0:0:0:0:
410,42,21192,2,0,P|416:63|424:84,1,44.9999964809419
481,171,21380,6,0,P|469:225|463:268,1,89.9999929618838,10|0,0:0|0:0,0:0:0:0:
241,112,21755,2,0,P|293:137|280:253,1,179.999985923768,2|10,0:0|0:0,0:0:0:0:
419,38,22317,2,0,P|468:47|512:61,1,89.9999929618838,2|0,0:0|0:0,0:0:0:0:
335,162,22692,1,2,0:0:0:0:
176,62,22880,2,0,P|132:75|88:82,1,89.9999929618838,2|0,0:0|0:0,0:0:0:0:
79,291,23255,6,0,P|77:269|76:295,1,115.999998008728,2|0,0:0|0:0,0:0:0:0:
141,353,23630,6,0,P|166:270|4:194,1,269.999978885652,2|0,0:0|0:0,0:0:0:0:
33,181,24005,6,0,B|42:199|42:199|130:214|130:214|136:221|136:221|237:237|237:237|243:235|243:235|335:252|335:252|344:261|344:261|474:282,1,419.999967155458,6|0,3:2|0:0,0:0:0:0:
493,228,24755,2,0,B|507:178|507:178|486:223,1,99.9999952316285,10|0,0:0|0:0,0:0:0:0:
429,274,25317,2,0,B|427:288|427:288|432:271,1,19.9999990463257,2|0,3:2|0:0,0:0:0:0:
276,84,25505,6,0,B|312:1|392:26|392:26|354:44|346:99,1,209.999983577729,2|0,0:1|0:0,0:0:0:0:
427,93,25880,2,0,P|327:67|206:49,1,209.999983577729,2|0,3:2|0:0,0:0:0:0:
150,17,26255,2,0,B|119:10|119:10|173:45,1,69.9999945259097,10|0,0:0|0:0,0:0:0:0:
304,185,26442,6,0,P|323:174|305:186,1,59.9999971389771,0|0,3:0|0:0,0:0:0:0:
246,237,26817,6,0,P|242:247|252:239,1,19.9999990463257,2|0,3:2|0:0,0:0:0:0:
485,270,27005,6,0,P|385:244|32:169,1,419.999967155458,2|0,3:1|0:0,0:0:0:0:
33,114,27755,6,0,P|39:95|47:76,2,39.9999980926514,10|2|2,0:0|0:0|0:0,0:0:0:0:
104,25,28317,1,2,3:2:0:0:
166,299,28505,6,0,P|147:192|55:184,1,194.999981775285,2|0,0:1|0:0,0:0:0:0:
71,183,28880,2,0,P|156:210|152:310,1,194.999981775285,2|0,3:2|0:0,0:0:0:0:
212,362,29255,6,0,P|248:352|280:343,1,64.9999939250949,10|0,0:0|0:0,0:0:0:0:
450,248,29442,2,0,P|481:256|512:265,1,64.9999939250949,0|0,3:2|0:0,0:0:0:0:
363,295,29630,6,0,P|340:290|362:284,1,59.9999971389771,2|0,0:0|0:0,0:0:0:0:
401,371,30005,6,0,P|374:264|46:240,1,479.99996246338,2|2,3:1|0:0,0:0:0:0:
58,226,31317,6,0,B|53:242|53:242|62:227,1,19.9999990463257,2|0,3:2|0:0,0:0:0:0:
333,154,31505,6,0,B|276:93|175:117|208:228|281:195,1,209.999983577729,2|0,0:1|0:0,0:0:0:0:
337,244,31880,2,0,P|292:158|205:71,1,209.999983577729,2|0,3:2|0:0,0:0:0:0:
140,38,32255,6,0,B|95:51|95:51|142:43,1,94.4999978010178,10|0,0:0|0:0,0:0:0:0:
207,0,33005,6,0,P|295:-10|334:277,1,419.999967155458,2|0,3:1|0:0,0:0:0:0:
304,274,33755,6,0,P|274:258|303:277,1,99.9999952316285,10|0,0:0|0:0,0:0:0:0:
364,324,34317,2,0,B|370:341|370:341|366:325,1,19.9999990463257,2|0,3:2|0:0,0:0:0:0:
455,108,34505,6,0,P|464:72|471:53,1,39.9999980926514,2|2,0:1|0:0,0:0:0:0:
384,162,34880,2,0,P|348:171|329:178,1,39.9999980926514,2|2,3:2|0:0,0:0:0:0:
444,228,35255,2,0,P|437:255|428:294,1,59.9999971389771,2|0,0:0|0:0,0:0:0:0:
382,340,35630,5,2,0:0:0:0:
359,352,35723,1,2,0:0:0:0:
314,338,35817,1,2,0:0:0:0:
263,278,35911,1,2,0:0:0:0:
294,203,36005,6,0,B|367:122|458:203|458:203|390:212|374:284,1,299.999997138977,6|10,3:2|0:0,0:0:0:0:
190,327,36567,1,2,3:2:0:0:
334,84,36755,2,0,P|391:163|461:321,1,224.999997854233,2|0,0:0|0:0,0:0:0:0:
442,289,37130,5,10,0:2:0:0:
222,147,37317,1,2,3:2:0:0:
150,209,37505,2,0,P|87:236|44:264,1,109.999998111725,2|2,3:2|0:2,0:0:0:0:
235,49,37880,6,0,P|263:49|286:68,1,54.9999990558624,10|0,0:2|0:0,0:0:0:0:
387,196,38067,2,0,P|415:196|438:177,1,54.9999990558624,2|0,3:2|0:0,0:0:0:0:
168,24,38255,2,0,P|182:69|214:140,1,109.999998111725,2|2,0:2|3:2,0:0:0:0:
287,138,38536,1,0,3:2:0:0:
288,120,38630,2,0,B|207:154|253:197|168:260,1,164.999997167587,10|0,0:2|0:0,0:0:0:0:
108,246,39005,6,0,P|91:207|77:177,1,54.9999990558624,2|0,3:2|0:0,0:0:0:0:
327,217,39192,2,0,P|347:220|327:218,1,54.9999990558624,2|0,0:2|0:0,0:0:0:0:
199,360,39380,6,0,P|173:371|148:382,1,54.9999990558624,10|0,0:2|0:0,0:0:0:0:
343,201,39567,2,0,P|363:198|343:200,1,54.9999990558624,2|0,3:2|0:0,0:0:0:0:
301,136,39755,6,0,P|315:190|328:254,1,109.999998111725,2|2,0:2|3:2,0:0:0:0:
412,305,40036,1,0,0:0:0:0:
412,305,40130,2,0,P|442:295|456:269,1,54.9999990558624,10|0,0:2|0:0,0:0:0:0:
479,117,40317,2,0,P|449:127|435:153,1,54.9999990558624,2|0,3:2|0:0,0:0:0:0:
202,36,40505,6,0,B|233:-50|349:13|300:104|251:147|209:155,1,254.999992704392,2|0,3:2|0:0,0:0:0:0:
231,147,40880,2,0,P|231:143|227:116,1,29.9999976539613,2|0,3:2|0:0,0:0:0:0:
202,36,41067,6,0,B|135:-28|59:80|143:140|206:158|248:146,1,254.999992704392,2|0,3:2|0:0,0:0:0:0:
231,147,41442,6,0,P|231:143|227:116,1,29.9999976539613,0|0,3:0|0:0,0:0:0:0:
283,236,41630,2,0,P|283:232|287:205,1,29.9999976539613,0|0,3:0|0:0,0:0:0:0:
235,329,41817,2,0,P|235:325|231:298,1,29.9999976539613,0|0,3:0|0:0,0:0:0:0:
302,376,42005,6,0,B|234:327|308:254|134:217|154:313|37:273,1,299.999997138977,2|10,3:2|0:0,0:0:0:0:
363,192,42567,1,2,3:2:0:0:
166,372,42755,2,0,B|121:293|223:329|82:248|229:304|159:210|248:298|172:204|252:259|223:201|292:265|298:218|330:286,1,224.999997854233,2|0,0:0|0:0,0:0:0:0:
293,254,43130,5,10,0:2:0:0:
492,362,43317,2,0,P|488:334|480:308,1,54.9999990558624,2|0,3:2|0:0,0:0:0:0:
447,83,43505,6,0,P|425:144|350:146,1,109.999998111725,2|2,3:2|0:2,0:0:0:0:
317,116,43786,1,0,0:0:0:0:
321,103,43880,1,10,0:2:0:0:
489,276,44067,1,2,3:2:0:0:
381,162,44255,2,0,P|312:184|232:213,1,109.999998111725,2|2,0:2|3:2,0:0:0:0:
203,199,44536,5,2,3:2:0:0:
198,188,44630,2,0,P|168:184|142:178,1,54.9999990558624,10|0,0:2|0:0,0:0:0:0:
358,291,44817,2,0,P|352:317|348:345,1,54.9999990558624,2|0,3:2|0:0,0:0:0:0:
262,110,45005,6,0,P|265:82|271:55,1,54.9999990558624,2|0,3:2|0:0,0:0:0:0:
81,232,45192,2,0,P|51:236|25:242,1,54.9999990558624,2|0,0:2|0:0,0:0:0:0:
263,344,45380,6,0,B|266:327|266:327|250:325|250:325|247:342|247:342|263:344,1,54.9999990558624,10|0,0:2|0:0,0:0:0:0:
81,113,45567,2,0,P|51:109|25:103,1,54.9999990558624,2|0,3:2|0:0,0:0:0:0:
384,187,45755,6,0,P|330:202|266:229,1,109.999998111725,2|2,0:2|3:2,0:0:0:0:
208,268,46036,1,0,0:0:0:0:
218,274,46130,2,0,P|229:294|241:338,1,54.9999990558624,10|0,0:2|0:0,0:0:0:0:
412,127,46317,2,0,P|399:151|391:177,1,54.9999990558624,2|0,3:2|0:0,0:0:0:0:
138,59,46505,6,0,B|124:30|88:29|88:29|185:-7|236:71|196:122|196:122|140:128|127:228,1,329.999994335175,2|0,3:2|0:0,0:0:0:0:
144,162,46880,6,0,B|141:145|141:145|157:143|157:143|160:160|160:160|144:162,1,54.9999990558624,2|0,3:2|0:0,0:0:0:0:
337,249,47067,2,0,B|340:232|340:232|324:230|324:230|321:247|321:247|337:249,1,54.9999990558624,2|0,3:2|0:0,0:0:0:0:
61,150,47255,6,0,B|27:169|22:213|22:213|69:158|179:160,1,224.999997854233,2|0,3:2|0:0,0:0:0:0:
212,99,47630,6,0,P|236:82|212:100,1,89.9999929618838,2|2,3:2|0:0,0:0:0:0:
136,85,48005,5,6,0:2:0:0:
512,13,60005,6,0,B|479:32|478:75|478:75|394:114|391:61|292:143|292:143|260:98|189:115,1,359.999971847535,6|2,3:2|0:0,0:0:0:0:
201,223,60567,1,2,0:0:0:0:
155,30,60755,2,0,P|120:60|121:125,1,99.9999952316285,10|2,0:0|0:0,0:0:0:0:
214,209,61130,1,2,0:0:0:0:
274,77,61317,2,0,P|241:86|221:96,1,49.9999976158143,2|0,3:2|0:0,0:0:0:0:
58,248,61505,6,0,B|82:197|203:176|159:280|230:300,1,209.999983577729,2|0,0:0|0:0,0:0:0:0:
293,291,61880,2,0,B|269:240|148:219|192:323|121:343,1,209.999983577729,2|0,3:2|0:0,0:0:0:0:
109,326,62255,5,10,0:2:0:0:
227,180,62442,1,2,0:2:0:0:
278,120,62630,5,2,3:2:0:0:
396,266,62817,1,2,0:2:0:0:
460,214,63005,6,0,B|400:143|409:189|323:191|328:253|367:268|402:256,1,209.999983577729,2|0,3:2|0:0,0:0:0:0:
401,252,63380,1,2,0:2:0:0:
253,356,63567,1,2,0:2:0:0:
186,305,63755,6,0,P|186:252|230:222,1,99.9999952316285,10|2,0:2|0:2,0:0:0:0:
267,61,64130,2,0,P|267:114|311:144,1,99.9999952316285,2|2,0:2|3:2,0:0:0:0:
359,107,64411,1,0,0:0:0:0:
355,93,64505,6,0,B|281:123|291:59|194:97|234:133|163:165,1,209.999983577729,2|0,0:2|0:0,0:0:0:0:
100,136,64880,2,0,B|174:166|164:102|261:140|221:176|292:208,1,209.999983577729,0|0,3:2|0:0,0:0:0:0:
296,220,65255,5,10,0:0:0:0:
458,158,65442,1,2,0:0:0:0:
512,105,65630,5,2,3:2:0:0:
350,43,65817,1,2,0:0:0:0:
423,8,66005,6,0,B|396:77|384:61|377:160|441:88|356:248,1,209.999983577729,2|0,3:2|0:0,0:0:0:0:
374,225,66380,1,2,0:0:0:0:
186,149,66567,1,2,0:0:0:0:
121,207,66755,2,0,P|84:233|14:221,1,99.9999952316285,10|2,0:0|0:0,0:0:0:0:
213,242,67130,1,2,0:0:0:0:
79,87,67317,2,0,P|73:115|63:147,1,49.9999976158143,2|0,3:2|0:0,0:0:0:0:
50,357,67505,6,0,B|20:231|118:260|106:334|202:325,1,209.999983577729,2|0,0:0|0:0,0:0:0:0:
232,374,67880,2,0,B|202:248|300:277|288:351|384:342,1,209.999983577729,0|0,3:2|0:0,0:0:0:0:
369,333,68255,5,10,0:0:0:0:
451,198,68442,1,2,0:0:0:0:
401,132,68630,5,2,3:2:0:0:
488,0,68817,1,2,0:0:0:0:
512,70,69005,6,0,B|480:2|474:45|418:18|418:18|376:27|394:71|318:69,1,209.999983577729,2|0,3:2|0:0,0:0:0:0:
327,56,69380,1,2,0:0:0:0:
196,152,69567,1,2,0:0:0:0:
346,242,69755,2,0,P|398:257|445:276,1,99.9999952316285,10|2,0:0|0:0,0:0:0:0:
267,292,70130,1,2,0:0:0:0:
462,163,70317,2,0,P|423:175|394:183,1,49.9999976158143,2|0,3:2|0:0,0:0:0:0:
342,153,70505,5,2,0:0:0:0:
9,21,72005,6,0,P|97:30|64:343,1,479.99996246338,6|2,3:2|0:0,0:0:0:0:
37,291,73130,1,2,0:0:0:0:
35,286,73317,1,2,0:0:0:0:
9,21,73505,6,0,B|145:117|120:-45|307:6|230:95|375:137|370:36|503:78,1,489.999961681368,6|2,3:2|0:2,0:0:0:0:
399,235,75005,5,6,3:2:0:0:
396,241,75192,1,2,0:2:0:0:
395,248,75380,1,2,0:2:0:0:
396,254,75567,1,2,0:2:0:0:
398,260,75755,1,2,0:2:0:0:
399,266,75942,1,2,0:2:0:0:
398,273,76130,1,2,0:2:0:0:
396,279,76317,1,2,0:2:0:0:
237,360,76505,5,6,3:2:0:0:
235,353,76692,1,2,0:2:0:0:
234,346,76880,1,2,0:2:0:0:
235,339,77067,1,2,0:2:0:0:
237,332,77255,1,2,0:2:0:0:
239,325,77442,1,2,0:2:0:0:
239,318,77630,1,2,0:2:0:0:
237,311,77817,1,2,0:2:0:0:
512,261,78005,6,0,B|496:281|496:281|69:313|69:313|43:344,1,479.99996246338,6|2,3:2|0:0,0:0:0:0:
19,244,79130,1,2,0:2:0:0:
13,235,79317,2,0,P|8:219|16:236,1,59.9999953079226,2|0,0:2|0:0,0:0:0:0:
1,380,79505,6,0,B|-1:180|412:93|177:41|332:16,1,489.999961681368,6|2,3:2|0:2,0:0:0:0:
403,11,81005,6,0,P|431:20|457:27,1,55.999997329712,6|0,3:2|0:0,0:0:0:0:
315,114,81755,6,0,P|287:123|261:130,1,55.999997329712,6|0,3:2|0:0,0:0:0:0:
403,11,82505,6,0,P|431:20|457:27,1,55.999997329712,6|0,3:2|0:0,0:0:0:0:
489,95,83255,6,0,B|490:106|490:106|486:93,1,23.9999988555908,2|0,0:2|0:0,0:0:0:0:
411,99,83630,5,2,0:2:0:0:
418,114,83723,1,2,0:2:0:0:
434,148,83817,1,2,0:2:0:0:
451,214,83911,1,2,0:2:0:0:
505,282,84005,6,0,B|459:194|370:243|429:302|272:314,1,224.999997854233,6|0,3:2|0:0,0:0:0:0:
305,301,84380,1,10,0:0:0:0:
512,375,84567,1,2,3:2:0:0:
323,170,84755,2,0,P|370:247|426:388,1,224.999997854233,2|0,0:0|0:0,0:0:0:0:
433,374,85130,5,10,0:2:0:0:
237,235,85317,1,2,3:2:0:0:
171,287,85505,2,0,P|117:304|59:337,1,109.999998111725,2|2,3:2|0:2,0:0:0:0:
298,156,85880,6,0,P|306:123|315:80,1,54.9999990558624,10|0,0:2|0:0,0:0:0:0:
276,371,86067,2,0,P|268:338|259:295,1,54.9999990558624,2|0,3:2|0:0,0:0:0:0:
291,38,86255,6,0,P|299:80|316:155,1,109.999998111725,2|2,0:2|3:2,0:0:0:0:
367,205,86536,1,0,3:2:0:0:
377,195,86630,2,0,B|356:176|356:176|246:197|246:197|215:170,1,164.999997167587,10|0,0:2|0:0,0:0:0:0:
156,114,87005,6,0,P|182:105|208:99,1,54.9999990558624,2|0,3:2|0:0,0:0:0:0:
357,278,87192,2,0,P|349:295|362:281,1,54.9999990558624,2|0,0:2|0:0,0:0:0:0:
442,254,87380,6,0,P|458:266|448:250,1,54.9999990558624,10|0,0:2|0:0,0:0:0:0:
227,180,87567,2,0,P|198:188|169:198,1,54.9999990558624,2|0,3:2|0:0,0:0:0:0:
385,26,87755,6,0,P|428:38|500:64,1,109.999998111725,2|2,0:2|3:2,0:0:0:0:
508,129,88036,1,0,0:0:0:0:
511,140,88130,2,0,P|500:164|475:184,1,54.9999990558624,10|0,0:2|0:0,0:0:0:0:
337,253,88317,2,0,P|326:229|301:209,1,54.9999990558624,2|0,3:2|0:0,0:0:0:0:
127,91,88505,6,0,B|158:5|274:68|225:159|176:202|134:210,1,254.999992704392,2|0,3:2|0:0,0:0:0:0:
156,202,88880,2,0,P|156:198|152:171,1,29.9999976539613,2|0,3:2|0:0,0:0:0:0:
127,91,89067,6,0,B|60:27|-16:135|68:195|131:213|173:201,1,254.999992704392,2|0,3:2|0:0,0:0:0:0:
156,202,89442,6,0,P|156:198|152:171,1,29.9999976539613,0|0,3:0|0:0,0:0:0:0:
215,119,89630,2,0,P|215:115|219:88,1,29.9999976539613,0|0,3:0|0:0,0:0:0:0:
281,199,89817,2,0,P|281:195|277:168,1,29.9999976539613,0|0,3:0|0:0,0:0:0:0:
348,143,90005,6,0,B|252:137|273:103|145:121|199:171|120:203|54:195,1,269.999978885652,2|0,3:2|0:0,0:0:0:0:
76,185,90380,1,10,0:0:0:0:
303,284,90567,1,2,3:2:0:0:
324,40,90755,2,0,P|232:56|262:221,1,269.999978885652,2|0,0:0|0:0,0:0:0:0:
254,215,91130,5,10,0:2:0:0:
124,63,91317,2,0,P|93:72|67:84,1,54.9999990558624,2|0,3:2|0:0,0:0:0:0:
356,155,91505,6,0,P|416:171|475:195,1,109.999998111725,2|2,3:2|0:2,0:0:0:0:
503,256,91786,1,0,0:0:0:0:
500,266,91880,1,10,0:2:0:0:
327,79,92067,1,2,3:2:0:0:
505,282,92255,2,0,P|445:298|386:322,1,109.999998111725,2|2,0:2|3:2,0:0:0:0:
324,308,92536,5,2,3:2:0:0:
314,299,92630,2,0,P|296:296|257:288,1,54.9999990558624,10|0,0:2|0:0,0:0:0:0:
79,249,92817,2,0,P|52:243|24:238,1,54.9999990558624,2|0,3:2|0:0,0:0:0:0:
267,163,93005,6,0,B|270:146|270:146|254:144|254:144|251:161|251:161|267:163,1,54.9999990558624,2|0,3:2|0:0,0:0:0:0:
80,348,93192,2,0,B|83:365|83:365|67:367|67:367|64:350|64:350|80:348,1,54.9999990558624,2|0,0:2|0:0,0:0:0:0:
137,155,93380,6,0,P|126:120|115:93,1,54.9999990558624,10|0,0:2|0:0,0:0:0:0:
204,367,93567,2,0,P|193:332|182:305,1,54.9999990558624,2|0,3:2|0:0,0:0:0:0:
254,94,93755,6,0,P|245:119|237:146,1,54.9999990558624,2|0,0:2|0:0,0:0:0:0:
97,295,93942,2,0,P|88:320|80:347,1,54.9999990558624,2|0,3:2|0:0,0:0:0:0:
148,159,94130,6,0,P|140:132|130:106,1,54.9999990558624,10|0,0:2|0:0,0:0:0:0:
283,291,94317,2,0,P|292:316|300:343,1,54.9999990558624,2|0,3:2|0:0,0:0:0:0:
450,192,94505,6,0,B|524:216|575:113|421:65|384:136|428:173|363:227|257:173,1,329.999994335175,2|0,3:2|0:0,0:0:0:0:
266,118,94880,6,0,B|263:101|263:101|279:99|279:99|282:116|282:116|266:118,1,54.9999990558624,2|0,3:2|0:0,0:0:0:0:
398,289,95067,2,0,B|395:306|395:306|411:308|411:308|414:291|414:291|398:289,1,54.9999990558624,2|0,3:2|0:0,0:0:0:0:
457,76,95255,6,0,B|427:81|427:81|342:225|342:225|306:232,1,224.999997854233,2|0,3:2|0:0,0:0:0:0:
235,199,95630,2,0,B|263:205|263:205|350:353|350:353|381:359,1,224.999997854233,2|2,3:2|0:0,0:0:0:0:
375,358,96005,6,0,L|404:352,1,29.9999985694886,6|0,3:2|0:0,0:0:0:0:
186,325,96380,6,0,L|217:317,1,24.9999988079071,2|0,3:2|0:0,0:0:0:0:
298,292,96567,2,0,L|329:284,1,24.9999988079071,2|0,0:0|0:0,0:0:0:0:
409,253,96755,6,0,L|438:247,1,29.9999985694886,2|0,3:2|0:0,0:0:0:0:
208,216,97130,6,0,L|237:221,1,29.9999985694886,2|0,3:2|0:0,0:0:0:0:
35,26,97505,6,0,L|5:31,1,29.9999985694886,2|0,3:2|0:0,0:0:0:0:
105,70,97880,6,0,P|133:65|149:62,1,24.9999988079071,2|0,3:2|0:0,0:0:0:0:
222,45,98067,2,0,P|250:40|266:37,1,24.9999988079071,2|0,0:0|0:0,0:0:0:0:
342,23,98255,6,0,P|365:19|380:17,1,29.9999985694886,2|0,3:2|0:0,0:0:0:0:
61,145,98630,2,0,P|46:147|31:149,1,29.9999985694886,2|0,3:2|0:0,0:0:0:0:
207,109,99005,6,0,P|192:104|208:106,1,39.9999980926514,2|0,3:2|0:0,0:0:0:0:
285,149,99192,6,0,P|281:134|288:149,1,39.9999980926514,2|0,0:0|0:0,0:0:0:0:
316,218,99380,6,0,P|312:233|319:218,1,39.9999980926514,2|0,3:2|0:0,0:0:0:0:
267,300,99567,6,0,P|252:304|268:302,1,39.9999980926514,2|0,0:0|0:0,0:0:0:0:
373,163,99755,6,0,P|388:159|373:166,1,39.9999980926514,2|0,3:2|0:0,0:0:0:0:
225,215,99942,6,0,P|210:219|225:212,1,39.9999980926514,2|0,0:0|0:0,0:0:0:0:
384,181,100130,6,0,P|399:181|383:183,1,39.9999980926514,2|0,3:2|0:0,0:0:0:0:
223,200,100317,6,0,P|207:199|223:197,1,39.9999980926514,2|0,0:0|0:0,0:0:0:0:
411,339,100505,6,0,P|405:353|400:368,1,29.9999985694886,2|0,3:2|0:0,0:0:0:0:
243,306,100880,6,0,P|248:319|253:334,1,29.9999985694886,2|0,3:2|0:0,0:0:0:0:
411,339,101255,6,0,P|405:353|400:368,1,29.9999985694886,2|0,3:2|0:0,0:0:0:0:
243,306,101630,6,0,P|248:319|253:334,1,29.9999985694886,0|0,3:2|0:0,0:0:0:0:
364,218,102005,5,2,3:2:0:0:
387,147,102192,1,2,3:2:0:0:
322,128,102380,1,2,3:2:0:0:
297,194,102567,1,2,3:2:0:0:
383,262,102755,5,2,3:2:0:0:
431,123,102942,1,0,3:2:0:0:
301,83,103130,1,2,3:2:0:0:
252,216,103317,1,2,3:2:0:0:
432,324,103505,5,2,3:2:0:0:
434,318,103692,1,2,3:2:0:0:
435,312,103880,1,2,3:2:0:0:
434,306,104067,1,2,3:2:0:0:
479,174,104255,5,2,3:2:0:0:
457,51,104442,1,2,3:2:0:0:
336,0,104630,1,2,3:2:0:0:
216,120,104817,1,2,3:2:0:0:
286,258,105005,5,2,3:2:0:0:
325,325,105192,1,2,3:2:0:0:
215,216,105380,5,2,3:2:0:0:
137,217,105567,1,2,3:2:0:0:
285,177,105755,5,2,3:2:0:0:
323,109,105942,1,2,3:2:0:0:
212,300,106130,5,2,3:2:0:0:
170,366,106317,1,2,3:2:0:0:
1,380,106505,6,0,B|68:278|101:375|242:297|76:214|169:76|285:297|500:276|190:95|355:-25|401:112|486:45|436:33|476:20,1,599.999994277954,2|2,0:0|0:0,0:0:0:0:
285,125,107630,5,4,0:3:0:0:
278,152,107723,1,4,0:3:0:0:
316,175,107817,1,8,0:3:0:0:
270,226,107911,1,8,0:3:0:0:
330,275,108005,1,14,3:3:0:0:
