osu file format v14

[General]
AudioFilename: audio.mp3
AudioLeadIn: 0
PreviewTime: 36005
Countdown: 0
SampleSet: Soft
StackLeniency: 0.7
Mode: 0
LetterboxInBreaks: 0
EpilepsyWarning: 1
WidescreenStoryboard: 1

[Editor]
Bookmarks: 12005,24005,60005,72005,96005,108005
DistanceSpacing: 0.8
BeatDivisor: 4
GridSize: 32
TimelineZoom: 1

[Metadata]
Title:MP3
TitleUnicode:MP3
Artist:amekudeku, mlvine, Scandal
ArtistUnicode:amekudeku, mlvine, Scandal
Creator:Daycore
Version:nemi & daycore's normal
Source:
Tags:electronic nemidnight plow -_lenkon ryxliee russian hyperpop hyper pop hip hop русский хайперпоп хайпер поп гиперпоп гипер амекудеку скандал млвин млвине de4n
BeatmapID:3979751
BeatmapSetID:1927238

[Difficulty]
HPDrainRate:3
CircleSize:3
OverallDifficulty:4
ApproachRate:5.5
SliderMultiplier:1.09999990463257
SliderTickRate:1

[Events]
//Background and Video events
0,0,"bgr.jpg",0,0
//Break Periods
2,48204,58880
//Storyboard Layer 0 (Background)
//Storyboard Layer 1 (Fail)
//Storyboard Layer 2 (Pass)
//Storyboard Layer 3 (Foreground)
//Storyboard Layer 4 (Overlay)
Sprite,Overlay,Centre,"sb\highlight.png",0,0 C,0,36005,,255,128,128 M,0,36005,36051,80,163,82.72408,177.8777 F,2,36005,36580,1,0 S,2,36005,36580,1,0.2 P,0,36005,36580,A M,0,36051,36098,82.72408,177.8777,85.44816,192.7553 M,0,36098,36145,85.44816,192.7553,88.17224,207.633 M,0,36145,36192,88.17224,207.633,90.89632,222.5107 M,0,36192,36239,90.89632,222.5107,93.6204,237.3883 M,0,36239,36286,93.6204,237.3883,96.34448,252.266 M,0,36286,36333,96.34448,252.266,99.06856,267.1437 M,0,36333,36380,99.06856,267.1437,101.7926,282.0213
Sprite,Overlay,Centre,"sb\highlight.png",114.904,327.904 C,0,36567,,255,128,128 F,2,36567,36767,1,0 S,2,36567,36767,1,0.2 P,0,36567,36767,A
Sprite,Overlay,Centre,"sb\highlight.png",0,0 C,0,36755,,255,128,128 M,0,36755,36801,119,332,128.8794,343.3202 F,2,36755,37330,1,0 S,2,36755,37330,1,0.2 P,0,36755,37330,A M,0,36801,36848,128.8794,343.3202,140.7631,352.41 M,0,36848,36895,140.7631,352.41,154.4719,358.4642 M,0,36895,36942,154.4719,358.4642,169.2558,361.1341 M,0,36942,36989,169.2558,361.1341,184.302,360.2497 M,0,36989,37036,184.302,360.2497,198.4417,355.1726 M,0,37036,37083,198.4417,355.1726,211.2166,347.3899 M,0,37083,37130,211.2166,347.3899,221.8225,336.8085
Sprite,Overlay,Centre,"sb\highlight.png",249.904,297.904 C,0,37317,,255,128,128 F,2,37317,37517,1,0 S,2,37317,37517,1,0.2 P,0,37317,37517,A
Sprite,Overlay,Centre,"sb\highlight.png",254,302 C,0,37505,,255,128,128 F,2,37505,37705,1,0 S,2,37505,37705,1,0.2 P,0,37505,37705,A
Sprite,Overlay,Centre,"sb\highlight.png",0,0 C,0,37880,,255,128,128 M,0,37880,37926,349,318,363.4055,322.3071 F,2,37880,38267,1,0 S,2,37880,38267,1,0.2 P,0,37880,38267,A M,0,37926,37973,363.4055,322.3071,376.6385,329.316 M,0,37973,38020,376.6385,329.316,387.9315,339.1677 M,0,38020,38067,387.9315,339.1677,396.6879,351.3514
Sprite,Overlay,Centre,"sb\highlight.png",0,0 C,0,38255,,255,128,128 M,0,38255,38301,419,394,422.7958,379.359 F,2,38255,38830,1,0 S,2,38255,38830,1,0.2 P,0,38255,38830,A M,0,38301,38348,422.7958,379.359,426.5916,364.7181 M,0,38348,38395,426.5916,364.7181,430.3874,350.0771 M,0,38395,38442,430.3874,350.0771,434.1832,335.4362 M,0,38442,38489,434.1832,335.4362,437.979,320.7952 M,0,38489,38536,437.979,320.7952,441.7748,306.1543 M,0,38536,38583,441.7748,306.1543,445.5706,291.5133 M,0,38583,38630,445.5706,291.5133,449.3664,276.8724
Sprite,Overlay,Centre,"sb\highlight.png",0,0 C,0,39005,,128,128,192 M,0,39005,39051,481,181,489.2961,168.5765 F,2,39005,39580,1,0 S,2,39005,39580,1,0.2 P,0,39005,39580,A M,0,39051,39098,489.2961,168.5765,500.4188,158.752 M,0,39098,39145,500.4188,158.752,514.0978,152.7725 M,0,39145,39192,514.0978,152.7725,529.0027,152.1112 M,0,39192,39239,529.0027,152.1112,514.0978,152.7725 M,0,39239,39286,514.0978,152.7725,500.4188,158.752 M,0,39286,39333,500.4188,158.752,489.2961,168.5765 M,0,39333,39380,489.2961,168.5765,481,181
Sprite,Overlay,Centre,"sb\highlight.png",433.904,166.904 C,0,39567,,128,128,192 F,2,39567,39767,1,0 S,2,39567,39767,1,0.2 P,0,39567,39767,A
Sprite,Overlay,Centre,"sb\highlight.png",0,0 C,0,39755,,128,128,192 M,0,39755,39801,438,171,422.9621,172.0873 F,2,39755,40142,1,0 S,2,39755,40142,1,0.2 P,0,39755,40142,A M,0,39801,39848,422.9621,172.0873,407.9513,171.0615 M,0,39848,39895,407.9513,171.0615,393.3055,167.5739 M,0,39895,39942,393.3055,167.5739,379.4216,161.7146
Sprite,Overlay,Centre,"sb\highlight.png",359,117 C,0,40130,,128,128,192 F,2,40130,40330,1,0 S,2,40130,40330,1,0.2 P,0,40130,40330,A
Sprite,Overlay,Centre,"sb\highlight.png",0,0 C,0,40505,,128,128,192 M,0,40505,40551,266,89,251.6149,85.5153 F,2,40505,40892,1,0 S,2,40505,40892,1,0.2 P,0,40505,40892,A M,0,40551,40598,251.6149,85.5153,237.0854,87.12296 M,0,40598,40645,237.0854,87.12296,224.3413,94.53786 M,0,40645,40692,224.3413,94.53786,215.5962,106.6403
Sprite,Overlay,Centre,"sb\highlight.png",176.904,136.904 C,0,40880,,128,128,192 F,2,40880,41080,1,0 S,2,40880,41080,1,0.2 P,0,40880,41080,A
Sprite,Overlay,Centre,"sb\highlight.png",0,0 C,0,41067,,128,128,192 M,0,41067,41113,181,141,190.827,152.4697 F,2,41067,41642,1,0 S,2,41067,41642,1,0.2 P,0,41067,41642,A M,0,41113,41160,190.827,152.4697,199.5435,164.7879 M,0,41160,41207,199.5435,164.7879,206.8648,177.9886 M,0,41207,41254,206.8648,177.9886,212.7031,191.9167 M,0,41254,41301,212.7031,191.9167,216.9876,206.4085 M,0,41301,41348,216.9876,206.4085,219.348,221.3261 M,0,41348,41395,219.348,221.3261,220.2867,236.386 M,0,41395,41442,220.2867,236.386,219.5748,251.4624
Sprite,Overlay,Centre,"sb\highlight.png",0,0 C,0,41630,,128,128,192 M,0,41630,41676,212,299,200.4413,308.4932 F,2,41630,42017,1,0 S,2,41630,42017,1,0.2 P,0,41630,42017,A M,0,41676,41723,200.4413,308.4932,186.9375,314.6777 M,0,41723,41770,186.9375,314.6777,172.1541,316.5122 M,0,41770,41817,172.1541,316.5122,157.4405,313.7916
Sprite,Overlay,Centre,"sb\highlight.png",115,289 C,0,42005,,255,128,128 F,2,42005,42205,1,0 S,2,42005,42205,1,0.2 P,0,42005,42205,A
Sprite,Overlay,Centre,"sb\highlight.png",0,0 C,0,42380,,255,128,128 M,0,42380,42426,91,382,91.49936,396.7654 F,2,42380,42767,1,0 S,2,42380,42767,1,0.2 P,0,42380,42767,A M,0,42426,42473,91.49936,396.7654,97.45909,410.0253 M,0,42473,42520,97.45909,410.0253,108.6854,419.3424 M,0,42520,42567,108.6854,419.3424,123.0038,423.1694
Sprite,Overlay,Centre,"sb\highlight.png",0,0 C,0,42755,,255,128,128 M,0,42755,42801,171,415,185.1931,409.787 F,2,42755,43330,1,0 S,2,42755,43330,1,0.2 P,0,42755,43330,A M,0,42801,42848,185.1931,409.787,199.6021,405.2151 M,0,42848,42895,199.6021,405.2151,214.2331,401.4094 M,0,42895,42942,214.2331,401.4094,229.046,398.3804 M,0,42942,42989,229.046,398.3804,243.9999,396.1366 M,0,42989,43036,243.9999,396.1366,259.0624,394.8202 M,0,43036,43083,259.0624,394.8202,274.1665,394.2071 M,0,43083,43130,274.1665,394.2071,289.2826,394.3916
Sprite,Overlay,Centre,"sb\highlight.png",335.904,404.904 C,0,43317,,255,128,128 F,2,43317,43517,1,0 S,2,43317,43517,1,0.2 P,0,43317,43517,A
Sprite,Overlay,Centre,"sb\highlight.png",340,409 C,0,43505,,255,128,128 F,2,43505,43705,1,0 S,2,43505,43705,1,0.2 P,0,43505,43705,A
Sprite,Overlay,Centre,"sb\highlight.png",0,0 C,0,43880,,255,128,128 M,0,43880,43926,429,372,443.9286,373.1401 F,2,43880,44455,1,0 S,2,43880,44455,1,0.2 P,0,43880,44455,A M,0,43926,43973,443.9286,373.1401,457.9466,378.0847 M,0,43973,44020,457.9466,378.0847,469.8326,387.0317 M,0,44020,44067,469.8326,387.0317,478.4799,399.1606 M,0,44067,44114,478.4799,399.1606,469.8326,387.0317 M,0,44114,44161,469.8326,387.0317,457.9466,378.0847 M,0,44161,44208,457.9466,378.0847,443.9286,373.1401 M,0,44208,44255,443.9286,373.1401,429,372
Sprite,Overlay,Centre,"sb\highlight.png",416.904,319.904 C,0,44442,,255,128,128 F,2,44442,44642,1,0 S,2,44442,44642,1,0.2 P,0,44442,44642,A
Sprite,Overlay,Centre,"sb\highlight.png",0,0 C,0,44630,,255,128,128 M,0,44630,44676,421,324,421.7365,308.9482 F,2,44630,45017,1,0 S,2,44630,45017,1,0.2 P,0,44630,45017,A M,0,44676,44723,421.7365,308.9482,424.6779,294.2036 M,0,44723,44770,424.6779,294.2036,430.1531,280.1852 M,0,44770,44817,430.1531,280.1852,438.0031,267.3195
Sprite,Overlay,Centre,"sb\highlight.png",483,251 C,0,45005,,128,128,192 F,2,45005,45205,1,0 S,2,45005,45205,1,0.2 P,0,45005,45205,A
Sprite,Overlay,Centre,"sb\highlight.png",0,0 C,0,45380,,128,128,192 M,0,45380,45426,530,166,534.2003,151.8035 F,2,45380,45767,1,0 S,2,45380,45767,1,0.2 P,0,45380,45767,A M,0,45426,45473,534.2003,151.8035,533.1653,137.2363 M,0,45473,45520,533.1653,137.2363,526.1819,124.3194 M,0,45520,45567,526.1819,124.3194,514.3955,115.3635
Sprite,Overlay,Centre,"sb\highlight.png",0,0 C,0,45755,,128,128,192 M,0,45755,45801,474,87,459.5671,91.46976 F,2,45755,46142,1,0 S,2,45755,46142,1,0.2 P,0,45755,46142,A M,0,45801,45848,459.5671,91.46976,444.8353,94.77991 M,0,45848,45895,444.8353,94.77991,429.8536,96.69308 M,0,45895,45942,429.8536,96.69308,414.7494,97.23517
Sprite,Overlay,Centre,"sb\highlight.png",373,70 C,0,46130,,128,128,192 F,2,46130,46330,1,0 S,2,46130,46330,1,0.2 P,0,46130,46330,A
Sprite,Overlay,Centre,"sb\highlight.png",0,0 C,0,46505,,128,128,192 M,0,46505,46551,293,124,278.3416,127.3006 F,2,46505,47080,1,0 S,2,46505,47080,1,0.2 P,0,46505,47080,A M,0,46551,46598,278.3416,127.3006,264.6898,133.4232 M,0,46598,46645,264.6898,133.4232,252.8362,142.5926 M,0,46645,46692,252.8362,142.5926,243.4433,154.3163 M,0,46692,46739,243.4433,154.3163,237.0462,167.9618 M,0,46739,46786,237.0462,167.9618,234.7514,182.8091 M,0,46786,46833,234.7514,182.8091,235.4901,197.7497 M,0,46833,46880,235.4901,197.7497,239.7193,212.1212
Sprite,Overlay,Centre,"sb\highlight.png",256.904,250.904 C,0,47067,,128,128,192 F,2,47067,47267,1,0 S,2,47067,47267,1,0.2 P,0,47067,47267,A
Sprite,Overlay,Centre,"sb\highlight.png",0,0 C,0,47255,,128,128,192 M,0,47255,47301,261,255,247.2276,248.7517 F,2,47255,48205,1,0 S,2,47255,48205,1,0.2 P,0,47255,48205,A M,0,47301,47348,247.2276,248.7517,233.3077,242.8418 M,0,47348,47395,233.3077,242.8418,219.2222,237.337 M,0,47395,47442,219.2222,237.337,204.9827,232.2419 M,0,47442,47489,204.9827,232.2419,190.5802,227.6286 M,0,47489,47536,190.5802,227.6286,176.0631,223.3931 M,0,47536,47583,176.0631,223.3931,161.4293,219.5794 M,0,47583,47630,161.4293,219.5794,146.6909,216.1907 M,0,47630,47676,146.6909,216.1907,161.4293,219.5793 M,0,47676,47723,161.4293,219.5793,176.0631,223.3931 M,0,47723,47770,176.0631,223.3931,190.5802,227.6286 M,0,47770,47817,190.5802,227.6286,204.9827,232.2419 M,0,47817,47864,204.9827,232.2419,219.2222,237.337 M,0,47864,47911,219.2222,237.337,233.3077,242.8418 M,0,47911,47958,233.3077,242.8418,247.2276,248.7517 M,0,47958,48005,247.2276,248.7517,261,255
Sprite,Overlay,Centre,"sb\highlight.png",0,0 C,0,84005,,255,128,128 M,0,84005,84051,263,249,260.0679,234.3005 F,2,84005,84580,1,0 S,2,84005,84580,1,0.2 P,0,84005,84580,A M,0,84051,84098,260.0679,234.3005,253.6774,220.847 M,0,84098,84145,253.6774,220.847,243.7261,209.7484 M,0,84145,84192,243.7261,209.7484,231.0199,201.918 M,0,84192,84239,231.0199,201.918,216.5904,198.0068 M,0,84239,84286,216.5904,198.0068,201.6132,198.3511 M,0,84286,84333,201.6132,198.3511,187.3141,202.9434 M,0,84333,84380,187.3141,202.9434,174.8716,211.4309
Sprite,Overlay,Centre,"sb\highlight.png",124.904,222.904 C,0,84567,,255,128,128 F,2,84567,84767,1,0 S,2,84567,84767,1,0.2 P,0,84567,84767,A
Sprite,Overlay,Centre,"sb\highlight.png",0,0 C,0,84755,,255,128,128 M,0,84755,84801,129,227,137.0146,239.8179 F,2,84755,85330,1,0 S,2,84755,85330,1,0.2 P,0,84755,85330,A M,0,84801,84848,137.0146,239.8179,144.2696,253.0745 M,0,84848,84895,144.2696,253.0745,150.6095,266.7933 M,0,84895,84942,150.6095,266.7933,156.005,280.9115 M,0,84942,84989,156.005,280.9115,160.4314,295.3648 M,0,84989,85036,160.4314,295.3648,163.868,310.087 M,0,85036,85083,163.868,310.087,166.2989,325.0109 M,0,85083,85130,166.2989,325.0109,167.5383,340.0772
Sprite,Overlay,Centre,"sb\highlight.png",148.904,384.904 C,0,85317,,255,128,128 F,2,85317,85517,1,0 S,2,85317,85517,1,0.2 P,0,85317,85517,A
Sprite,Overlay,Centre,"sb\highlight.png",153,389 C,0,85505,,255,128,128 F,2,85505,85705,1,0 S,2,85505,85705,1,0.2 P,0,85505,85705,A
Sprite,Overlay,Centre,"sb\highlight.png",0,0 C,0,85880,,255,128,128 M,0,85880,85926,246,414,260.66,416.8672 F,2,85880,86267,1,0 S,2,85880,86267,1,0.2 P,0,85880,86267,A M,0,85926,85973,260.66,416.8672,275.4474,415.7737 M,0,85973,86020,275.4474,415.7737,289.2081,410.0782 M,0,86020,86067,289.2081,410.0782,300.6263,400.3267
Sprite,Overlay,Centre,"sb\highlight.png",0,0 C,0,86255,,255,128,128 M,0,86255,86301,324,357,338.6806,360.6334 F,2,86255,86830,1,0 S,2,86255,86830,1,0.2 P,0,86255,86830,A M,0,86301,86348,338.6806,360.6334,353.4427,363.9166 M,0,86348,86395,353.4427,363.9166,368.2914,366.7836 M,0,86395,86442,368.2914,366.7836,383.2154,369.2321 M,0,86442,86489,383.2154,369.2321,398.2029,371.2603 M,0,86489,86536,398.2029,371.2603,413.2495,372.7845 M,0,86536,86583,413.2495,372.7845,428.3277,373.9426 M,0,86583,86630,428.3277,373.9426,443.4328,374.6765
Sprite,Overlay,Centre,"sb\highlight.png",0,0 C,0,87005,,128,128,192 M,0,87005,87051,522,318,537.035,318.6342 F,2,87005,87580,1,0 S,2,87005,87580,1,0.2 P,0,87005,87580,A M,0,87051,87098,537.035,318.6342,551.6575,321.9612 M,0,87098,87145,551.6575,321.9612,565.2568,328.306 M,0,87145,87192,565.2568,328.306,577.2217,337.3899 M,0,87192,87239,577.2217,337.3899,565.2568,328.306 M,0,87239,87286,565.2568,328.306,551.6575,321.9612 M,0,87286,87333,551.6575,321.9612,537.035,318.6342 M,0,87333,87380,537.035,318.6342,522,318
Sprite,Overlay,Centre,"sb\highlight.png",0,0 C,0,87567,,128,128,192 M,0,87567,87613,493,278,496.218,263.2213 F,2,87567,88142,1,0 S,2,87567,88142,1,0.2 P,0,87567,88142,A M,0,87613,87660,496.218,263.2213,499.4359,248.4426 M,0,87660,87707,499.4359,248.4426,502.6538,233.6638 M,0,87707,87754,502.6538,233.6638,505.8718,218.8851 M,0,87754,87801,505.8718,218.8851,509.0897,204.1064 M,0,87801,87848,509.0897,204.1064,512.3077,189.3277 M,0,87848,87895,512.3077,189.3277,515.5256,174.549 M,0,87895,87942,515.5256,174.549,518.7435,159.7703
Sprite,Overlay,Centre,"sb\highlight.png",491,119 C,0,88130,,128,128,192 F,2,88130,88330,1,0 S,2,88130,88330,1,0.2 P,0,88130,88330,A
Sprite,Overlay,Centre,"sb\highlight.png",0,0 C,0,88505,,128,128,192 M,0,88505,88551,406,71,392.583,64.42345 F,2,88505,89080,1,0 S,2,88505,89080,1,0.2 P,0,88505,89080,A M,0,88551,88598,392.583,64.42345,377.9859,61.88626 M,0,88598,88645,377.9859,61.88626,363.3375,64.24121 M,0,88645,88692,363.3375,64.24121,350.2266,71.25105 M,0,88692,88739,350.2266,71.25105,340.0855,82.17841 M,0,88739,88786,340.0855,82.17841,334.0375,95.86016 M,0,88786,88833,334.0375,95.86016,332.775,110.8267 M,0,88833,88880,332.775,110.8267,337.2418,125.0817
Sprite,Overlay,Centre,"sb\highlight.png",0,0 C,0,89067,,128,128,192 M,0,89067,89113,351,171,336.0776,168.5325 F,2,89067,89642,1,0 S,2,89067,89642,1,0.2 P,0,89067,89642,A M,0,89113,89160,336.0776,168.5325,321.1553,166.065 M,0,89160,89207,321.1553,166.065,306.2329,163.5976 M,0,89207,89254,306.2329,163.5976,291.3105,161.1301 M,0,89254,89301,291.3105,161.1301,276.3882,158.6626 M,0,89301,89348,276.3882,158.6626,261.4658,156.1951 M,0,89348,89395,261.4658,156.1951,246.5434,153.7276 M,0,89395,89442,246.5434,153.7276,231.621,151.2602
Sprite,Overlay,Centre,"sb\highlight.png",0,0 C,0,89630,,128,128,192 M,0,89630,89676,186,169,181.2012,183.1592 F,2,89630,90017,1,0 S,2,89630,90017,1,0.2 P,0,89630,90017,A M,0,89676,89723,181.2012,183.1592,180.5311,197.9714 M,0,89723,89770,180.5311,197.9714,184.6677,212.2242 M,0,89770,89817,184.6677,212.2242,193.1838,224.4035
Sprite,Overlay,Centre,"sb\highlight.png",231,254 C,0,90005,,255,128,128 F,2,90005,90205,1,0 S,2,90005,90205,1,0.2 P,0,90005,90205,A
Sprite,Overlay,Centre,"sb\highlight.png",0,0 C,0,90380,,255,128,128 M,0,90380,90426,170,329,155.0024,330.6487 F,2,90380,90767,1,0 S,2,90380,90767,1,0.2 P,0,90380,90767,A M,0,90426,90473,155.0024,330.6487,139.9312,330.6225 M,0,90473,90520,139.9312,330.6225,124.977,328.5601 M,0,90520,90567,124.977,328.5601,110.5886,324.0271
Sprite,Overlay,Centre,"sb\highlight.png",0,0 C,0,90755,,255,128,128 M,0,90755,90801,74,356,65.76709,368.4844 F,2,90755,91330,1,0 S,2,90755,91330,1,0.2 P,0,90755,91330,A M,0,90801,90848,65.76709,368.4844,61.06916,382.5688 M,0,90848,90895,61.06916,382.5688,60.87939,397.458 M,0,90895,90942,60.87939,397.458,65.25218,411.7594 M,0,90942,90989,65.25218,411.7594,73.82629,424.1167 M,0,90989,91036,73.82629,424.1167,86.25362,432.4329 M,0,91036,91083,86.25362,432.4329,100.3115,437.2009 M,0,91083,91130,100.3115,437.2009,115.2711,437.7673
Sprite,Overlay,Centre,"sb\highlight.png",159.904,418.904 C,0,91317,,255,128,128 F,2,91317,91517,1,0 S,2,91317,91517,1,0.2 P,0,91317,91517,A
Sprite,Overlay,Centre,"sb\highlight.png",164,423 C,0,91505,,255,128,128 F,2,91505,91705,1,0 S,2,91505,91705,1,0.2 P,0,91505,91705,A
Sprite,Overlay,Centre,"sb\highlight.png",0,0 C,0,91880,,255,128,128 M,0,91880,91926,257,396,270.9304,390.182 F,2,91880,92455,1,0 S,2,91880,92455,1,0.2 P,0,91880,92455,A M,0,91926,91973,270.9304,390.182,285.365,385.8148 M,0,91973,92020,285.365,385.8148,300.2369,383.2382 M,0,92020,92067,300.2369,383.2382,315.3241,382.8051 M,0,92067,92114,315.3241,382.8051,300.2369,383.2382 M,0,92114,92161,300.2369,383.2382,285.365,385.8148 M,0,92161,92208,285.365,385.8148,270.9304,390.182 M,0,92208,92255,270.9304,390.182,257,396
Sprite,Overlay,Centre,"sb\highlight.png",238.904,344.904 C,0,92442,,255,128,128 F,2,92442,92642,1,0 S,2,92442,92642,1,0.2 P,0,92442,92642,A
Sprite,Overlay,Centre,"sb\highlight.png",0,0 C,0,92630,,255,128,128 M,0,92630,92676,243,349,241.8229,333.9239 F,2,92630,93017,1,0 S,2,92630,93017,1,0.2 P,0,92630,93017,A M,0,92676,92723,241.8229,333.9239,241.1549,318.8185 M,0,92723,92770,241.1549,318.8185,241.0962,303.6972 M,0,92770,92817,241.0962,303.6972,241.647,288.5842
Sprite,Overlay,Centre,"sb\highlight.png",267,247 C,0,93005,,128,128,192 F,2,93005,93205,1,0 S,2,93005,93205,1,0.2 P,0,93005,93205,A
Sprite,Overlay,Centre,"sb\highlight.png",0,0 C,0,93380,,128,128,192 M,0,93380,93426,307,159,318.4554,149.5612 F,2,93380,93767,1,0 S,2,93380,93767,1,0.2 P,0,93380,93767,A M,0,93426,93473,318.4554,149.5612,332.234,144.552 M,0,93473,93520,332.234,144.552,346.9333,145.333 M,0,93520,93567,346.9333,145.333,360.2327,151.8447
Sprite,Overlay,Centre,"sb\highlight.png",0,0 C,0,93755,,128,128,192 M,0,93755,93801,401,177,416.0173,175.1979 F,2,93755,94142,1,0 S,2,93755,94142,1,0.2 P,0,93755,94142,A M,0,93801,93848,416.0173,175.1979,431.0345,173.3959 M,0,93848,93895,431.0345,173.3959,446.0518,171.5938 M,0,93895,93942,446.0518,171.5938,461.069,169.7917
Sprite,Overlay,Centre,"sb\highlight.png",495,135 C,0,94130,,128,128,192 F,2,94130,94330,1,0 S,2,94130,94330,1,0.2 P,0,94130,94330,A
Sprite,Overlay,Centre,"sb\highlight.png",0,0 C,0,94505,,128,128,192 M,0,94505,94551,551,213,563.0006,221.922 F,2,94505,95080,1,0 S,2,94505,95080,1,0.2 P,0,94505,95080,A M,0,94551,94598,563.0006,221.922,572.2395,233.5452 M,0,94598,94645,572.2395,233.5452,577.5306,247.4692 M,0,94645,94692,577.5306,247.4692,578.344,262.4135 M,0,94692,94739,578.344,262.4135,573.8539,276.6634 M,0,94739,94786,573.8539,276.6634,565.6926,289.0404 M,0,94786,94833,565.6926,289.0404,554.14,298.3743 M,0,94833,94880,554.14,298.3743,540.2766,304.0424
Sprite,Overlay,Centre,"sb\highlight.png",501.904,333.904 C,0,95067,,128,128,192 F,2,95067,95267,1,0 S,2,95067,95267,1,0.2 P,0,95067,95267,A
Sprite,Overlay,Centre,"sb\highlight.png",0,0 C,0,95255,,128,128,192 M,0,95255,95301,506,338,491.0027,336.0471 F,2,95255,95830,1,0 S,2,95255,95830,1,0.2 P,0,95255,95830,A M,0,95301,95348,491.0027,336.0471,476.0532,333.7621 M,0,95348,95395,476.0532,333.7621,461.1677,331.0911 M,0,95395,95442,461.1677,331.0911,446.3562,328.0358 M,0,95442,95489,446.3562,328.0358,431.6285,324.5982 M,0,95489,95536,431.6285,324.5982,416.9944,320.7807 M,0,95536,95583,416.9944,320.7807,402.4636,316.5857 M,0,95583,95630,402.4636,316.5857,388.0463,312.015
Sprite,Overlay,Centre,"sb\highlight.png",0,0 C,0,96005,,255,128,128 M,0,96005,96051,291,319,276.0074,318.5166 F,2,96005,96955,1,0 S,2,96005,96955,1,0.2 P,0,96005,96955,A M,0,96051,96098,276.0074,318.5166,261.4076,321.5558 M,0,96098,96145,261.4076,321.5558,248.1831,328.469 M,0,96145,96192,248.1831,328.469,237.3372,338.7399 M,0,96192,96239,237.3372,338.7399,229.6975,351.5985 M,0,96239,96286,229.6975,351.5985,225.8531,366.0783 M,0,96286,96333,225.8531,366.0783,226.1102,381.087 M,0,96333,96380,226.1102,381.087,230.4301,395.5118 M,0,96380,96426,230.4301,395.5118,226.1102,381.087 M,0,96426,96473,226.1102,381.087,225.8531,366.0784 M,0,96473,96520,225.8531,366.0784,229.6975,351.5985 M,0,96520,96567,229.6975,351.5985,237.3372,338.7399 M,0,96567,96614,237.3372,338.7399,248.1831,328.4691 M,0,96614,96661,248.1831,328.4691,261.4076,321.5558 M,0,96661,96708,261.4076,321.5558,276.0073,318.5166 M,0,96708,96755,276.0073,318.5166,291,319
Sprite,Overlay,Centre,"sb\highlight.png",224,248 C,0,97130,,255,128,128 F,2,97130,97330,1,0 S,2,97130,97330,1,0.2 P,0,97130,97330,A
Sprite,Overlay,Centre,"sb\highlight.png",150,184 C,0,97505,,255,128,128 F,2,97505,97705,1,0 S,2,97505,97705,1,0.2 P,0,97505,97705,A
Sprite,Overlay,Centre,"sb\highlight.png",0,0 C,0,97880,,255,128,128 M,0,97880,97926,202,102,216.8103,105.0695 F,2,97880,98267,1,0 S,2,97880,98267,1,0.2 P,0,97880,98267,A M,0,97926,97973,216.8103,105.0695,231.6272,108.106 M,0,97973,98020,231.6272,108.106,246.4521,111.1042 M,0,98020,98067,246.4521,111.1042,261.2842,114.0664
Sprite,Overlay,Centre,"sb\highlight.png",0,0 C,0,98255,,255,128,128 M,0,98255,98301,306,96,297.4136,108.3304 F,2,98255,98830,1,0 S,2,98255,98830,1,0.2 P,0,98255,98830,A M,0,98301,98348,297.4136,108.3304,291.5026,122.0739 M,0,98348,98395,291.5026,122.0739,289.0015,136.8449 M,0,98395,98442,289.0015,136.8449,290.0632,151.8194 M,0,98442,98489,290.0632,151.8194,294.6472,166.1575 M,0,98489,98536,294.6472,166.1575,303.0031,178.6399 M,0,98536,98583,303.0031,178.6399,313.7251,189.0634 M,0,98583,98630,313.7251,189.0634,326.6179,196.6676
Sprite,Overlay,Centre,"sb\highlight.png",373.904,191.904 C,0,98817,,128,128,192 F,2,98817,99017,1,0 S,2,98817,99017,1,0.2 P,0,98817,99017,A
Sprite,Overlay,Centre,"sb\highlight.png",378,196 C,0,99005,,128,128,192 F,2,99005,99205,1,0 S,2,99005,99205,1,0.2 P,0,99005,99205,A
Sprite,Overlay,Centre,"sb\highlight.png",464,151 C,0,99380,,128,128,192 F,2,99380,99580,1,0 S,2,99380,99580,1,0.2 P,0,99380,99580,A
Sprite,Overlay,Centre,"sb\highlight.png",543,206 C,0,99755,,128,128,192 F,2,99755,99955,1,0 S,2,99755,99955,1,0.2 P,0,99755,99955,A
Sprite,Overlay,Centre,"sb\highlight.png",544,302 C,0,100130,,128,128,192 F,2,100130,100330,1,0 S,2,100130,100330,1,0.2 P,0,100130,100330,A
Sprite,Overlay,Centre,"sb\highlight.png",0,0 C,0,100505,,128,128,192 M,0,100505,100551,474,368,479.2784,382.1741 F,2,100505,101080,1,0 S,2,100505,101080,1,0.2 P,0,100505,101080,A M,0,100551,100598,479.2784,382.1741,484.6126,396.3271 M,0,100598,100645,484.6126,396.3271,490.013,410.4551 M,0,100645,100692,490.013,410.4551,495.4776,424.5584 M,0,100692,100739,495.4776,424.5584,490.013,410.4551 M,0,100739,100786,490.013,410.4551,484.6126,396.3271 M,0,100786,100833,484.6126,396.3271,479.2784,382.1741 M,0,100833,100880,479.2784,382.1741,474,368
Sprite,Overlay,Centre,"sb\highlight.png",437.904,334.904 C,0,101067,,128,128,192 F,2,101067,101267,1,0 S,2,101067,101267,1,0.2 P,0,101067,101267,A
Sprite,Overlay,Centre,"sb\highlight.png",0,0 C,0,101255,,128,128,192 M,0,101255,101301,442,339,427.7408,344.0352 F,2,101255,101830,1,0 S,2,101255,101830,1,0.2 P,0,101255,101830,A M,0,101301,101348,427.7408,344.0352,413.9924,350.3174 M,0,101348,101395,413.9924,350.3174,401.4538,358.7239 M,0,101395,101442,401.4538,358.7239,390.9375,369.5713 M,0,101442,101489,390.9375,369.5713,380.2628,380.2597 M,0,101489,101536,380.2628,380.2597,367.746,388.7144 M,0,101536,101583,367.746,388.7144,354.1637,395.3531 M,0,101583,101630,354.1637,395.3531,340.0859,400.8759
Sprite,Overlay,Centre,"sb\highlight.png",0,0 C,0,102005,,255,128,128 M,0,102005,102051,244,415,229.8498,409.912 F,2,102005,102580,1,0 S,2,102005,102580,1,0.2 P,0,102005,102580,A M,0,102051,102098,229.8498,409.912,216.9774,402.2527 M,0,102098,102145,216.9774,402.2527,206.1316,391.8986 M,0,102145,102192,206.1316,391.8986,197.8629,379.3614 M,0,102192,102239,197.8629,379.3614,192.5973,365.2625 M,0,102239,102286,192.5973,365.2625,191.1414,350.3016 M,0,102286,102333,191.1414,350.3016,192.7134,335.4131 M,0,102333,102380,192.7134,335.4131,197.5764,321.2448
Sprite,Overlay,Centre,"sb\highlight.png",236.904,293.904 C,0,102567,,255,128,128 F,2,102567,102767,1,0 S,2,102567,102767,1,0.2 P,0,102567,102767,A
Sprite,Overlay,Centre,"sb\highlight.png",0,0 C,0,102755,,255,128,128 M,0,102755,102801,241,298,246.8834,284.0744 F,2,102755,103142,1,0 S,2,102755,103142,1,0.2 P,0,102755,103142,A M,0,102801,102848,246.8834,284.0744,252.0579,269.8738 M,0,102848,102895,252.0579,269.8738,256.3557,255.3785 M,0,102895,102942,256.3557,255.3785,259.67,240.6246
Sprite,Overlay,Centre,"sb\highlight.png",245,194 C,0,103130,,255,128,128 F,2,103130,103330,1,0 S,2,103130,103330,1,0.2 P,0,103130,103330,A
Sprite,Overlay,Centre,"sb\highlight.png",0,0 C,0,103505,,255,128,128 M,0,103505,103551,239,97,224.5086,92.67041 F,2,103505,104080,1,0 S,2,103505,104080,1,0.2 P,0,103505,104080,A M,0,103551,103598,224.5086,92.67041,209.9534,88.56161 M,0,103598,103645,209.9534,88.56161,195.3248,84.72109 M,0,103645,103692,195.3248,84.72109,180.614,81.20863 M,0,103692,103739,180.614,81.20863,195.3248,84.72109 M,0,103739,103786,195.3248,84.72109,209.9534,88.56161 M,0,103786,103833,209.9534,88.56161,224.5086,92.67041 M,0,103833,103880,224.5086,92.67041,239,97
Sprite,Overlay,Centre,"sb\highlight.png",279.904,75.904 C,0,104067,,255,128,128 F,2,104067,104267,1,0 S,2,104067,104267,1,0.2 P,0,104067,104267,A
Sprite,Overlay,Centre,"sb\highlight.png",0,0 C,0,104255,,255,128,128 M,0,104255,104301,284,80,299.0103,81.80637 F,2,104255,104642,1,0 S,2,104255,104642,1,0.2 P,0,104255,104642,A M,0,104301,104348,299.0103,81.80637,313.9142,84.32478 M,0,104348,104395,313.9142,84.32478,328.6523,87.6953 M,0,104395,104442,328.6523,87.6953,343.124,92.06834
Sprite,Overlay,Centre,"sb\highlight.png",374,129 C,0,104630,,255,128,128 F,2,104630,104830,1,0 S,2,104630,104830,1,0.2 P,0,104630,104830,A
Sprite,Overlay,Centre,"sb\highlight.png",0,0 C,0,105005,,128,128,192 M,0,105005,105051,455,77,469.9608,78.65204 F,2,105005,105580,1,0 S,2,105005,105580,1,0.2 P,0,105005,105580,A M,0,105051,105098,469.9608,78.65204,484.3633,82.85657 M,0,105098,105145,484.3633,82.85657,497.6199,89.91319 M,0,105145,105192,497.6199,89.91319,509.1772,99.53625 M,0,105192,105239,509.1772,99.53625,518.5483,111.335 M,0,105239,105286,518.5483,111.335,524.8491,125.0003 M,0,105286,105333,524.8491,125.0003,528.5596,139.5317 M,0,105333,105380,528.5596,139.5317,529.2333,154.5233
Sprite,Overlay,Centre,"sb\highlight.png",497.904,190.904 C,0,105567,,128,128,192 F,2,105567,105767,1,0 S,2,105567,105767,1,0.2 P,0,105567,105767,A
Sprite,Overlay,Centre,"sb\highlight.png",0,0 C,0,105755,,128,128,192 M,0,105755,105801,502,195,506.6592,209.3898 F,2,105755,106142,1,0 S,2,105755,106142,1,0.2 P,0,105755,106142,A M,0,105801,105848,506.6592,209.3898,511.3115,223.7811 M,0,105848,105895,511.3115,223.7811,515.9608,238.1739 M,0,105895,105942,515.9608,238.1739,520.6067,252.5682
Sprite,Overlay,Centre,"sb\highlight.png",0,0 C,0,106130,,128,128,192 M,0,106130,106176,553,287,548.3408,301.3898 F,2,106130,106517,1,0 S,2,106130,106517,1,0.2 P,0,106130,106517,A M,0,106176,106223,548.3408,301.3898,543.6885,315.7811 M,0,106223,106270,543.6885,315.7811,539.0392,330.1739 M,0,106270,106317,539.0392,330.1739,534.3933,344.5682
Sprite,Overlay,Centre,"sb\highlight.png",0,0 C,0,106505,,128,128,192 M,0,106505,106551,509,386,495.3966,379.4026 F,2,106505,107080,1,0 S,2,106505,107080,1,0.2 P,0,106505,107080,A M,0,106551,106598,495.3966,379.4026,481.4735,373.521 M,0,106598,106645,481.4735,373.521,467.218,368.4959 M,0,106645,106692,467.218,368.4959,452.6821,364.346 M,0,106692,106739,452.6821,364.346,437.9193,361.0867 M,0,106739,106786,437.9193,361.0867,422.9835,358.7301 M,0,106786,106833,422.9835,358.7301,407.9207,357.4339 M,0,106833,106880,407.9207,357.4339,392.8144,356.9472
Sprite,Overlay,Centre,"sb\highlight.png",350.904,330.904 C,0,107067,,128,128,192 F,2,107067,107267,1,0 S,2,107067,107267,1,0.2 P,0,107067,107267,A
Sprite,Overlay,Centre,"sb\highlight.png",0,0 C,0,107255,,128,128,192 M,0,107255,107301,355,335,339.9084,335.9677 F,2,107255,108205,1,0 S,2,107255,108205,1,0.2 P,0,107255,108205,A M,0,107301,107348,339.9084,335.9677,324.8581,337.4263 M,0,107348,107395,324.8581,337.4263,309.8741,339.4582 M,0,107395,107442,309.8741,339.4582,294.978,342.0606 M,0,107442,107489,294.978,342.0606,280.1915,345.2298 M,0,107489,107536,280.1915,345.2298,265.5359,348.9612 M,0,107536,107583,265.5359,348.9612,251.0598,353.3349 M,0,107583,107630,251.0598,353.3349,236.7418,358.1961 M,0,107630,107676,236.7418,358.1961,222.6196,363.6002 M,0,107676,107723,222.6196,363.6002,208.7136,369.5395 M,0,107723,107770,208.7136,369.5395,195.0439,376.0054 M,0,107770,107817,195.0439,376.0054,181.6303,382.9886 M,0,107817,107864,181.6303,382.9886,168.4923,390.4792 M,0,107864,107911,168.4923,390.4792,155.7008,398.5455 M,0,107911,107958,155.7008,398.5455,143.1885,407.0354 M,0,107958,108005,143.1885,407.0354,131.0091,415.9968
//Storyboard Sound Samples

[TimingPoints]
12005,375,4,2,1,75,1,0
12005,-100,4,2,1,75,0,0
24005,-100,4,2,2,90,0,0
36005,-90.9090909090909,4,2,2,95,0,1
48005,-100,4,2,2,80,0,0
60005,-100,4,2,2,85,0,0
72005,-100,4,2,2,90,0,0
84005,-90.9090909090909,4,2,2,95,0,1
96005,-90.9090909090909,4,2,2,90,0,1
108005,-100,4,2,2,90,0,0

[Colours]
Combo1 : 255,128,128
Combo2 : 128,128,192

[HitObjects]
501,35,12005,6,0,P|431:46|388:57,1,109.999990463257,6|10,3:2|0:0,0:0:0:0:
362,87,12567,1,2,0:0:0:0:
362,87,12755,1,2,0:0:0:0:
428,144,13130,1,10,0:0:0:0:
384,220,13505,6,0,P|381:269|423:309,2,109.999990463257,2|10|2,3:2|0:0|0:0,0:0:0:0:
437,150,14630,2,0,P|430:119|421:91,1,54.9999952316285,10|2,0:0|0:0,0:0:0:0:
438,55,15005,6,0,P|414:79|337:93,1,109.999990463257,2|10,3:2|0:0,0:0:0:0:
265,49,15755,2,0,P|241:25|164:11,1,109.999990463257,2|10,0:0|0:0,0:0:0:0:
125,0,16317,2,0,P|137:56|153:127,1,109.999990463257,2|2,0:0|0:0,0:0:0:0:
175,142,16880,5,10,0:0:0:0:
122,212,17255,1,2,0:0:0:0:
193,263,17630,2,0,P|187:296|179:325,2,54.9999952316285,10|2|2,0:0|0:0|3:2,0:0:0:0:
265,213,18380,6,0,P|320:222|391:237,1,109.999990463257,10|2,0:0|0:0,0:0:0:0:
460,217,19130,1,10,0:0:0:0:
460,217,19317,2,0,P|475:169|421:118,1,109.999990463257,2|2,0:0|0:0,0:0:0:0:
400,109,19880,5,10,0:0:0:0:
321,148,20255,1,2,0:0:0:0:
256,87,20630,2,0,P|265:51|274:21,2,54.9999952316285,10|2|2,0:0|0:0|3:2,0:0:0:0:
221,112,21192,5,0,0:0:0:0:
221,112,21380,2,0,P|207:147|181:223,1,109.999990463257,10|2,0:0|0:0,0:0:0:0:
104,255,22130,1,10,0:0:0:0:
104,255,22317,2,0,P|118:290|144:366,1,109.999990463257,2|2,0:0|0:0,0:0:0:0:
183,372,22880,1,2,0:0:0:0:
252,318,23255,2,0,P|292:284|366:295,1,109.999990463257,2|2,0:0|0:0,0:0:0:0:
411,344,24005,6,0,B|411:229|485:273|481:130,1,219.999980926514,6|10,3:2|0:0,0:0:0:0:
411,29,25317,1,2,3:2:0:0:
411,29,25505,2,0,P|367:80|322:73,1,109.999990463257,2|2,0:1|3:2,0:0:0:0:
264,17,26255,1,10,0:0:0:0:
264,17,26442,2,0,P|230:28|221:52,1,54.9999952316285,0|2,3:0|0:0,0:0:0:0:
200,83,26817,1,2,3:2:0:0:
200,83,27005,6,0,P|212:162|225:318,1,219.999980926514,2|10,3:1|0:0,0:0:0:0:
97,329,28317,1,2,3:2:0:0:
97,329,28505,2,0,P|52:312|46:249,1,109.999990463257,2|2,0:1|3:2,0:0:0:0:
68,220,29067,1,2,0:0:0:0:
68,220,29255,2,0,L|59:143,1,54.9999952316285,10|0,0:0|3:2,0:0:0:0:
37,128,29630,1,2,0:0:0:0:
91,57,30005,6,0,P|164:18|197:130,1,219.999980926514,2|2,3:1|0:0,0:0:0:0:
268,242,31317,1,2,3:2:0:0:
268,242,31505,2,0,P|313:259|328:329,1,109.999990463257,2|2,0:1|3:2,0:0:0:0:
394,376,32255,1,10,0:0:0:0:
450,209,33005,6,0,B|509:208|494:128|494:128|390:60,1,219.999980926514,2|10,3:1|0:0,0:0:0:0:
281,11,34317,1,2,3:2:0:0:
281,11,34505,2,0,L|173:40,1,109.999990463257,2|2,0:1|3:2,0:0:0:0:
148,75,35067,1,2,0:0:0:0:
148,75,35255,2,0,P|104:72|73:-1,1,109.999990463257,2|2,0:0|0:0,0:0:0:0:
16,107,36005,6,0,L|42:249,1,120.999993202209,6|10,3:2|0:0,0:0:0:0:
55,276,36567,1,2,3:2:0:0:
55,276,36755,2,0,P|91:303|165:270,1,120.999993202209,2|10,0:0|0:2,0:0:0:0:
190,246,37317,1,2,3:2:0:0:
190,246,37505,1,2,3:2:0:0:
285,262,37880,2,0,P|313:273|340:315,1,60.4999966011047,10|2,0:2|3:2,0:0:0:0:
355,338,38255,2,0,L|390:203,1,120.999993202209,2|10,0:2|0:2,0:0:0:0:
417,125,39005,6,0,P|448:97|482:100,2,60.4999966011047,2|2|10,3:2|0:2|0:2,0:0:0:0:
374,115,39567,1,2,3:2:0:0:
374,115,39755,2,0,P|333:113|297:93,1,60.4999966011047,2|2,0:2|3:2,0:0:0:0:
295,61,40130,1,10,0:2:0:0:
202,33,40505,2,0,P|167:33|149:67,1,60.4999966011047,2|2,3:2|0:2,0:0:0:0:
117,85,40880,1,2,3:2:0:0:
117,85,41067,2,0,P|140:116|152:216,1,120.999993202209,2|0,3:2|3:0,0:0:0:0:
148,243,41630,2,0,P|109:261|74:245,1,60.4999966011047,0|0,3:0|3:0,0:0:0:0:
51,233,42005,5,2,3:2:0:0:
27,326,42380,2,0,P|38:360|64:367,1,60.4999966011047,10|2,0:0|3:2,0:0:0:0:
107,359,42755,2,0,P|191:339|237:339,1,120.999993202209,2|10,0:0|0:2,0:0:0:0:
276,353,43317,1,2,3:2:0:0:
276,353,43505,1,2,3:2:0:0:
365,316,43880,2,0,P|410:335|420:362,2,60.4999966011047,10|2|2,0:2|3:2|0:2,0:0:0:0:
357,268,44442,1,2,3:2:0:0:
357,268,44630,2,0,P|361:236|384:200,1,60.4999966011047,10|2,0:2|3:2,0:0:0:0:
419,195,45005,5,2,3:2:0:0:
466,110,45380,2,0,P|467:74|436:56,1,60.4999966011047,10|2,0:2|3:2,0:0:0:0:
410,31,45755,2,0,P|374:40|344:41,1,60.4999966011047,2|2,0:2|3:2,0:0:0:0:
309,14,46130,1,10,0:2:0:0:
229,68,46505,2,0,P|180:97|187:174,1,120.999993202209,2|2,3:2|3:2,0:0:0:0:
197,199,47067,1,2,3:2:0:0:
197,199,47255,2,0,P|118:169|61:156,2,120.999993202209,2|2|6,3:2|3:2|0:2,0:0:0:0:
501,365,60005,6,0,P|481:320|362:296,1,164.999985694885,6|2,3:2|0:0,0:0:0:0:
335,275,60755,1,10,0:0:0:0:
266,329,61130,1,2,0:0:0:0:
266,329,61317,2,0,P|218:319|142:305,1,109.999990463257,2|2,3:2|0:0,0:0:0:0:
114,316,61880,1,2,3:2:0:0:
51,254,62255,2,0,P|22:270|5:302,2,54.9999952316285,10|2|2,0:2|0:2|3:2,0:0:0:0:
72,217,62817,5,2,0:2:0:0:
72,217,63005,2,0,P|85:168|52:112,1,109.999990463257,2|2,3:2|0:2,0:0:0:0:
46,80,63567,1,2,0:2:0:0:
46,80,63755,1,10,0:2:0:0:
103,14,64130,1,2,0:2:0:0:
103,14,64317,2,0,P|146:19|217:36,1,109.999990463257,2|2,3:2|0:2,0:0:0:0:
249,56,64880,1,0,3:2:0:0:
327,15,65255,1,10,0:0:0:0:
384,81,65630,2,0,P|421:70|441:62,1,54.9999952316285,2|2,3:2|0:0,0:0:0:0:
480,60,66005,6,0,P|496:104|470:175,1,109.999990463257,2|2,3:2|0:0,0:0:0:0:
442,182,66567,1,2,0:0:0:0:
442,182,66755,1,10,0:0:0:0:
485,264,67130,1,2,0:0:0:0:
485,264,67317,2,0,P|445:275|376:292,1,109.999990463257,2|0,3:2|0:0,0:0:0:0:
345,320,67880,1,0,3:2:0:0:
255,300,68255,2,0,P|244:261|234:236,1,54.9999952316285,10|2,0:0|0:0,0:0:0:0:
204,220,68630,2,0,P|215:181|225:156,1,54.9999952316285,2|2,3:2|0:0,0:0:0:0:
212,123,69005,6,0,P|233:154|309:155,1,109.999990463257,2|2,3:2|0:0,0:0:0:0:
331,129,69567,1,2,0:0:0:0:
331,129,69755,1,10,0:0:0:0:
347,42,70130,1,2,0:0:0:0:
347,42,70317,2,0,L|268:45,2,54.9999952316285,2|2|2,3:2|0:0|0:0,0:0:0:0:
248,334,72005,6,0,B|277:254|335:230|335:230|388:213|372:235|428:221,1,219.999980926514,6|2,3:2|0:0,0:0:0:0:
496,68,73505,2,0,B|450:18|450:18|300:76|300:76|363:175,1,329.999971389771,6|2,3:2|0:2,0:0:0:0:
414,224,75005,6,0,B|278:198|341:276|191:235,1,219.999980926514,6|2,3:2|0:2,0:0:0:0:
77,111,76505,2,0,B|18:96|18:96|-13:163|-13:163|40:257|40:257|136:227,1,329.999971389771,6|2,3:2|0:2,0:0:0:0:
206,202,78005,6,0,P|257:199|297:345,1,219.999980926514,6|2,3:2|0:0,0:0:0:0:
136,374,79505,2,0,B|173:215|107:293|87:156|158:45,1,329.999971389771,6|2,3:2|0:2,0:0:0:0:
235,30,81005,6,0,P|274:31|296:104,1,109.999990463257,6|2,3:2|0:2,0:0:0:0:
322,174,81755,2,0,L|448:163,1,109.999990463257,6|2,3:2|0:2,0:0:0:0:
489,230,82505,2,0,P|492:271|347:303,1,219.999980926514,6|2,3:2|0:2,0:0:0:0:
199,193,84005,6,0,P|185:158|101:168,1,120.999993202209,6|10,3:2|0:0,0:0:0:0:
65,171,84567,1,2,3:2:0:0:
65,171,84755,2,0,P|90:219|104:301,1,120.999993202209,2|10,0:0|0:2,0:0:0:0:
89,333,85317,1,2,3:2:0:0:
89,333,85505,1,2,3:2:0:0:
182,358,85880,2,0,P|213:360|241:338,1,60.4999966011047,10|2,0:2|3:2,0:0:0:0:
260,301,86255,2,0,P|332:315|392:319,1,120.999993202209,2|10,0:2|0:2,0:0:0:0:
458,262,87005,6,0,P|506:275|522:291,2,60.4999966011047,2|2|10,3:2|0:2|0:2,0:0:0:0:
429,222,87567,2,0,L|456:98,1,120.999993202209,2|2,3:2|3:2,0:0:0:0:
427,63,88130,1,10,0:2:0:0:
342,15,88505,2,0,P|290:12|277:77,1,120.999993202209,2|2,3:2|3:2,0:0:0:0:
287,115,89067,2,0,L|160:94,1,120.999993202209,2|0,3:2|3:0,0:0:0:0:
122,113,89630,2,0,P|117:148|138:176,1,60.4999966011047,0|0,3:0|3:0,0:0:0:0:
167,198,90005,5,2,3:2:0:0:
106,273,90380,2,0,P|78:275|29:260,1,60.4999966011047,10|2,0:0|3:2,0:0:0:0:
10,300,90755,2,0,P|-4:338|56:381,1,120.999993202209,2|10,0:0|0:2,0:0:0:0:
100,367,91317,1,2,3:2:0:0:
100,367,91505,1,2,3:2:0:0:
193,340,91880,2,0,P|224:329|260:327,2,60.4999966011047,10|2|2,0:2|3:2|0:2,0:0:0:0:
179,293,92442,1,2,3:2:0:0:
179,293,92630,2,0,P|177:251|179:216,1,60.4999966011047,10|2,0:2|3:2,0:0:0:0:
203,191,93005,5,2,3:2:0:0:
243,103,93380,2,0,P|280:88|309:114,1,60.4999966011047,10|2,0:2|3:2,0:0:0:0:
337,121,93755,2,0,L|412:112,1,60.4999966011047,2|2,0:2|3:2,0:0:0:0:
431,79,94130,1,10,0:2:0:0:
487,157,94505,2,0,P|509:224|471:249,1,120.999993202209,2|2,3:2|3:2,0:0:0:0:
442,282,95067,1,2,3:2:0:0:
442,282,95255,2,0,P|382:272|324:256,1,120.999993202209,2|2,3:2|3:2,0:0:0:0:
227,263,96005,6,0,P|179:276|170:346,2,120.999993202209,6|2|2,3:2|3:2|3:2,0:0:0:0:
160,192,97130,1,2,3:2:0:0:
86,128,97505,1,2,3:2:0:0:
138,46,97880,2,0,P|172:53|202:59,1,60.4999966011047,2|2,3:2|0:0,0:0:0:0:
242,40,98255,2,0,P|225:76|282:146,1,120.999993202209,2|2,3:2|3:2,0:0:0:0:
314,140,98817,5,2,0:0:0:0:
314,140,99005,1,2,3:2:0:0:
400,95,99380,1,2,3:2:0:0:
479,150,99755,1,2,3:2:0:0:
480,246,100130,1,2,3:2:0:0:
410,312,100505,2,0,P|422:344|434:375,2,60.4999966011047,2|2|2,3:2|0:0|3:2,0:0:0:0:
378,283,101067,1,2,0:0:0:0:
378,283,101255,2,0,B|309:305|347:321|270:347,1,120.999993202209,2|0,3:2|3:2,0:0:0:0:
180,359,102005,6,0,P|132:320|144:249,1,120.999993202209,2|2,3:2|3:2,0:0:0:0:
177,242,102567,1,2,3:2:0:0:
177,242,102755,2,0,P|190:208|196:183,1,60.4999966011047,2|0,3:2|3:2,0:0:0:0:
181,138,103130,1,2,3:2:0:0:
175,41,103505,2,0,P|144:32|107:23,2,60.4999966011047,2|2|2,3:2|3:2|3:2,0:0:0:0:
220,24,104067,1,2,3:2:0:0:
220,24,104255,2,0,P|266:32|288:39,1,60.4999966011047,2|2,3:2|3:2,0:0:0:0:
310,73,104630,1,2,3:2:0:0:
391,21,105005,6,0,P|426:29|464:110,1,120.999993202209,2|2,3:2|3:2,0:0:0:0:
438,139,105567,1,2,3:2:0:0:
438,139,105755,2,0,P|449:173|459:204,1,60.4999966011047,2|2,3:2|3:2,0:0:0:0:
489,231,106130,2,0,P|478:265|468:296,1,60.4999966011047,2|2,3:2|3:2,0:0:0:0:
445,330,106505,2,0,P|402:312|319:301,1,120.999993202209,2|2,0:0|0:0,0:0:0:0:
291,279,107067,1,2,0:0:0:0:
291,279,107255,2,0,P|231:286|52:372,1,241.999986404419,2|14,0:0|3:3,0:0:0:0:
