osu file format v14

[General]
AudioFilename: audio.mp3
AudioLeadIn: 0
PreviewTime: 36005
Countdown: 0
SampleSet: Soft
StackLeniency: 1
Mode: 0
LetterboxInBreaks: 0
EpilepsyWarning: 1
WidescreenStoryboard: 1

[Editor]
Bookmarks: 12005,24005,36005,48005,60005,72005,84005,96005,108005
DistanceSpacing: 0.4
BeatDivisor: 4
GridSize: 32
TimelineZoom: 2.7

[Metadata]
Title:MP3
TitleUnicode:MP3
Artist:amekudeku, mlvine, Scandal
ArtistUnicode:amekudeku, mlvine, Scandal
Creator:Daycore
Version:flashlight
Source:
Tags:electronic nemidnight plow -_lenkon ryxliee russian hyperpop hyper pop hip hop русский хайперпоп хайпер поп гиперпоп гипер амекудеку скандал млвин млвине de4n
BeatmapID:3979753
BeatmapSetID:1927238

[Difficulty]
HPDrainRate:6
CircleSize:4
OverallDifficulty:9
ApproachRate:9.3
SliderMultiplier:2.3
SliderTickRate:1

[Events]
//Background and Video events
0,0,"bgr.jpg",0,0
//Break Periods
2,48205,58701
//Storyboard Layer 0 (Background)
//Storyboard Layer 1 (Fail)
//Storyboard Layer 2 (Pass)
//Storyboard Layer 3 (Foreground)
//Storyboard Layer 4 (Overlay)
Sprite,Overlay,Centre,"sb\highlight.png",0,0 C,0,36005,,255,128,128 M,0,36005,36051,476,242,467.7049,287.2459 F,2,36005,36486,1,0 S,2,36005,36486,1,0.2 P,0,36005,36486,A M,0,36051,36098,467.7049,287.2459,492.0304,314.823 M,0,36098,36145,492.0304,314.823,531.8268,291.7526 M,0,36145,36192,531.8268,291.7526,556.5415,261.6176 M,0,36192,36239,556.5415,261.6176,548.7906,216.2753 M,0,36239,36286,548.7906,216.2753,541.0398,170.933
Sprite,Overlay,Centre,"sb\highlight.png",0,0 C,0,36380,,128,128,192 M,0,36380,36426,570,102,529.9974,90.05992 F,2,36380,36673,1,0 S,2,36380,36673,1,0.2 P,0,36380,36673,A M,0,36426,36473,529.9974,90.05992,494.1194,111.0068
Sprite,Overlay,Centre,"sb\highlight.png",0,0 C,0,36567,,128,128,192 M,0,36567,36613,402,239,392.9641,281.1677 F,2,36567,36860,1,0 S,2,36567,36860,1,0.2 P,0,36567,36860,A M,0,36613,36660,392.9641,281.1677,384,323
Sprite,Overlay,Centre,"sb\highlight.png",0,0 C,0,36755,,255,128,128 M,0,36755,36801,242,146,279.0526,123.9349 F,2,36755,37236,1,0 S,2,36755,37236,1,0.2 P,0,36755,37236,A M,0,36801,36848,279.0526,123.9349,316.1053,101.8699 M,0,36848,36895,316.1053,101.8699,325.8735,118.2746 M,0,36895,36942,325.8735,118.2746,317.3011,160.539 M,0,36942,36989,317.3011,160.539,308.7286,202.8034 M,0,36989,37036,308.7286,202.8034,300.1561,245.0678
Sprite,Overlay,Centre,"sb\highlight.png",0,0 C,0,37130,,255,128,128 M,0,37130,37176,272,354,240.4813,326.5262 F,2,37130,37423,1,0 S,2,37130,37423,1,0.2 P,0,37130,37423,A M,0,37176,37223,240.4813,326.5262,199.0595,331.2998
Sprite,Overlay,Centre,"sb\highlight.png",166.704,413.704 C,0,37317,,255,128,128 F,2,37317,37517,1,0 S,2,37317,37517,1,0.2 P,0,37317,37517,A
Sprite,Overlay,Centre,"sb\highlight.png",170.352,417.352 C,0,37411,,255,128,128 F,2,37411,37611,1,0 S,2,37411,37611,1,0.2 P,0,37411,37611,A
Sprite,Overlay,Centre,"sb\highlight.png",0,0 C,0,37505,,255,128,128 M,0,37505,37551,174,421,178.7667,365.3537 F,2,37505,38080,1,0 S,2,37505,38080,1,0.2 P,0,37505,38080,A M,0,37551,37598,178.7667,365.3537,155.7842,315.0609 M,0,37598,37645,155.7842,315.0609,138.7953,262.5432 M,0,37645,37692,138.7953,262.5432,151.8191,208.5883 M,0,37692,37739,151.8191,208.5883,138.7953,262.5432 M,0,37739,37786,138.7953,262.5432,155.7842,315.0609 M,0,37786,37833,155.7842,315.0609,178.7667,365.3537 M,0,37833,37880,178.7667,365.3537,174,421
Sprite,Overlay,Centre,"sb\highlight.png",0,0 C,0,38067,,255,128,128 M,0,38067,38113,222,262,239.096,265.0099 F,2,38067,38360,1,0 S,2,38067,38360,1,0.2 P,0,38067,38360,A M,0,38113,38160,239.096,265.0099,219.9654,255.062
Sprite,Overlay,Centre,"sb\highlight.png",0,0 C,0,38255,,128,128,192 M,0,38255,38301,119,118,166.1528,130.8599 F,2,38255,38642,1,0 S,2,38255,38642,1,0.2 P,0,38255,38642,A M,0,38301,38348,166.1528,130.8599,209.5988,147.9971 M,0,38348,38395,209.5988,147.9971,241.9448,177.8664 M,0,38395,38442,241.9448,177.8664,289.1618,190.4888
Sprite,Overlay,Centre,"sb\highlight.png",415,146 C,0,38536,,128,128,192 F,2,38536,38736,1,0 S,2,38536,38736,1,0.2 P,0,38536,38736,A
Sprite,Overlay,Centre,"sb\highlight.png",0,0 C,0,38630,,128,128,192 M,0,38630,38676,462,209,416.5129,224.3661 F,2,38630,38923,1,0 S,2,38630,38923,1,0.2 P,0,38630,38923,A M,0,38676,38723,416.5129,224.3661,371.0078,209.0626
Sprite,Overlay,Centre,"sb\highlight.png",0,0 C,0,38817,,128,128,192 M,0,38817,38863,275,110,322.2885,97.64851 F,2,38817,39110,1,0 S,2,38817,39110,1,0.2 P,0,38817,39110,A M,0,38863,38910,322.2885,97.64851,369.5771,85.29703
Sprite,Overlay,Centre,"sb\highlight.png",0,0 C,0,39005,,255,128,128 M,0,39005,39051,499,286,508.5852,238.0741 F,2,39005,39392,1,0 S,2,39005,39392,1,0.2 P,0,39005,39392,A M,0,39051,39098,508.5852,238.0741,518.1703,190.1482 M,0,39098,39145,518.1703,190.1482,531.2257,143.2995 M,0,39145,39192,531.2257,143.2995,566.8363,110.8021
Sprite,Overlay,Centre,"sb\highlight.png",501.352,65.352 C,0,39286,,255,128,128 F,2,39286,39486,1,0 S,2,39286,39486,1,0.2 P,0,39286,39486,A
Sprite,Overlay,Centre,"sb\highlight.png",0,0 C,0,39380,,255,128,128 M,0,39380,39426,505,69,478.6964,58.46072 F,2,39380,39673,1,0 S,2,39380,39673,1,0.2 P,0,39380,39673,A M,0,39426,39473,478.6964,58.46072,450.5047,64.09906
Sprite,Overlay,Centre,"sb\highlight.png",0,0 C,0,39567,,128,128,192 M,0,39567,39613,423,369,472.4981,366.6036 F,2,39567,40048,1,0 S,2,39567,40048,1,0.2 P,0,39567,40048,A M,0,39613,39660,472.4981,366.6036,489.1815,321.1463 M,0,39660,39707,489.1815,321.1463,454.4965,285.3036 M,0,39707,39754,454.4965,285.3036,403.6393,283.2369 M,0,39754,39801,403.6393,283.2369,360.0563,309.8012 M,0,39801,39848,360.0563,309.8012,339.1856,356.226
Sprite,Overlay,Centre,"sb\highlight.png",260.704,401.704 C,0,39942,,128,128,192 F,2,39942,40142,1,0 S,2,39942,40142,1,0.2 P,0,39942,40142,A
Sprite,Overlay,Centre,"sb\highlight.png",264.352,405.352 C,0,40036,,128,128,192 F,2,40036,40236,1,0 S,2,40036,40236,1,0.2 P,0,40036,40236,A
Sprite,Overlay,Centre,"sb\highlight.png",0,0 C,0,40130,,128,128,192 M,0,40130,40176,268,409,257.851,358.2549 F,2,40130,40517,1,0 S,2,40130,40517,1,0.2 P,0,40130,40517,A M,0,40176,40223,257.851,358.2549,247.702,307.5099 M,0,40223,40270,247.702,307.5099,229.9621,259.8535 M,0,40270,40317,229.9621,259.8535,194.0616,224.0039
Sprite,Overlay,Centre,"sb\highlight.png",0,0 C,0,40505,,255,128,128 M,0,40505,40551,396,63,360.7942,98.49451 F,2,40505,40798,1,0 S,2,40505,40798,1,0.2 P,0,40505,40798,A M,0,40551,40598,360.7942,98.49451,372.2631,148.9576
Sprite,Overlay,Centre,"sb\highlight.png",0,0 C,0,40692,,255,128,128 M,0,40692,40738,415,258,418.8015,236.7752 F,2,40692,40985,1,0 S,2,40692,40985,1,0.2 P,0,40692,40985,A M,0,40738,40785,418.8015,236.7752,422.6029,215.5505
Sprite,Overlay,Centre,"sb\highlight.png",0,0 C,0,40880,,255,128,128 M,0,40880,40926,508,86,523.3413,133.265 F,2,40880,41173,1,0 S,2,40880,41173,1,0.2 P,0,40880,41173,A M,0,40926,40973,523.3413,133.265,490.665,173.3938
Sprite,Overlay,Centre,"sb\highlight.png",0,0 C,0,41068,,255,128,128 M,0,41068,41114,405,314,410.0686,285.7003 F,2,41068,41361,1,0 S,2,41068,41361,1,0.2 P,0,41068,41361,A M,0,41114,41161,410.0686,285.7003,415.1372,257.4006
Sprite,Overlay,Centre,"sb\highlight.png",0,0 C,0,41255,,255,128,128 M,0,41255,41301,321,56,288.768,84.65069 F,2,41255,41642,1,0 S,2,41255,41642,1,0.2 P,0,41255,41642,A M,0,41301,41348,288.768,84.65069,293.8093,125.0508 M,0,41348,41395,293.8093,125.0508,303.7847,167.0062 M,0,41395,41442,303.7847,167.0062,313.7601,208.9616
Sprite,Overlay,Centre,"sb\highlight.png",0,0 C,0,41630,,128,128,192 M,0,41630,41676,180,102,221.9712,100.0104 F,2,41630,41923,1,0 S,2,41630,41923,1,0.2 P,0,41630,41923,A M,0,41676,41723,221.9712,100.0104,253,128
Sprite,Overlay,Centre,"sb\highlight.png",0,0 C,0,41817,,128,128,192 M,0,41817,41863,303,294,308.4714,251.2235 F,2,41817,42110,1,0 S,2,41817,42110,1,0.2 P,0,41817,42110,A M,0,41863,41910,308.4714,251.2235,313.9428,208.447
Sprite,Overlay,Centre,"sb\highlight.png",0,0 C,0,42005,,255,128,128 M,0,42005,42051,127,405,99.66084,413.687 F,2,42005,42486,1,0 S,2,42005,42486,1,0.2 P,0,42005,42486,A M,0,42051,42098,99.66084,413.687,149.1263,423.5607 M,0,42098,42145,149.1263,423.5607,183.2147,383.2938 M,0,42145,42192,183.2147,383.2938,174.2833,331.1232 M,0,42192,42239,174.2833,331.1232,128.1373,305.4371 M,0,42239,42286,128.1373,305.4371,82.70432,277.1812
Sprite,Overlay,Centre,"sb\highlight.png",0,0 C,0,42380,,255,128,128 M,0,42380,42426,83,177,122.8969,182.3196 F,2,42380,42673,1,0 S,2,42380,42673,1,0.2 P,0,42380,42673,A M,0,42426,42473,122.8969,182.3196,162.7939,187.6392
Sprite,Overlay,Centre,"sb\highlight.png",0,0 C,0,42567,,255,128,128 M,0,42567,42613,259,113,219.1622,107.2542 F,2,42567,42860,1,0 S,2,42567,42860,1,0.2 P,0,42567,42860,A M,0,42613,42660,219.1622,107.2542,179.3245,101.5083
Sprite,Overlay,Centre,"sb\highlight.png",0,0 C,0,42755,,255,128,128 M,0,42755,42801,69,80,117.5206,85.87469 F,2,42755,43142,1,0 S,2,42755,43142,1,0.2 P,0,42755,43142,A M,0,42801,42848,117.5206,85.87469,166.0413,91.7494 M,0,42848,42895,166.0413,91.7494,214.562,97.62409 M,0,42895,42942,214.562,97.62409,263.0826,103.4988
Sprite,Overlay,Centre,"sb\highlight.png",0,0 C,0,43130,,128,128,192 M,0,43130,43176,449,74,467.932,95.63658 F,2,43130,43423,1,0 S,2,43130,43423,1,0.2 P,0,43130,43423,A M,0,43176,43223,467.932,95.63658,464.7242,123.0602
Sprite,Overlay,Centre,"sb\highlight.png",0,0 C,0,43317,,128,128,192 M,0,43317,43363,534,161,522.2396,187.2346 F,2,43317,43610,1,0 S,2,43317,43610,1,0.2 P,0,43317,43610,A M,0,43363,43410,522.2396,187.2346,495.8322,195.2985
Sprite,Overlay,Centre,"sb\highlight.png",0,0 C,0,43505,,128,128,192 M,0,43505,43551,452,72,470.932,93.63658 F,2,43505,43798,1,0 S,2,43505,43798,1,0.2 P,0,43505,43798,A M,0,43551,43598,470.932,93.63658,467.7242,121.0602
Sprite,Overlay,Centre,"sb\highlight.png",0,0 C,0,43692,,128,128,192 M,0,43692,43738,490,275,461.25,275 F,2,43692,43985,1,0 S,2,43692,43985,1,0.2 P,0,43692,43985,A M,0,43738,43785,461.25,275,442.0703,255.0878
Sprite,Overlay,Centre,"sb\highlight.png",0,0 C,0,43880,,128,128,192 M,0,43880,43926,383,127,365.8465,172.2261 F,2,43880,44267,1,0 S,2,43880,44267,1,0.2 P,0,43880,44267,A M,0,43926,43973,365.8465,172.2261,377.0365,218.8892 M,0,43973,44020,377.0365,218.8892,387.2598,265.8089 M,0,44020,44067,387.2598,265.8089,375.568,313.1074
Sprite,Overlay,Centre,"sb\highlight.png",0,0 C,0,44255,,128,128,192 M,0,44255,44301,310,261,283.7981,249.1669 F,2,44255,44548,1,0 S,2,44255,44548,1,0.2 P,0,44255,44548,A M,0,44301,44348,283.7981,249.1669,301.926,252.0947
Sprite,Overlay,Centre,"sb\highlight.png",156,416 C,0,44442,,255,128,128 F,2,44442,44642,1,0 S,2,44442,44642,1,0.2 P,0,44442,44642,A
Sprite,Overlay,Centre,"sb\highlight.png",126,376 C,0,44536,,255,128,128 F,2,44536,44736,1,0 S,2,44536,44736,1,0.2 P,0,44536,44736,A
Sprite,Overlay,Centre,"sb\highlight.png",0,0 C,0,44630,,255,128,128 M,0,44630,44676,156,337,203.0131,350.3616 F,2,44630,45017,1,0 S,2,44630,45017,1,0.2 P,0,44630,45017,A M,0,44676,44723,203.0131,350.3616,250.0262,363.7232 M,0,44723,44770,250.0262,363.7232,287.1707,393.0294 M,0,44770,44817,287.1707,393.0294,327.1002,419.256
Sprite,Overlay,Centre,"sb\highlight.png",0,0 C,0,45005,,128,128,192 M,0,45005,45051,162,129,117.3654,140.3926 F,2,45005,45298,1,0 S,2,45005,45298,1,0.2 P,0,45005,45298,A M,0,45051,45098,117.3654,140.3926,106.3329,184.7768
Sprite,Overlay,Centre,"sb\highlight.png",0,0 C,0,45192,,128,128,192 M,0,45192,45238,251,275,239.8358,227.4353 F,2,45192,45485,1,0 S,2,45192,45485,1,0.2 P,0,45192,45485,A M,0,45238,45285,239.8358,227.4353,233.1352,179.0398
Sprite,Overlay,Centre,"sb\highlight.png",0,0 C,0,45380,,128,128,192 M,0,45380,45426,327,71,371.6346,82.39256 F,2,45380,45673,1,0 S,2,45380,45673,1,0.2 P,0,45380,45673,A M,0,45426,45473,371.6346,82.39256,382.6671,126.7768
Sprite,Overlay,Centre,"sb\highlight.png",0,0 C,0,45567,,128,128,192 M,0,45567,45613,460,159,447.9459,206.3309 F,2,45567,45860,1,0 S,2,45567,45860,1,0.2 P,0,45567,45860,A M,0,45613,45660,447.9459,206.3309,442,254
Sprite,Overlay,Centre,"sb\highlight.png",0,0 C,0,45755,,128,128,192 M,0,45755,45801,539.704,371.704,572.2929,374.6578 F,2,45755,46142,1,0 S,2,45755,46142,1,0.2 P,0,45755,46142,A M,0,45801,45848,572.2929,374.6578,531.29,352.3071 M,0,45848,45895,531.29,352.3071,486.2876,367.8187 M,0,45895,45942,486.2876,367.8187,463.6946,410.195
Sprite,Overlay,Centre,"sb\highlight.png",466.352,413.352 C,0,46036,,128,128,192 F,2,46036,46236,1,0 S,2,46036,46236,1,0.2 P,0,46036,46236,A
Sprite,Overlay,Centre,"sb\highlight.png",0,0 C,0,46130,,128,128,192 M,0,46130,46176,470,417,480.3474,369.2354 F,2,46130,46423,1,0 S,2,46130,46423,1,0.2 P,0,46130,46423,A M,0,46176,46223,480.3474,369.2354,489.1567,321.1638
Sprite,Overlay,Centre,"sb\highlight.png",452,154 C,0,46317,,128,128,192 F,2,46317,46517,1,0 S,2,46317,46517,1,0.2 P,0,46317,46517,A
Sprite,Overlay,Centre,"sb\highlight.png",0,0 C,0,46505,,255,128,128 M,0,46505,46551,277,404,225.8088,386.2126 F,2,46505,46986,1,0 S,2,46505,46986,1,0.2 P,0,46505,46986,A M,0,46551,46598,225.8088,386.2126,191.8022,344.7777 M,0,46598,46645,191.8022,344.7777,196.6716,292.1721 M,0,46645,46692,196.6716,292.1721,243.2909,270.8085 M,0,46692,46739,243.2909,270.8085,277.4472,308.7778 M,0,46739,46786,277.4472,308.7778,252.297,353.7549
Sprite,Overlay,Centre,"sb\highlight.png",0,0 C,0,46880,,128,128,192 M,0,46880,46926,106,378,138.6266,345.7877 F,2,46880,47173,1,0 S,2,46880,47173,1,0.2 P,0,46880,47173,A M,0,46926,46973,138.6266,345.7877,162.1176,306.4186
Sprite,Overlay,Centre,"sb\highlight.png",0,0 C,0,47067,,128,128,192 M,0,47067,47113,291,274,312.3883,233.4886 F,2,47067,47360,1,0 S,2,47067,47360,1,0.2 P,0,47067,47360,A M,0,47113,47160,312.3883,233.4886,344.2369,200.5628
Sprite,Overlay,Centre,"sb\highlight.png",443,147 C,0,47255,,128,128,192 F,2,47255,47455,1,0 S,2,47255,47455,1,0.2 P,0,47255,47455,A
Sprite,Overlay,Centre,"sb\highlight.png",515,187 C,0,47630,,255,128,128 F,2,47630,47830,1,0 S,2,47630,47830,1,0.2 P,0,47630,47830,A
Sprite,Overlay,Centre,"sb\highlight.png",506,265 C,0,47817,,255,128,128 F,2,47817,48017,1,0 S,2,47817,48017,1,0.2 P,0,47817,48017,A
Sprite,Overlay,Centre,"sb\highlight.png",488,288 C,0,47911,,255,128,128 F,2,47911,48111,1,0 S,2,47911,48111,1,0.2 P,0,47911,48111,A
Sprite,Overlay,Centre,"sb\highlight.png",0,0 C,0,84005,,128,128,192 M,0,84005,84051,356,82,304.7317,74.95551 F,2,84005,84486,1,0 S,2,84005,84486,1,0.2 P,0,84005,84486,A M,0,84051,84098,304.7317,74.95551,253.4634,67.911 M,0,84098,84145,253.4634,67.911,219.9647,85.1973 M,0,84145,84192,219.9647,85.1973,241.9036,132.0668 M,0,84192,84239,241.9036,132.0668,263.8425,178.9362 M,0,84239,84286,263.8425,178.9362,285.7814,225.8057
Sprite,Overlay,Centre,"sb\highlight.png",338.704,305.704 C,0,84380,,128,128,192 F,2,84380,84580,1,0 S,2,84380,84580,1,0.2 P,0,84380,84580,A
Sprite,Overlay,Centre,"sb\highlight.png",342.352,309.352 C,0,84473,,128,128,192 F,2,84473,84673,1,0 S,2,84473,84673,1,0.2 P,0,84473,84673,A
Sprite,Overlay,Centre,"sb\highlight.png",0,0 C,0,84567,,128,128,192 M,0,84567,84613,346,313,335.5189,361.6438 F,2,84567,84860,1,0 S,2,84567,84860,1,0.2 P,0,84567,84860,A M,0,84613,84660,335.5189,361.6438,290.385,382.1521
Sprite,Overlay,Centre,"sb\highlight.png",0,0 C,0,84755,,128,128,192 M,0,84755,84801,117,440,162.7151,415.7982 F,2,84755,85142,1,0 S,2,84755,85142,1,0.2 P,0,84755,85142,A M,0,84801,84848,162.7151,415.7982,201.0459,381.772 M,0,84848,84895,201.0459,381.772,221.4006,334.4896 M,0,84895,84942,221.4006,334.4896,261.8108,302.8527
Sprite,Overlay,Centre,"sb\highlight.png",0,0 C,0,85130,,255,128,128 M,0,85130,85176,522,292,521.2173,312.7044 F,2,85130,85423,1,0 S,2,85130,85423,1,0.2 P,0,85130,85423,A M,0,85176,85223,521.2173,312.7044,471.1078,304.667
Sprite,Overlay,Centre,"sb\highlight.png",0,0 C,0,85317,,255,128,128 M,0,85317,85363,477,169,476.6555,190.2114 F,2,85317,85610,1,0 S,2,85317,85610,1,0.2 P,0,85317,85610,A M,0,85363,85410,476.6555,190.2114,484,209
Sprite,Overlay,Centre,"sb\highlight.png",0,0 C,0,85505,,255,128,128 M,0,85505,85551,485,381,463.6568,343.8989 F,2,85505,85892,1,0 S,2,85505,85892,1,0.2 P,0,85505,85892,A M,0,85551,85598,463.6568,343.8989,429.7271,317.8847 M,0,85598,85645,429.7271,317.8847,388.4393,306.708 M,0,85645,85692,388.4393,306.708,346.0782,312.6918
Sprite,Overlay,Centre,"sb\highlight.png",0,0 C,0,85880,,128,128,192 M,0,85880,85926,122,177,93.72552,150.1765 F,2,85880,86173,1,0 S,2,85880,86173,1,0.2 P,0,85880,86173,A M,0,85926,85973,93.72552,150.1765,129.3566,174.4704
Sprite,Overlay,Centre,"sb\highlight.png",0,0 C,0,86067,,128,128,192 M,0,86067,86113,287,206,315.2745,232.8235 F,2,86067,86360,1,0 S,2,86067,86360,1,0.2 P,0,86067,86360,A M,0,86113,86160,315.2745,232.8235,279.6434,208.5296
Sprite,Overlay,Centre,"sb\highlight.png",0,0 C,0,86255,,128,128,192 M,0,86255,86301,151,84,156.6584,126.7522 F,2,86255,86642,1,0 S,2,86255,86642,1,0.2 P,0,86255,86642,A M,0,86301,86348,156.6584,126.7522,162.3167,169.5043 M,0,86348,86395,162.3167,169.5043,167.9751,212.2565 M,0,86395,86442,167.9751,212.2565,173.6335,255.0087
Sprite,Overlay,Centre,"sb\highlight.png",183,394 C,0,86536,,128,128,192 F,2,86536,86736,1,0 S,2,86536,86736,1,0.2 P,0,86536,86736,A
Sprite,Overlay,Centre,"sb\highlight.png",0,0 C,0,86630,,128,128,192 M,0,86630,86676,112,361,104.241,399.7713 F,2,86630,86923,1,0 S,2,86630,86923,1,0.2 P,0,86630,86923,A M,0,86676,86723,104.241,399.7713,117.1041,440.9333
Sprite,Overlay,Centre,"sb\highlight.png",0,0 C,0,86817,,128,128,192 M,0,86817,86863,231,304,191.0001,292.3406 F,2,86817,87110,1,0 S,2,86817,87110,1,0.2 P,0,86817,87110,A M,0,86863,86910,191.0001,292.3406,173.6608,254.6722
Sprite,Overlay,Centre,"sb\highlight.png",0,0 C,0,87005,,255,128,128 M,0,87005,87051,355,415,336.181,394.2974 F,2,87005,87298,1,0 S,2,87005,87298,1,0.2 P,0,87005,87298,A M,0,87051,87098,336.181,394.2974,334.4727,366.5883
Sprite,Overlay,Centre,"sb\highlight.png",0,0 C,0,87192,,255,128,128 M,0,87192,87238,425,244,397.7093,242.8185 F,2,87192,87485,1,0 S,2,87192,87485,1,0.2 P,0,87192,87485,A M,0,87238,87285,397.7093,242.8185,425.5624,235.6933
Sprite,Overlay,Centre,"sb\highlight.png",0,0 C,0,87380,,255,128,128 M,0,87380,87426,527,386,530.813,357.5195 F,2,87380,87673,1,0 S,2,87380,87673,1,0.2 P,0,87380,87673,A M,0,87426,87473,530.813,357.5195,537.166,329.497
Sprite,Overlay,Centre,"sb\highlight.png",0,0 C,0,87567,,255,128,128 M,0,87567,87613,331,176,327.187,204.4805 F,2,87567,87860,1,0 S,2,87567,87860,1,0.2 P,0,87567,87860,A M,0,87613,87660,327.187,204.4805,320.834,232.5029
Sprite,Overlay,Centre,"sb\highlight.png",0,0 C,0,87755,,255,128,128 M,0,87755,87801,461,316,452.9916,270.7025 F,2,87755,88142,1,0 S,2,87755,88142,1,0.2 P,0,87755,88142,A M,0,87801,87848,452.9916,270.7025,444.9832,225.405 M,0,87848,87895,444.9832,225.405,436.9748,180.1074 M,0,87895,87942,436.9748,180.1074,429,135
Sprite,Overlay,Centre,"sb\highlight.png",0,0 C,0,88130,,128,128,192 M,0,88130,88176,253,56,213.3441,77.94101 F,2,88130,88423,1,0 S,2,88130,88423,1,0.2 P,0,88130,88423,A M,0,88176,88223,213.3441,77.94101,258.6827,70.16867
Sprite,Overlay,Centre,"sb\highlight.png",0,0 C,0,88317,,128,128,192 M,0,88317,88363,331,176,305.674,182.53 F,2,88317,88610,1,0 S,2,88317,88610,1,0.2 P,0,88317,88610,A M,0,88363,88410,305.674,182.53,277.3421,177.6452
Sprite,Overlay,Centre,"sb\highlight.png",0,0 C,0,88505,,255,128,128 M,0,88505,88551,143,87,131.8325,128.1128 F,2,88505,88986,1,0 S,2,88505,88986,1,0.2 P,0,88505,88986,A M,0,88551,88598,131.8325,128.1128,99.60106,156.4216 M,0,88598,88645,99.60106,156.4216,75.47946,191.2719 M,0,88645,88692,75.47946,191.2719,80.91521,232.8907 M,0,88692,88739,80.91521,232.8907,116.3788,254.0856 M,0,88739,88786,116.3788,254.0856,154.2523,236.3715
Sprite,Overlay,Centre,"sb\highlight.png",0,0 C,0,88880,,255,128,128 M,0,88880,88926,167,363,165.0028,341.5302 F,2,88880,89173,1,0 S,2,88880,89173,1,0.2 P,0,88880,89173,A M,0,88926,88973,165.0028,341.5302,163.0056,320.0604
Sprite,Overlay,Centre,"sb\highlight.png",0,0 C,0,89067,,128,128,192 M,0,89067,89113,143,87,159.9638,126.0909 F,2,89067,89548,1,0 S,2,89067,89548,1,0.2 P,0,89067,89548,A M,0,89113,89160,159.9638,126.0909,196.0839,149.1936 M,0,89160,89207,196.0839,149.1936,225.5119,179.6953 M,0,89207,89254,225.5119,179.6953,226.5244,221.6147 M,0,89254,89301,226.5244,221.6147,194.3307,247.4499 M,0,89301,89348,194.3307,247.4499,153.9854,235.9387
Sprite,Overlay,Centre,"sb\highlight.png",0,0 C,0,89442,,255,128,128 M,0,89442,89488,241,263,244.5395,305.9795 F,2,89442,89735,1,0 S,2,89442,89735,1,0.2 P,0,89442,89735,A M,0,89488,89535,244.5395,305.9795,248,348
Sprite,Overlay,Centre,"sb\highlight.png",0,0 C,0,89630,,255,128,128 M,0,89630,89676,401,253,363.5143,241.3362 F,2,89630,89923,1,0 S,2,89630,89923,1,0.2 P,0,89630,89923,A M,0,89676,89723,363.5143,241.3362,320.6202,245.7927
Sprite,Overlay,Centre,"sb\highlight.png",0,0 C,0,89817,,255,128,128 M,0,89817,89863,146,82,185.2437,66.23743 F,2,89817,90110,1,0 S,2,89817,90110,1,0.2 P,0,89817,90110,A M,0,89863,89910,185.2437,66.23743,225.9881,77.13002
Sprite,Overlay,Centre,"sb\highlight.png",0,0 C,0,90005,,128,128,192 M,0,90005,90051,362,336,357.5475,293.1147 F,2,90005,90486,1,0 S,2,90005,90486,1,0.2 P,0,90005,90486,A M,0,90051,90098,357.5475,293.1147,357.9176,250.0438 M,0,90098,90145,357.9176,250.0438,371.2841,209.4804 M,0,90145,90192,371.2841,209.4804,394.7825,173.435 M,0,90192,90239,394.7825,173.435,405.135,131.7438 M,0,90239,90286,405.135,131.7438,407.0042,88.68671
Sprite,Overlay,Centre,"sb\highlight.png",0,0 C,0,90380,,128,128,192 M,0,90380,90426,322,133,308.5456,121.3555 F,2,90380,90673,1,0 S,2,90380,90673,1,0.2 P,0,90380,90673,A M,0,90426,90473,308.5456,121.3555,323.8161,129.109
Sprite,Overlay,Centre,"sb\highlight.png",0,0 C,0,90567,,128,128,192 M,0,90567,90613,498,185,525.5668,188.829 F,2,90567,90860,1,0 S,2,90567,90860,1,0.2 P,0,90567,90860,A M,0,90613,90660,525.5668,188.829,498.8248,178.273
Sprite,Overlay,Centre,"sb\highlight.png",0,0 C,0,90755,,255,128,128 M,0,90755,90801,364,356,384.5357,366.5521 F,2,90755,91236,1,0 S,2,90755,91236,1,0.2 P,0,90755,91236,A M,0,90801,90848,384.5357,366.5521,367.3455,328.5997 M,0,90848,90895,367.3455,328.5997,328.9565,310.6797 M,0,90895,90942,328.9565,310.6797,288.8882,322.8069 M,0,90942,90989,288.8882,322.8069,275.5237,361.93 M,0,90989,91036,275.5237,361.93,277.958,404.3051
Sprite,Overlay,Centre,"sb\highlight.png",0,0 C,0,91130,,255,128,128 M,0,91130,91176,358,353,347.8668,334.9885 F,2,91130,91423,1,0 S,2,91130,91423,1,0.2 P,0,91130,91423,A M,0,91176,91223,347.8668,334.9885,328.8308,327.4108
Sprite,Overlay,Centre,"sb\highlight.png",0,0 C,0,91317,,255,128,128 M,0,91317,91363,206,229,190.4837,243.4346 F,2,91317,91610,1,0 S,2,91317,91610,1,0.2 P,0,91317,91610,A M,0,91363,91410,190.4837,243.4346,182.9662,263.108
Sprite,Overlay,Centre,"sb\highlight.png",0,0 C,0,91505,,128,128,192 M,0,91505,91551,125,413,97.38127,372.6767 F,2,91505,91986,1,0 S,2,91505,91986,1,0.2 P,0,91505,91986,A M,0,91551,91598,97.38127,372.6767,77.93092,331.2072 M,0,91598,91645,77.93092,331.2072,115.4261,310.77 M,0,91645,91692,115.4261,310.77,163.6775,302.9875 M,0,91692,91739,163.6775,302.9875,211.9289,295.205 M,0,91739,91786,211.9289,295.205,260.1803,287.4225
Sprite,Overlay,Centre,"sb\highlight.png",0,0 C,0,91880,,128,128,192 M,0,91880,91926,310,222,325.5163,236.4346 F,2,91880,92173,1,0 S,2,91880,92173,1,0.2 P,0,91880,92173,A M,0,91926,91973,325.5163,236.4346,333.0338,256.108
Sprite,Overlay,Centre,"sb\highlight.png",0,0 C,0,92067,,128,128,192 M,0,92067,92113,119,200,161.2024,204.9924 F,2,92067,92454,1,0 S,2,92067,92454,1,0.2 P,0,92067,92454,A M,0,92113,92160,161.2024,204.9924,199.692,187.1969 M,0,92160,92207,199.692,187.1969,223.4139,152.01 M,0,92207,92254,223.4139,152.01,224.8538,109.512
Sprite,Overlay,Centre,"sb\highlight.png",483,90 C,0,92442,,255,128,128 F,2,92442,92642,1,0 S,2,92442,92642,1,0.2 P,0,92442,92642,A
Sprite,Overlay,Centre,"sb\highlight.png",440,99 C,0,92536,,255,128,128 F,2,92536,92736,1,0 S,2,92536,92736,1,0.2 P,0,92536,92736,A
Sprite,Overlay,Centre,"sb\highlight.png",0,0 C,0,92630,,255,128,128 M,0,92630,92676,397,109,366.643,113.5562 F,2,92630,92923,1,0 S,2,92630,92923,1,0.2 P,0,92630,92923,A M,0,92676,92723,366.643,113.5562,339.9456,98.38991
Sprite,Overlay,Centre,"sb\highlight.png",0,0 C,0,92817,,255,128,128 M,0,92817,92863,492,303,495.6796,271.6207 F,2,92817,93110,1,0 S,2,92817,93110,1,0.2 P,0,92817,93110,A M,0,92863,92910,495.6796,271.6207,503.1508,240.9279
Sprite,Overlay,Centre,"sb\highlight.png",0,0 C,0,93005,,128,128,192 M,0,93005,93051,270,364,240.5135,352.6321 F,2,93005,93298,1,0 S,2,93005,93298,1,0.2 P,0,93005,93298,A M,0,93051,93098,240.5135,352.6321,209.9766,344.5225
Sprite,Overlay,Centre,"sb\highlight.png",0,0 C,0,93192,,128,128,192 M,0,93192,93238,370,202,340.5135,213.3678 F,2,93192,93485,1,0 S,2,93192,93485,1,0.2 P,0,93192,93485,A M,0,93238,93285,340.5135,213.3678,309.9766,221.4775
Sprite,Overlay,Centre,"sb\highlight.png",0,0 C,0,93380,,128,128,192 M,0,93380,93426,399,440,369.5135,428.6321 F,2,93380,93673,1,0 S,2,93380,93673,1,0.2 P,0,93380,93673,A M,0,93426,93473,369.5135,428.6321,338.9765,420.5225
Sprite,Overlay,Centre,"sb\highlight.png",0,0 C,0,93567,,128,128,192 M,0,93567,93613,497,312,467.5135,323.3679 F,2,93567,93860,1,0 S,2,93567,93860,1,0.2 P,0,93567,93860,A M,0,93613,93660,467.5135,323.3679,436.9765,331.4775
Sprite,Overlay,Centre,"sb\highlight.png",0,0 C,0,93755,,128,128,192 M,0,93755,93801,189.704,268.704,161.6148,282.5535 F,2,93755,94142,1,0 S,2,93755,94142,1,0.2 P,0,93755,94142,A M,0,93801,93848,161.6148,282.5535,140.943,305.9865 M,0,93848,93895,140.943,305.9865,131.1349,335.7061 M,0,93895,93942,131.1349,335.7061,133.704,366.704
Sprite,Overlay,Centre,"sb\highlight.png",137.352,370.352 C,0,94036,,128,128,192 F,2,94036,94236,1,0 S,2,94036,94236,1,0.2 P,0,94036,94236,A
Sprite,Overlay,Centre,"sb\highlight.png",0,0 C,0,94130,,128,128,192 M,0,94130,94176,141,374,109.7134,376.9108 F,2,94130,94423,1,0 S,2,94130,94423,1,0.2 P,0,94130,94423,A M,0,94176,94223,109.7134,376.9108,79.03321,370.1395
Sprite,Overlay,Centre,"sb\highlight.png",0,0 C,0,94317,,128,128,192 M,0,94317,94363,272,340,240.8033,336.31 F,2,94317,94610,1,0 S,2,94317,94610,1,0.2 P,0,94317,94610,A M,0,94363,94410,240.8033,336.31,210.0336,342.6219
Sprite,Overlay,Centre,"sb\highlight.png",0,0 C,0,94505,,255,128,128 M,0,94505,94551,101,223,64.00244,195.1063 F,2,94505,94986,1,0 S,2,94505,94986,1,0.2 P,0,94505,94986,A M,0,94551,94598,64.00244,195.1063,72.1485,148.4321 M,0,94598,94645,72.1485,148.4321,110.1223,118.8255 M,0,94645,94692,110.1223,118.8255,125.7784,134.5619 M,0,94692,94739,125.7784,134.5619,129.0786,182.8712 M,0,94739,94786,129.0786,182.8712,116.4365,228.9897
Sprite,Overlay,Centre,"sb\highlight.png",0,0 C,0,94880,,255,128,128 M,0,94880,94926,199,150,171.0329,146.0977 F,2,94880,95173,1,0 S,2,94880,95173,1,0.2 P,0,94880,95173,A M,0,94926,94973,171.0329,146.0977,149.4758,128.0831
Sprite,Overlay,Centre,"sb\highlight.png",0,0 C,0,95068,,255,128,128 M,0,95068,95114,259,242,280.152,223.4996 F,2,95068,95361,1,0 S,2,95068,95361,1,0.2 P,0,95068,95361,A M,0,95114,95161,280.152,223.4996,308.065,219.8801
Sprite,Overlay,Centre,"sb\highlight.png",0,0 C,0,95255,,128,128,192 M,0,95255,95301,370,90,412.6151,85.00853 F,2,95255,95736,1,0 S,2,95255,95736,1,0.2 P,0,95255,95736,A M,0,95301,95348,412.6151,85.00853,451.0248,65.83009 M,0,95348,95395,451.0248,65.83009,467.3405,65.57992 M,0,95395,95442,467.3405,65.57992,458.0456,107.6913 M,0,95442,95489,458.0456,107.6913,448.7507,149.8027 M,0,95489,95536,448.7507,149.8027,439.4559,191.9142
Sprite,Overlay,Centre,"sb\highlight.png",534,261 C,0,95630,,128,128,192 F,2,95630,95830,1,0 S,2,95630,95830,1,0.2 P,0,95630,95830,A
Sprite,Overlay,Centre,"sb\highlight.png",512,260 C,0,95723,,128,128,192 F,2,95723,95923,1,0 S,2,95723,95923,1,0.2 P,0,95723,95923,A
Sprite,Overlay,Centre,"sb\highlight.png",493,269 C,0,95817,,128,128,192 F,2,95817,96017,1,0 S,2,95817,96017,1,0.2 P,0,95817,96017,A
Sprite,Overlay,Centre,"sb\highlight.png",480,286 C,0,95911,,128,128,192 F,2,95911,96111,1,0 S,2,95911,96111,1,0.2 P,0,95911,96111,A
Sprite,Overlay,Centre,"sb\highlight.png",0,0 C,0,96005,,255,128,128 M,0,96005,96051,467,331,433.4925,339.2158 F,2,96005,96486,1,0 S,2,96005,96486,1,0.2 P,0,96005,96486,A M,0,96051,96098,433.4925,339.2158,399.985,347.4315 M,0,96098,96145,399.985,347.4315,366.4776,355.6473 M,0,96145,96192,366.4776,355.6473,332.9701,363.8631 M,0,96192,96239,332.9701,363.8631,299.4626,372.0789 M,0,96239,96286,299.4626,372.0789,265.9551,380.2946
Sprite,Overlay,Centre,"sb\highlight.png",0,0 C,0,96380,,255,128,128 M,0,96380,96426,334,272,368.3186,268.4672 F,2,96380,96673,1,0 S,2,96380,96673,1,0.2 P,0,96380,96673,A M,0,96426,96473,368.3186,268.4672,402,265
Sprite,Overlay,Centre,"sb\highlight.png",0,0 C,0,96567,,255,128,128 M,0,96567,96613,501,423,466.5,423 F,2,96567,96860,1,0 S,2,96567,96860,1,0.2 P,0,96567,96860,A M,0,96613,96660,466.5,423,432,423
Sprite,Overlay,Centre,"sb\highlight.png",0,0 C,0,96755,,128,128,192 M,0,96755,96801,259,297,225.0699,290.7552 F,2,96755,97142,1,0 S,2,96755,97142,1,0.2 P,0,96755,97142,A M,0,96801,96848,225.0699,290.7552,191.1398,284.5104 M,0,96848,96895,191.1398,284.5104,157.2097,278.2656 M,0,96895,96942,157.2097,278.2656,123.2796,272.0208
Sprite,Overlay,Centre,"sb\highlight.png",168.352,87.352 C,0,97036,,128,128,192 F,2,97036,97236,1,0 S,2,97036,97236,1,0.2 P,0,97036,97236,A
Sprite,Overlay,Centre,"sb\highlight.png",0,0 C,0,97130,,128,128,192 M,0,97130,97176,172,91,204.8292,101.6064 F,2,97130,97423,1,0 S,2,97130,97423,1,0.2 P,0,97130,97423,A M,0,97176,97223,204.8292,101.6064,237,112
Sprite,Overlay,Centre,"sb\highlight.png",0,0 C,0,97317,,128,128,192 M,0,97317,97363,222,202,191.1423,186.5711 F,2,97317,97610,1,0 S,2,97317,97610,1,0.2 P,0,97317,97610,A M,0,97363,97410,191.1423,186.5711,160.2845,171.1423
Sprite,Overlay,Centre,"sb\highlight.png",0,0 C,0,97505,,255,128,128 M,0,97505,97551,94,355,122.5895,374.3104 F,2,97505,97892,1,0 S,2,97505,97892,1,0.2 P,0,97505,97892,A M,0,97551,97598,122.5895,374.3104,151.1789,393.6208 M,0,97598,97645,151.1789,393.6208,179.7684,412.9313 M,0,97645,97692,179.7684,412.9313,208,432
Sprite,Overlay,Centre,"sb\highlight.png",306.352,339.352 C,0,97786,,255,128,128 F,2,97786,97986,1,0 S,2,97786,97986,1,0.2 P,0,97786,97986,A
Sprite,Overlay,Centre,"sb\highlight.png",0,0 C,0,97880,,255,128,128 M,0,97880,97926,310,343,284.4054,319.8664 F,2,97880,98173,1,0 S,2,97880,98173,1,0.2 P,0,97880,98173,A M,0,97926,97973,284.4054,319.8664,258.8107,296.7328
Sprite,Overlay,Centre,"sb\highlight.png",0,0 C,0,98067,,255,128,128 M,0,98067,98113,316,222,338.037,248.5446 F,2,98067,98360,1,0 S,2,98067,98360,1,0.2 P,0,98067,98360,A M,0,98113,98160,338.037,248.5446,360,275
Sprite,Overlay,Centre,"sb\highlight.png",0,0 C,0,98255,,128,128,192 M,0,98255,98301,454,267,435.7736,237.7076 F,2,98255,98642,1,0 S,2,98255,98642,1,0.2 P,0,98255,98642,A M,0,98301,98348,435.7736,237.7076,417.5472,208.4151 M,0,98348,98395,417.5472,208.4151,399.3207,179.1227 M,0,98395,98442,399.3207,179.1227,381.0943,149.8302
Sprite,Overlay,Centre,"sb\highlight.png",0,0 C,0,98630,,128,128,192 M,0,98630,98676,535,73,548.5902,104.7105 F,2,98630,98923,1,0 S,2,98630,98923,1,0.2 P,0,98630,98923,A M,0,98676,98723,548.5902,104.7105,562,136
Sprite,Overlay,Centre,"sb\highlight.png",0,0 C,0,98817,,128,128,192 M,0,98817,98863,495,189,485.5876,155.8088 F,2,98817,99110,1,0 S,2,98817,99110,1,0.2 P,0,98817,99110,A M,0,98863,98910,485.5876,155.8088,476.1751,122.6176
Sprite,Overlay,Centre,"sb\highlight.png",539.352,397.352 C,0,99005,,255,128,128 F,2,99005,99205,1,0 S,2,99005,99205,1,0.2 P,0,99005,99205,A
Sprite,Overlay,Centre,"sb\highlight.png",0,0 C,0,99192,,255,128,128 M,0,99192,99238,454,267,458.5267,301.2017 F,2,99192,99485,1,0 S,2,99192,99485,1,0.2 P,0,99192,99485,A M,0,99238,99285,458.5267,301.2017,463,335
Sprite,Overlay,Centre,"sb\highlight.png",0,0 C,0,99380,,255,128,128 M,0,99380,99426,543,401,543,366.5 F,2,99380,99767,1,0 S,2,99380,99767,1,0.2 P,0,99380,99767,A M,0,99426,99473,543,366.5,543,332 M,0,99473,99520,543,332,543,297.5 M,0,99520,99567,543,297.5,543,263
Sprite,Overlay,Centre,"sb\highlight.png",357.352,383.352 C,0,99755,,128,128,192 F,2,99755,99955,1,0 S,2,99755,99955,1,0.2 P,0,99755,99955,A
Sprite,Overlay,Centre,"sb\highlight.png",0,0 C,0,99942,,128,128,192 M,0,99942,99988,361,387,365.4622,352.7898 F,2,99942,100235,1,0 S,2,99942,100235,1,0.2 P,0,99942,100235,A M,0,99988,100035,365.4622,352.7898,369.9244,318.5796
Sprite,Overlay,Centre,"sb\highlight.png",0,0 C,0,100130,,128,128,192 M,0,100130,100176,309,217,298.9948,250.0173 F,2,100130,100423,1,0 S,2,100130,100423,1,0.2 P,0,100130,100423,A M,0,100176,100223,298.9948,250.0173,289,283
Sprite,Overlay,Centre,"sb\highlight.png",0,0 C,0,100317,,128,128,192 M,0,100317,100363,165,356,179.0118,324.4735 F,2,100317,100610,1,0 S,2,100317,100610,1,0.2 P,0,100317,100610,A M,0,100363,100410,179.0118,324.4735,193,293
Sprite,Overlay,Centre,"sb\highlight.png",0,0 C,0,100505,,255,128,128 M,0,100505,100551,364,166,345.4162,195.067 F,2,100505,100892,1,0 S,2,100505,100892,1,0.2 P,0,100505,100892,A M,0,100551,100598,345.4162,195.067,326.8323,224.134 M,0,100598,100645,326.8323,224.134,308.2485,253.201 M,0,100645,100692,308.2485,253.201,289.6647,282.2681
Sprite,Overlay,Centre,"sb\highlight.png",0,0 C,0,100880,,255,128,128 M,0,100880,100926,279,105,256.424,131.0878 F,2,100880,101173,1,0 S,2,100880,101173,1,0.2 P,0,100880,101173,A M,0,100926,100973,256.424,131.0878,234,157
Sprite,Overlay,Centre,"sb\highlight.png",0,0 C,0,101067,,255,128,128 M,0,101067,101113,141,117,166.6187,93.89297 F,2,101067,101360,1,0 S,2,101067,101360,1,0.2 P,0,101067,101360,A M,0,101113,101160,166.6187,93.89297,192,71
Sprite,Overlay,Centre,"sb\highlight.png",0,0 C,0,101255,,255,128,128 M,0,101255,101301,309,217,280.0281,235.7318 F,2,101255,102017,1,0 S,2,101255,102017,1,0.2 P,0,101255,102017,A M,0,101301,101348,280.0281,235.7318,251.0563,254.4636 M,0,101348,101395,251.0563,254.4636,222.0844,273.1954 M,0,101395,101442,222.0844,273.1954,193.1125,291.9272 M,0,101442,101489,193.1125,291.9272,222.0844,273.1954 M,0,101489,101536,222.0844,273.1954,251.0563,254.4636 M,0,101536,101583,251.0563,254.4636,280.0281,235.7318 M,0,101583,101630,280.0281,235.7318,309,217 M,0,101630,101676,309,217,280.0281,235.7318 M,0,101676,101723,280.0281,235.7318,251.0562,254.4636 M,0,101723,101770,251.0562,254.4636,222.0844,273.1954 M,0,101770,101817,222.0844,273.1954,193.1125,291.9272
Sprite,Overlay,Centre,"sb\highlight.png",0,0 C,0,102005,,128,128,192 M,0,102005,102051,351.704,80.704,390.8082,58.0363 F,2,102005,102392,1,0 S,2,102005,102392,1,0.2 P,0,102005,102392,A M,0,102051,102098,390.8082,58.0363,435.8429,60.81936 M,0,102098,102145,435.8429,60.81936,471.6231,88.46245 M,0,102145,102192,471.6231,88.46245,485.1841,131.5508
Sprite,Overlay,Centre,"sb\highlight.png",489.352,134.352 C,0,102286,,128,128,192 F,2,102286,102486,1,0 S,2,102286,102486,1,0.2 P,0,102286,102486,A
Sprite,Overlay,Centre,"sb\highlight.png",0,0 C,0,102380,,128,128,192 M,0,102380,102426,493,138,476.3729,180.7739 F,2,102380,102673,1,0 S,2,102380,102673,1,0.2 P,0,102380,102673,A M,0,102426,102473,476.3729,180.7739,469.2461,226.1012
Sprite,Overlay,Centre,"sb\highlight.png",0,0 C,0,102567,,128,128,192 M,0,102567,102613,357,296,372.4583,252.7635 F,2,102567,102860,1,0 S,2,102567,102860,1,0.2 P,0,102567,102860,A M,0,102613,102660,372.4583,252.7635,379.5461,207.4018
Sprite,Overlay,Centre,"sb\highlight.png",0,0 C,0,102755,,128,128,192 M,0,102755,102801,515,318,474.0415,297.2839 F,2,102755,103236,1,0 S,2,102755,103236,1,0.2 P,0,102755,103236,A M,0,102801,102848,474.0415,297.2839,444.0609,263.0591 M,0,102848,102895,444.0609,263.0591,422.4494,222.5146 M,0,102895,102942,422.4494,222.5146,388.9207,191.5467 M,0,102942,102989,388.9207,191.5467,345.7207,176.6202 M,0,102989,103036,345.7207,176.6202,300.106,179.296
Sprite,Overlay,Centre,"sb\highlight.png",0,0 C,0,103130,,255,128,128 M,0,103130,103176,237,258,194.0469,265.6834 F,2,103130,103423,1,0 S,2,103130,103423,1,0.2 P,0,103130,103423,A M,0,103176,103223,194.0469,265.6834,165.0539,233.3895
Sprite,Overlay,Centre,"sb\highlight.png",0,0 C,0,103317,,255,128,128 M,0,103317,103363,90,211,132.1569,192.5935 F,2,103317,103704,1,0 S,2,103317,103704,1,0.2 P,0,103317,103704,A M,0,103363,103410,132.1569,192.5935,167.8875,167.209 M,0,103410,103457,167.8875,167.209,210.7022,150.5459 M,0,103457,103504,210.7022,150.5459,253.626,134.0065
Sprite,Overlay,Centre,"sb\highlight.png",0,0 C,0,103692,,255,128,128 M,0,103692,103738,224.352,348.352,179.5362,338.4326 F,2,103692,103985,1,0 S,2,103692,103985,1,0.2 P,0,103692,103985,A M,0,103738,103785,179.5362,338.4326,133.6417,337.8911
Sprite,Overlay,Centre,"sb\highlight.png",0,0 C,0,103880,,255,128,128 M,0,103880,103926,336,403,380.8158,412.9194 F,2,103880,104173,1,0 S,2,103880,104173,1,0.2 P,0,103880,104173,A M,0,103926,103973,380.8158,412.9194,426.7103,413.4609
Sprite,Overlay,Centre,"sb\highlight.png",228,352 C,0,104067,,255,128,128 F,2,104067,104267,1,0 S,2,104067,104267,1,0.2 P,0,104067,104267,A
Sprite,Overlay,Centre,"sb\highlight.png",0,0 C,0,104255,,128,128,192 M,0,104255,104301,372,333,330.4019,346.4599 F,2,104255,104642,1,0 S,2,104255,104642,1,0.2 P,0,104255,104642,A M,0,104301,104348,330.4019,346.4599,303.0036,382.632 M,0,104348,104395,303.0036,382.632,276.4652,418.8217 M,0,104395,104442,276.4652,418.8217,233.5355,434.1387
Sprite,Overlay,Centre,"sb\highlight.png",137.352,426.352 C,0,104536,,128,128,192 F,2,104536,104736,1,0 S,2,104536,104736,1,0.2 P,0,104536,104736,A
Sprite,Overlay,Centre,"sb\highlight.png",0,0 C,0,104630,,128,128,192 M,0,104630,104676,141,430,150.1038,384.914 F,2,104630,105017,1,0 S,2,104630,105017,1,0.2 P,0,104630,105017,A M,0,104676,104723,150.1038,384.914,157.3275,339.4892 M,0,104723,104770,157.3275,339.4892,162.6291,293.7998 M,0,104770,104817,162.6291,293.7998,165.9634,247.9251
Sprite,Overlay,Centre,"sb\highlight.png",0,0 C,0,105005,,255,128,128 M,0,105005,105051,386,77,397.8918,108.406 F,2,105005,105298,1,0 S,2,105005,105298,1,0.2 P,0,105005,105298,A M,0,105051,105098,397.8918,108.406,384.7162,139.1762
Sprite,Overlay,Centre,"sb\highlight.png",0,0 C,0,105192,,255,128,128 M,0,105192,105238,213,85,246.9996,80.66145 F,2,105192,105485,1,0 S,2,105192,105485,1,0.2 P,0,105192,105485,A M,0,105238,105285,246.9996,80.66145,277.1899,64.52215
Sprite,Overlay,Centre,"sb\highlight.png",0,0 C,0,105380,,255,128,128 M,0,105380,105426,415,247,420.3319,214.1138 F,2,105380,105673,1,0 S,2,105380,105673,1,0.2 P,0,105380,105673,A M,0,105426,105473,420.3319,214.1138,446.2917,193.2561
Sprite,Overlay,Centre,"sb\highlight.png",0,0 C,0,105567,,255,128,128 M,0,105567,105613,254,234,247.5141,200.1319 F,2,105567,105860,1,0 S,2,105567,105860,1,0.2 P,0,105567,105860,A M,0,105613,105660,247.5141,200.1319,237.7119,167.074
Sprite,Overlay,Centre,"sb\highlight.png",0,0 C,0,105755,,128,128,192 M,0,105755,105801,530,180,519.4102,212.8186 F,2,105755,106048,1,0 S,2,105755,106048,1,0.2 P,0,105755,106048,A M,0,105801,105848,519.4102,212.8186,511.9633,246.4869
Sprite,Overlay,Centre,"sb\highlight.png",0,0 C,0,105942,,128,128,192 M,0,105942,105988,324,355,333.9371,321.9702 F,2,105942,106235,1,0 S,2,105942,106235,1,0.2 P,0,105942,106235,A M,0,105988,106035,333.9371,321.9702,341.9132,288.4129
Sprite,Overlay,Centre,"sb\highlight.png",0,0 C,0,106130,,128,128,192 M,0,106130,106176,516,435,505.4102,402.1814 F,2,106130,106423,1,0 S,2,106130,106423,1,0.2 P,0,106130,106423,A M,0,106176,106223,505.4102,402.1814,497.9633,368.5131
Sprite,Overlay,Centre,"sb\highlight.png",0,0 C,0,106317,,128,128,192 M,0,106317,106363,396,180,406.2503,212.934 F,2,106317,106610,1,0 S,2,106317,106610,1,0.2 P,0,106317,106610,A M,0,106363,106410,406.2503,212.934,414,246
Sprite,Overlay,Centre,"sb\highlight.png",0,0 C,0,106505,,255,128,128 M,0,106505,106551,576,366,578.6461,331.6016 F,2,106505,107454,1,0 S,2,106505,107454,1,0.2 P,0,106505,107454,A M,0,106551,106598,578.6461,331.6016,581.2921,297.2032 M,0,106598,106645,581.2921,297.2032,583.9381,262.8049 M,0,106645,106692,583.9381,262.8049,565.8602,233.6072 M,0,106692,106739,565.8602,233.6072,539.9871,238.8317 M,0,106739,106786,539.9871,238.8317,508.3482,252.5877 M,0,106786,106833,508.3482,252.5877,476.7093,266.3438 M,0,106833,106880,476.7093,266.3438,445.0703,280.0999 M,0,106880,106926,445.0703,280.0999,414.7338,269.8121 M,0,106926,106973,414.7338,269.8121,380.7795,263.7003 M,0,106973,107020,380.7795,263.7003,346.8251,257.5885 M,0,107020,107067,346.8251,257.5885,315.0881,266.7169 M,0,107067,107114,315.0881,266.7169,282.7848,278.8307 M,0,107114,107161,282.7848,278.8307,250.4814,290.9445 M,0,107161,107208,250.4814,290.9445,225.9389,296.039 M,0,107208,107254,225.9389,296.039,192.2186,291.1445
Sprite,Overlay,Centre,"sb\highlight.png",257,76 C,0,107630,,128,128,192 F,2,107630,107830,1,0 S,2,107630,107830,1,0.2 P,0,107630,107830,A
Sprite,Overlay,Centre,"sb\highlight.png",250,109 C,0,107723,,128,128,192 F,2,107723,107923,1,0 S,2,107723,107923,1,0.2 P,0,107723,107923,A
Sprite,Overlay,Centre,"sb\highlight.png",243,143 C,0,107817,,128,128,192 F,2,107817,108017,1,0 S,2,107817,108017,1,0.2 P,0,107817,108017,A
Sprite,Overlay,Centre,"sb\highlight.png",237,177 C,0,107911,,128,128,192 F,2,107911,108111,1,0 S,2,107911,108111,1,0.2 P,0,107911,108111,A
//Storyboard Sound Samples

[TimingPoints]
12005,375,4,2,1,75,1,0
12005,-133.333333333333,4,2,1,75,0,0
13786,-133.333333333333,4,2,1,5,0,0
13880,-133.333333333333,4,2,1,75,0,0
14630,-100,4,2,1,75,0,0
15005,-133.333333333333,4,2,1,75,0,0
15286,-133.333333333333,4,2,1,5,0,0
15380,-133.333333333333,4,2,1,75,0,0
16880,-111.111111111111,4,2,1,75,0,0
17255,-90.9090909090909,4,2,1,75,0,0
17630,-76.9230769230769,4,2,1,75,0,0
18380,-111.111111111111,4,2,1,75,0,0
19786,-133.333333333333,4,2,1,5,0,0
19880,-111.111111111111,4,2,1,75,0,0
20630,-100,4,2,1,75,0,0
21005,-111.111111111111,4,2,1,75,0,0
21286,-133.333333333333,4,2,1,5,0,0
21380,-90.9090909090908,4,2,1,75,0,0
21661,-133.333333333333,4,2,1,5,0,0
21755,-83.3333333333333,4,2,1,75,0,0
22036,-133.333333333333,4,2,1,5,0,0
22130,-133.333333333333,4,2,1,75,0,0
22317,-83.3333333333333,4,2,1,75,0,0
22505,-285.714285714284,4,2,1,75,0,0
24005,-62.5,4,2,2,90,0,0
24567,-153.846153846153,4,2,2,90,0,0
24755,-83.3333333333333,4,2,2,90,0,0
25505,-55.5555555555556,4,2,2,90,0,0
25786,-55.5555555555556,4,2,2,5,0,0
25880,-100,4,2,2,90,0,0
26442,-66.6666666666667,4,2,2,90,0,0
26723,-55.5555555555556,4,2,2,90,0,0
26817,-133.333333333333,4,2,2,90,0,0
27005,-76.9230769230769,4,2,2,90,0,0
27286,-55.5555555555556,4,2,2,5,0,0
27380,-76.9230769230769,4,2,2,90,0,0
28317,-50,4,2,2,90,0,0
28505,-66.6666666666667,4,2,2,90,0,0
28786,-55.5555555555556,4,2,2,5,0,0
28880,-66.6666666666667,4,2,2,90,0,0
29161,-55.5555555555556,4,2,2,5,0,0
29255,-100,4,2,2,90,0,0
29630,-66.6666666666667,4,2,2,90,0,0
29911,-55.5555555555556,4,2,2,5,0,0
30005,-66.6666666666667,4,2,2,90,0,0
30286,-55.5555555555556,4,2,2,5,0,0
30380,-66.6666666666667,4,2,2,90,0,0
31317,-83.3333333333333,4,2,2,90,0,0
31786,-55.5555555555556,4,2,2,5,0,0
31880,-76.9230769230769,4,2,2,90,0,0
32161,-55.5555555555556,4,2,2,5,0,0
32255,-76.9230769230769,4,2,2,90,0,0
34036,-55.5555555555556,4,2,2,5,0,0
34130,-76.9230769230769,4,2,2,90,0,0
34786,-55.5555555555556,4,2,2,5,0,0
34880,-66.6666666666667,4,2,2,90,0,0
36005,-62.5,4,2,2,95,0,0
36286,-55.5555555555556,4,2,2,5,0,0
36380,-66.6666666666667,4,2,2,95,0,0
37036,-55.5555555555556,4,2,2,5,0,0
37130,-66.6666666666667,4,2,2,95,0,0
37505,-51.2820512820513,4,2,2,95,0,0
38067,-133.333333333333,4,2,2,95,0,0
38255,-58.8235294117647,4,2,2,95,0,0
39380,-100,4,2,2,95,0,0
39567,-55.5555555555556,4,2,2,95,0,0
39848,-55.5555555555556,4,2,2,5,0,0
39942,-55.5555555555556,4,2,2,95,0,0
40692,-133.333333333333,4,2,2,95,0,0
40880,-55.5555555555556,4,2,2,95,0,0
41067,-100,4,2,2,95,0,0
41255,-66.6666666666667,4,2,2,95,0,0
42005,-52.6315789473684,4,2,2,95,0,0
42286,-55.5555555555556,4,2,2,5,0,0
42380,-71.4285714285714,4,2,2,95,0,0
42755,-58.8235294117647,4,2,2,95,0,0
43130,-100,4,2,2,95,0,0
43880,-58.8235294117647,4,2,2,95,0,0
44255,-100,4,2,2,95,0,0
44630,-58.8235294117647,4,2,2,95,0,0
46505,-52.6315789473684,4,2,2,95,0,0
46786,-55.5555555555556,4,2,2,5,0,0
46880,-62.5,4,2,2,95,0,0
48005,-62.5,4,2,2,80,0,0
59255,-133.333333333333,4,2,2,80,0,0
60005,-66.6666666666667,4,2,2,85,0,0
60567,-76.9230769230769,4,2,2,85,0,0
61786,-55.5555555555556,4,2,2,5,0,0
61880,-76.9230769230769,4,2,2,85,0,0
62067,-133.333333333333,4,2,2,85,0,0
62255,-83.3333333333333,4,2,2,85,0,0
63286,-55.5555555555556,4,2,2,5,0,0
63380,-83.3333333333333,4,2,2,85,0,0
64880,-133.333333333333,4,2,2,85,0,0
65255,-66.6666666666667,4,2,2,85,0,0
66380,-100,4,2,2,85,0,0
66755,-83.3333333333333,4,2,2,85,0,0
67036,-55.5555555555556,4,2,2,5,0,0
67130,-83.3333333333333,4,2,2,85,0,0
67317,-133.333333333333,4,2,2,85,0,0
67505,-58.8235294117647,4,2,2,85,0,0
67786,-55.5555555555556,4,2,2,5,0,0
67880,-58.8235294117647,4,2,2,85,0,0
69005,-76.9230769230769,4,2,2,85,0,0
69755,-52.6315789473684,4,2,2,85,0,0
70505,-133.333333333333,4,2,2,85,0,0
70786,-55.5555555555556,4,2,2,5,0,0
72005,-66.6666666666667,4,2,2,90,0,0
73130,-222.222222222221,4,2,2,90,0,0
73505,-68.9655172413793,4,2,2,90,0,0
75005,-80,4,2,2,90,0,0
76505,-71.4285714285714,4,2,2,90,0,0
77817,-133.333333333333,4,2,2,90,0,0
78005,-58.8235294117647,4,2,2,90,0,0
79505,-66.6666666666667,4,2,2,90,0,0
84005,-55.5555555555556,4,2,2,95,0,0
84286,-55.5555555555556,4,2,2,5,0,0
84380,-55.5555555555556,4,2,2,95,0,0
85317,-133.333333333333,4,2,2,95,0,0
85505,-66.6666666666667,4,2,2,95,0,0
87005,-100,4,2,2,95,0,0
87755,-62.5,4,2,2,95,0,0
88317,-100,4,2,2,95,0,0
88505,-66.6666666666667,4,2,2,95,0,0
88786,-55.5555555555556,4,2,2,5,0,0
88880,-133.333333333333,4,2,2,95,0,0
89067,-66.6666666666667,4,2,2,95,0,0
89348,-55.5555555555556,4,2,2,5,0,0
89442,-66.6666666666667,4,2,2,95,0,0
90286,-55.5555555555556,4,2,2,5,0,0
90380,-100,4,2,2,95,0,0
90755,-66.6666666666667,4,2,2,95,0,0
91036,-55.5555555555556,4,2,2,5,0,0
91130,-133.333333333333,4,2,2,95,0,0
91505,-58.8235294117647,4,2,2,95,0,0
91786,-55.5555555555556,4,2,2,5,0,0
91880,-133.333333333333,4,2,2,95,0,0
92067,-66.6666666666667,4,2,2,95,0,0
92630,-90.9090909090909,4,2,2,95,0,0
94505,-58.8235294117647,4,2,2,95,0,0
94786,-55.5555555555556,4,2,2,5,0,0
94880,-100,4,2,2,95,0,0
95255,-66.6666666666667,4,2,2,95,0,0
95536,-55.5555555555556,4,2,2,5,0,0
95630,-66.6666666666667,4,2,2,95,0,0
96005,-83.3333333333333,4,2,2,90,0,0
96286,-55.5555555555556,4,2,2,5,0,0
96380,-83.3333333333333,4,2,2,90,0,0
102005,-62.5,4,2,2,90,0,0
103036,-55.5555555555556,4,2,2,5,0,0
103130,-62.5,4,2,2,90,0,0
105005,-83.3333333333333,4,2,2,90,0,0

[Colours]
Combo1 : 255,128,128
Combo2 : 128,128,192

[HitObjects]
71,358,12005,6,0,P|48:306|10:305,1,86.2500032901765,6|0,3:2|0:0,0:0:0:0:
163,190,12380,1,10,0:0:0:0:
163,190,12567,1,2,0:0:0:0:
163,190,12755,2,0,P|124:203|55:217,1,86.2500032901765,2|0,0:0|3:2,0:0:0:0:
59,42,13130,5,10,0:0:0:0:
59,42,13223,1,2,0:0:0:0:
59,42,13317,2,0,P|46:74|62:108,1,43.1250016450883,2|0,0:0|0:0,0:0:0:0:
128,80,13505,6,0,B|191:94|172:62|231:45|291:75,1,129.375004935265,2|0,3:2|0:0,0:0:0:0:
312,111,13880,2,0,P|362:90|371:45,1,86.2500032901765,10|0,0:0|0:0,0:0:0:0:
477,23,14255,1,2,0:0:0:0:
477,23,14348,1,2,0:0:0:0:
477,23,14442,2,0,B|470:40|470:40|479:86,1,43.1250016450883,2|0,3:2|0:0,0:0:0:0:
407,257,14630,6,0,B|374:228|374:228|399:181,1,86.25,10|0,0:0|0:0,0:0:0:0:
462,151,14817,2,0,L|506:130,2,38.3333333333333,2|0|0,0:0|0:0|0:0,0:0:0:0:
411,265,15005,6,0,B|334:281|378:323|282:332,1,129.375004935265,2|0,3:2|0:0,0:0:0:0:
242,278,15380,2,0,P|222:267|169:315,1,86.2500032901765,10|0,0:0|0:0,0:0:0:0:
218,148,15755,2,0,P|266:159|329:162,1,86.2500032901765,2|0,0:0|3:2,0:0:0:0:
165,384,16130,5,10,0:0:0:0:
165,384,16223,1,2,0:0:0:0:
165,384,16317,2,0,B|151:281|100:346|88:195,1,172.500006580353,2|2,0:0|0:0,0:0:0:0:
156,48,16880,2,0,P|93:66|30:71,1,103.499996841431,10|2,0:0|0:0,0:0:0:0:
62,77,17161,1,2,0:0:0:0:
62,77,17255,2,0,P|26:109|47:158,1,63.2500019302369,2|0,0:0|0:0,0:0:0:0:
108,150,17442,1,0,3:0:0:0:
16,302,17630,1,10,0:0:0:0:
251,177,17817,5,2,0:0:0:0:
220,198,17911,1,2,0:0:0:0:
221,236,18005,2,0,B|310:256|256:319|362:339,1,149.499993156433,2|0,3:2|0:0,0:0:0:0:
460,230,18380,1,10,0:0:0:0:
460,230,18567,1,0,0:0:0:0:
460,230,18755,2,0,P|408:248|360:257,1,103.499996841431,2|0,0:0|3:0,0:0:0:0:
460,368,19130,5,10,0:0:0:0:
460,368,19223,1,2,0:0:0:0:
460,368,19317,2,0,P|464:325|493:307,1,51.7499984207154,2|0,0:0|0:0,0:0:0:0:
471,222,19505,6,0,P|488:166|400:128,1,155.249995262146,0|0,3:2|0:0,0:0:0:0:
416,121,19880,1,10,0:0:0:0:
512,12,20067,2,0,P|502:67|499:131,1,103.499996841431,0|2,0:0|0:0,0:0:0:0:
498,114,20348,1,2,0:0:0:0:
498,114,20442,1,2,3:2:0:0:
300,153,20630,6,0,B|328:122|328:122|311:73,1,86.25,10|0,0:0|0:0,0:0:0:0:
243,50,20817,2,0,L|197:36,2,38.3333333333333,2|0|0,0:0|0:0|0:0,0:0:0:0:
288,154,21005,6,0,B|238:143|206:194|241:182|201:226|144:212,1,155.249995262146,2|0,3:2|0:0,0:0:0:0:
111,296,21380,2,0,B|100:247|47:234|47:234|97:198|88:133,1,189.750005790711,10|0,0:0|0:0,0:0:0:0:
19,115,21755,2,0,B|-4:56|-4:56|10:33|10:33|157:61,1,206.999993682861,2|0,0:0|0:0,0:0:0:0:
208,0,22130,5,10,0:0:0:0:
208,0,22223,1,2,0:0:0:0:
208,0,22317,2,0,P|233:17|233:73,1,68.9999978942872,2|0,0:0|0:0,0:0:0:0:
272,246,22505,6,0,B|284:95|347:176|358:19,1,241.499992630005,0|2,0:0|0:0,0:0:0:0:
364,301,24005,6,0,B|375:347|468:364|516:238|387:188|346:278|346:278|316:331|254:322,1,368,6|2,3:2|0:0,0:0:0:0:
189,353,24473,1,2,0:0:0:0:
189,353,24567,2,0,L|192:300,1,37.3749982891084,2|0,0:0|0:0,0:0:0:0:
186,149,24755,6,0,B|124:171|74:88|74:88|117:175|34:233,1,275.999991577149,10|2,0:0|0:0,0:0:0:0:
298,14,25317,2,0,B|291:24|291:24|311:102,1,68.9999978942872,2|0,3:2|0:0,0:0:0:0:
337,252,25505,6,0,B|274:264|274:264|266:253|266:253|316:151|316:151|329:150|342:143|342:143|431:201,1,310.499990524292,2|0,0:1|0:0,0:0:0:0:
491,219,25880,6,0,B|485:247|485:247|444:265,1,57.5,2|0,3:2|0:0,0:0:0:0:
495,224,26067,2,0,B|489:252|489:252|448:270,1,57.5,2|0,0:0|0:0,0:0:0:0:
368,348,26255,2,0,B|339:352|339:352|308:320,1,57.5,10|0,0:0|0:0,0:0:0:0:
198,140,26442,6,0,B|258:179|258:179|233:311,1,172.500006580353,0|2,3:0|0:0,0:0:0:0:
231,357,26817,6,0,P|227:371|225:355,1,43.1250016450883,2|0,3:2|0:0,0:0:0:0:
291,79,27005,6,0,B|242:120|242:120|73:85,1,224.24998973465,2|0,3:1|0:0,0:0:0:0:
1,42,27380,1,2,0:0:0:0:
1,42,27473,1,2,0:0:0:0:
1,42,27567,2,0,L|17:144,1,74.7499965782167,2|0,0:0|0:0,0:0:0:0:
30,241,27755,6,0,P|63:165|35:240,1,298.999986312867,10|2,0:0|0:0,0:0:0:0:
30,241,28317,6,0,P|45:274|28:241,1,115,2|0,3:2|0:0,0:0:0:0:
226,287,28505,6,0,B|221:192|161:255|137:177|131:134|196:85|241:142,1,258.75000987053,2|0,0:1|0:0,0:0:0:0:
226,287,28880,2,0,B|245:193|295:265|331:192|343:150|287:92|231:143,1,258.75000987053,2|0,3:2|0:0,0:0:0:0:
82,337,29255,2,0,B|78:347|78:347|60:350|60:350|74:336|74:336|82:337,1,57.5,10|0,0:0|0:0,0:0:0:0:
30,247,29442,1,0,3:2:0:0:
237,137,29630,6,0,B|121:107|206:46|113:-17|48:5|17:34,1,258.75000987053,2|0,0:0|0:0,0:0:0:0:
76,94,30005,6,0,B|247:42|247:42|304:25|286:65|387:20,1,258.75000987053,2|0,3:1|0:0,0:0:0:0:
401,3,30380,1,2,0:0:0:0:
401,3,30473,1,2,0:0:0:0:
401,3,30567,2,0,P|446:40|420:106,2,86.2500032901765,2|0|2,0:0|0:0|0:0,0:0:0:0:
402,384,31130,5,2,0:0:0:0:
402,384,31317,2,0,P|424:361|426:323,1,68.9999978942872,2|0,3:2|0:0,0:0:0:0:
507,304,31505,2,0,B|436:286|436:286|418:248|418:248|303:220,1,206.999993682861,2|0,0:1|0:0,0:0:0:0:
316,217,31880,2,0,B|422:242|422:242|440:280|440:280|511:298,1,224.24998973465,2|0,3:2|0:0,0:0:0:0:
487,144,32255,2,0,L|495:250,1,74.7499965782167,10|0,0:0|0:0,0:0:0:0:
345,38,32442,5,2,0:0:0:0:
372,73,32536,1,2,0:0:0:0:
415,43,32630,2,0,P|328:64|231:105,1,149.499993156433,2|2,0:0|0:0,0:0:0:0:
102,126,33005,6,0,P|55:135|26:95,1,74.7499965782167,2|0,3:1|0:0,0:0:0:0:
310,213,33192,2,0,P|277:203|185:186,1,74.7499965782167,2|0,0:0|0:0,0:0:0:0:
101,133,33380,2,0,P|54:142|25:102,1,74.7499965782167,2|0,0:0|0:0,0:0:0:0:
244,0,33567,2,0,P|211:9|119:27,1,74.7499965782167,2|0,0:0|0:0,0:0:0:0:
25,263,33755,2,0,B|65:218|164:273|93:304|177:337|233:307,1,224.24998973465,10|0,0:0|0:0,0:0:0:0:
318,221,34130,5,2,0:0:0:0:
318,221,34223,1,2,0:0:0:0:
318,221,34317,2,0,P|365:231|364:286,1,74.7499965782167,2|0,3:2|0:0,0:0:0:0:
191,242,34505,6,0,L|170:-1,1,224.24998973465,2|0,0:1|0:0,0:0:0:0:
249,10,34880,2,0,L|282:389,1,345.000013160706,2|2,3:2|0:0,0:0:0:0:
290,123,35630,5,2,0:0:0:0:
329,108,35723,1,2,0:0:0:0:
371,116,35817,1,2,0:0:0:0:
402,145,35911,1,2,0:0:0:0:
412,186,36005,6,0,B|401:246|401:246|426:260|426:260|495:220|495:220|475:103,1,275.999991577149,6|0,3:2|0:0,0:0:0:0:
506,46,36380,6,0,P|443:42|422:102,1,86.2500032901765,10|0,0:0|0:0,0:0:0:0:
338,183,36567,2,0,L|320:267,1,86.2500032901765,2|0,3:2|0:0,0:0:0:0:
178,90,36755,6,0,B|267:37|267:37|224:249,1,258.75000987053,2|0,0:0|0:0,0:0:0:0:
208,298,37130,2,0,P|162:268|114:298,1,86.2500032901765,10|0,0:2|0:0,0:0:0:0:
110,365,37317,1,2,3:2:0:0:
110,365,37411,1,2,0:0:0:0:
110,365,37505,2,0,B|136:239|67:293|58:195|93:144,2,224.250000855446,2|2|10,3:2|0:2|0:2,0:0:0:0:
158,206,38067,2,0,B|177:210|177:210|152:197,1,43.1250016450883,2|0,3:2|0:0,0:0:0:0:
55,62,38255,6,0,B|143:86|143:86|156:116|156:116|257:143,1,195.500003728867,2|2,0:2|3:2,0:0:0:0:
351,90,38536,1,0,3:2:0:0:
398,153,38630,2,0,P|360:168|301:148,1,97.7500018644333,10|0,0:2|0:0,0:0:0:0:
211,54,38817,2,0,L|345:19,1,97.7500018644333,2|0,3:2|0:0,0:0:0:0:
435,230,39005,6,0,B|459:110|459:110|465:83|476:69|475:93|499:64|510:43,1,195.500003728867,2|2,3:2|0:2,0:0:0:0:
441,13,39286,1,2,0:0:0:0:
441,13,39380,2,0,B|417:2|417:2|352:15,1,57.5,10|0,0:2|0:0,0:0:0:0:
359,313,39567,6,0,B|434:346|491:238|382:159|254:229|277:329,1,310.499990524292,2|0,3:2|0:0,0:0:0:0:
204,353,39942,1,2,3:2:0:0:
204,353,40036,1,2,0:0:0:0:
204,353,40130,2,0,B|180:233|180:233|174:206|163:192|153:206|140:187|129:166,1,206.999993682861,10|2,0:2|3:2,0:0:0:0:
332,7,40505,6,0,B|296:39|296:39|316:127,1,103.499996841431,2|0,3:2|0:0,0:0:0:0:
351,202,40692,2,0,L|363:135,1,43.1250016450883,2|0,0:2|0:0,0:0:0:0:
444,30,40880,2,0,B|462:74|462:74|405:144,1,103.499996841431,2|0,3:2|0:0,0:0:0:0:
341,258,41068,2,0,L|353:191,1,57.5,2|0,3:2|0:0,0:0:0:0:
257,0,41255,2,0,B|221:32|221:32|255:175,1,172.5,2|0,0:2|3:0,0:0:0:0:
116,46,41630,6,0,P|158:44|189:72,1,86.2500032901765,0|0,3:0|0:0,0:0:0:0:
239,238,41817,2,0,L|250:152,1,86.2500032901765,0|0,3:0|0:0,0:0:0:0:
63,349,42005,6,0,B|65:331|20:307|-5:377|40:392|133:426|169:276|75:251|75:251|39:248|17:219,1,327.749991248131,2|0,3:2|0:0,0:0:0:0:
19,121,42380,2,0,L|139:137,1,80.499997543335,10|0,0:0|0:0,0:0:0:0:
195,57,42567,2,0,L|91:42,1,80.499997543335,2|0,3:2|0:0,0:0:0:0:
5,24,42755,2,0,L|228:51,1,195.500003728867,2|0,0:0|3:0,0:0:0:0:
385,18,43130,6,0,B|406:42|406:42|398:80,1,57.5,10|0,0:2|0:0,0:0:0:0:
470,105,43317,2,0,B|457:134|457:134|419:142,1,57.5,2|0,3:2|0:0,0:0:0:0:
388,16,43505,2,0,B|409:40|409:40|401:78,1,57.5,2|0,3:2|0:0,0:0:0:0:
426,219,43692,2,0,B|394:219|394:219|370:189,1,57.5,2|0,0:2|0:0,0:0:0:0:
319,71,43880,2,0,B|280:127|305:195|342:132|338:240|279:316,1,195.500003728867,10|2,0:2|3:2,0:0:0:0:
246,205,44255,2,0,B|215:191|215:191|260:201,1,57.5,2|0,0:2|0:0,0:0:0:0:
92,360,44442,5,2,3:2:0:0:
62,320,44536,1,2,3:2:0:0:
92,281,44630,2,0,B|187:308|187:308|230:318|210:355|276:366,1,195.500003728867,10|2,0:2|3:2,0:0:0:0:
98,73,45005,6,0,P|40:110|74:159,1,97.7500018644333,2|0,3:2|0:0,0:0:0:0:
187,219,45192,2,0,P|174:161|168:42,1,97.7500018644333,2|0,0:2|0:0,0:0:0:0:
263,15,45380,2,0,P|321:52|287:101,1,97.7500018644333,10|0,0:2|0:0,0:0:0:0:
396,103,45567,2,0,P|384:150|378:198,1,97.7500018644333,2|0,3:2|0:0,0:0:0:0:
483,323,45755,2,0,B|494:349|548:354|528:304|487:285|418:287|406:367,1,195.500003728867,2|2,0:2|3:2,0:0:0:0:
406,361,46036,1,2,0:0:0:0:
406,361,46130,2,0,P|415:320|429:241,1,97.7500018644333,10|0,0:2|0:0,0:0:0:0:
388,98,46317,1,2,3:2:0:0:
213,348,46505,6,0,B|109:334|64:245|151:123|256:222|225:279|186:299,1,327.749991248131,2|0,3:2|0:0,0:0:0:0:
42,322,46880,6,0,P|90:267|111:204,1,92,2|0,3:2|0:0,0:0:0:0:
227,218,47067,2,0,P|250:175|285:141,1,92,2|0,3:2|0:0,0:0:0:0:
379,91,47255,1,2,3:2:0:0:
451,131,47630,5,2,3:2:0:0:
442,209,47817,1,2,0:0:0:0:
424,232,47911,1,2,0:0:0:0:
434,259,48005,1,6,0:2:0:0:
188,292,59255,6,0,B|179:283|179:283|185:241,1,43.1250016450883,2|0,0:0|0:0,0:0:0:0:
320,120,59442,6,0,L|248:138,1,43.1250016450883,2|0,0:0|0:0,0:0:0:0:
361,218,59630,6,0,L|289:200,1,43.1250016450883,2|0,0:0|0:0,0:0:0:0:
141,138,59817,6,0,P|176:119|180:94,1,43.1250016450883,2|0,0:0|0:0,0:0:0:0:
11,104,60005,6,0,B|31:95|77:54|47:-1|-49:22|-12:139|22:118|22:118|89:82|146:186|49:233,1,345.000013160706,6|2,3:2|0:0,0:0:0:0:
88,202,60473,1,2,0:0:0:0:
88,202,60567,2,0,P|44:195|15:190,1,74.7499965782167,2|0,0:0|0:0,0:0:0:0:
140,280,60755,2,0,P|103:286|66:292,1,74.7499965782167,10|0,0:0|0:0,0:0:0:0:
230,172,60942,1,2,0:0:0:0:
230,172,61130,1,2,0:0:0:0:
304,279,61317,1,2,3:2:0:0:
445,241,61505,6,0,B|391:281|391:281|390:317|390:317|278:392,1,224.24998973465,2|0,0:0|0:0,0:0:0:0:
237,316,61880,1,2,3:2:0:0:
237,316,61973,1,2,0:0:0:0:
237,316,62067,2,0,P|225:291|229:252,1,43.1250016450883,2|0,0:0|0:0,0:0:0:0:
222,164,62255,6,0,P|299:153|304:72,2,137.999995788574,10|2|2,0:2|0:2|3:2,0:0:0:0:
157,98,62755,5,2,0:2:0:0:
101,155,62880,5,2,0:2:0:0:
37,34,63005,6,0,B|-17:80|-17:80|22:248,1,206.999993682861,2|0,3:2|0:0,0:0:0:0:
30,283,63380,2,0,B|38:275|38:275|20:204,1,68.9999978942872,2|0,0:2|0:0,0:0:0:0:
155,279,63567,1,2,0:2:0:0:
155,279,63661,1,2,0:0:0:0:
155,279,63755,2,0,B|77:300|124:345|33:366,1,137.999995788574,10|2,0:2|0:2,0:0:0:0:
273,201,64130,6,0,L|353:211,1,68.9999978942872,2|0,0:2|0:0,0:0:0:0:
308,283,64317,2,0,L|388:293,1,68.9999978942872,2|0,3:2|0:0,0:0:0:0:
462,199,64505,2,0,B|424:180|424:180|422:150|422:150|352:119,1,137.999995788574,2|2,0:2|0:2,0:0:0:0:
441,352,64880,6,0,P|452:329|473:321,1,43.1250016450883,0|0,3:2|0:0,0:0:0:0:
402,261,65067,2,0,P|391:284|370:292,1,43.1250016450883
226,330,65255,2,0,B|236:214|177:287|173:161|231:121,1,172.500006580353,10|2,0:0|0:0,0:0:0:0:
343,106,65630,5,2,3:2:0:0:
326,111,65723,1,2,0:0:0:0:
309,116,65817,1,2,0:0:0:0:
292,122,65911,1,2,0:0:0:0:
277,127,66005,6,0,P|202:131|179:26,1,172.500006580353,2|2,3:2|0:0,0:0:0:0:
33,159,66380,2,0,B|47:150|47:150|123:170,1,57.5,2|0,0:0|0:0,0:0:0:0:
135,240,66567,2,0,B|121:249|121:249|45:229,1,57.5,2|0,0:0|0:0,0:0:0:0:
168,52,66755,2,0,B|193:86|193:86|127:263,1,206.999993682861,10|0,0:0|0:0,0:0:0:0:
252,278,67130,1,2,0:0:0:0:
252,278,67223,1,2,0:0:0:0:
252,278,67317,2,0,P|223:295|225:319,1,43.1250016450883,2|0,3:2|0:0,0:0:0:0:
78,350,67505,6,0,B|48:356|5:310|56:223|132:276|150:332|150:332|173:383|251:382,1,293.2500055933,2|0,0:0|0:0,0:0:0:0:
308,384,67880,1,2,3:2:0:0:
308,384,67973,1,2,0:0:0:0:
308,384,68067,2,0,B|305:361|305:361|312:354|315:346|315:346|349:322|379:350,1,97.7500018644333,2|0,0:0|0:0,0:0:0:0:
500,284,68255,6,0,P|391:262|392:153,2,195.500003728867,10|2|2,0:0|0:0|3:2,0:0:0:0:
458,208,68755,5,2,0:0:0:0:
512,144,68880,5,2,0:0:0:0:
406,74,69005,6,0,B|357:99|357:99|378:215,1,149.499993156433,2|2,3:2|0:0,0:0:0:0:
190,215,69380,2,0,P|232:212|251:187,1,74.7499965782167,2|0,0:0|0:0,0:0:0:0:
249,112,69567,1,2,0:0:0:0:
249,112,69661,1,2,0:0:0:0:
249,112,69755,2,0,B|199:112|178:165|178:165|158:223|94:219|70:187,1,218.499994165421,10|2,0:0|0:0,0:0:0:0:
291,323,70130,5,2,0:0:0:0:
263,319,70223,1,2,0:0:0:0:
236,315,70317,1,2,3:2:0:0:
209,311,70411,1,2,0:0:0:0:
187,309,70505,6,0,L|116:319,1,43.1250016450883,2|0,0:0|0:0,0:0:0:0:
233,221,70692,2,0,L|162:211,1,43.1250016450883,2|0,0:0|0:0,0:0:0:0:
298,237,72005,6,0,B|393:289|393:289|446:260|446:260|320:116|320:116|224:138|224:138|190:369,1,690.000026321412,6|2,3:2|0:0,0:0:0:0:
36,48,73130,6,0,P|44:62|68:72,1,25.8749992103577,2|0,0:0|0:0,0:0:0:0:
52,145,73317,2,0,P|68:145|88:129,1,25.8749992103577,2|0,0:0|0:0,0:0:0:0:
179,153,73505,2,0,B|324:131|321:16|201:-72|112:31|59:127|91:326|91:326|135:220|242:240|242:240|259:301|248:345|248:345|268:338|377:285|325:138|309:85|214:85,1,1167.25003562164,6|2,3:2|0:2,0:0:0:0:
28,61,75005,6,0,B|214:117|214:117|231:165|231:165|397:207|397:207|323:158|323:158|215:191,1,575,6|2,3:2|0:2,0:0:0:0:
470,356,76130,5,2,0:2:0:0:
470,356,76317,2,0,P|490:318|464:274,1,71.875,2|0,0:2|0:0,0:0:0:0:
318,260,76505,2,0,B|379:286|462:292|546:211|521:77|416:45|262:130|224:225|210:354|210:354|228:167|159:218|170:65|257:48,1,965.99997052002,6|2,3:2|0:2,0:0:0:0:
245,51,77817,2,0,P|230:61|197:45,1,43.1250016450883,2|0,0:2|0:0,0:0:0:0:
113,16,78005,6,0,B|77:18|59:3|59:3|65:46|48:70|48:70|108:92|115:118|124:181|50:226|7:185|7:185|-35:145|0:85|67:63|113:116|136:173|136:173|138:281|286:259|233:164|173:192|184:236,1,782.000014915467,6|2,3:2|0:0,0:0:0:0:
192,213,79130,5,2,0:2:0:0:
192,213,79317,2,0,P|167:202|123:254,1,97.7500018644333,2|0,0:2|0:0,0:0:0:0:
273,322,79505,2,0,B|301:248|301:248|295:226|295:226|311:160|311:160|322:144|322:144|454:107|454:107|457:119|457:119|423:230|423:230|403:235|403:235|254:118|254:118|271:85|271:85|451:33,1,862.500032901765,6|2,3:2|0:2,0:0:0:0:
432,29,80536,1,2,0:2:0:0:
432,29,80630,1,2,0:2:0:0:
512,0,80817,1,2,0:2:0:0:
510,212,81005,6,0,B|327:100|320:216|193:308|41:175|77:41,1,517.500019741059,6|2,3:2|0:2,0:0:0:0:
132,8,81755,2,0,B|191:-28|378:3|362:159|265:223|453:326,1,517.500019741059,6|2,3:2|0:2,0:0:0:0:
501,194,82505,2,0,B|286:214|41:339|41:339|160:287|240:396,1,690.000026321412,6|2,3:2|0:2,0:0:0:0:
292,26,83630,1,2,0:2:0:0:
292,26,83723,1,2,0:2:0:0:
292,26,83817,1,2,0:2:0:0:
292,26,83911,1,2,0:2:0:0:
292,26,84005,6,0,B|161:8|161:8|154:25|154:25|242:213,1,310.499990524292,6|0,3:2|0:0,0:0:0:0:
282,257,84380,1,10,0:0:0:0:
282,257,84473,1,2,0:0:0:0:
282,257,84567,2,0,P|268:310|192:313,1,103.499996841431,2|0,3:2|0:0,0:0:0:0:
53,384,84755,2,0,B|213:308|91:312|168:239|273:223,1,206.999993682861,2|0,0:0|3:0,0:0:0:0:
458,236,85130,6,0,B|469:245|471:267|471:267|436:234|377:257,1,103.499996841431,10|0,0:2|0:0,0:0:0:0:
413,113,85317,2,0,P|412:134|420:153,1,43.1250016450883,2|0,3:2|0:0,0:0:0:0:
421,325,85505,2,0,P|355:257|271:261,1,172.500006580353,2|2,3:2|0:2,0:0:0:0:
58,121,85880,6,0,B|28:93|28:93|72:123,1,86.2500032901765,10|0,0:2|0:0,0:0:0:0:
223,150,86067,2,0,B|253:178|253:178|209:148,1,86.2500032901765,2|0,3:2|0:0,0:0:0:0:
87,28,86255,2,0,L|114:232,1,172.500006580353,2|2,0:2|3:2,0:0:0:0:
119,338,86536,1,0,3:2:0:0:
48,305,86630,2,0,B|35:327|35:327|55:391,1,86.2500032901765,10|0,0:2|0:0,0:0:0:0:
167,248,86817,2,0,P|124:234|113:179,1,86.2500032901765,2|0,3:2|0:0,0:0:0:0:
291,359,87005,6,0,P|269:330|285:288,1,57.5,2|0,3:2|0:0,0:0:0:0:
361,188,87192,2,0,B|333:187|333:187|376:176,1,57.5,2|0,0:2|0:0,0:0:0:0:
463,330,87380,2,0,P|467:300|480:252,1,57.5,10|0,0:2|0:0,0:0:0:0:
267,120,87567,2,0,P|263:150|250:198,1,57.5,2|0,3:2|0:0,0:0:0:0:
397,260,87755,2,0,L|365:79,1,184,2|2,0:2|3:2,0:0:0:0:
189,0,88130,6,0,B|149:22|149:22|219:10,1,92,10|0,0:2|0:0,0:0:0:0:
267,120,88317,2,0,B|256:129|256:129|198:119,1,57.5,2|0,3:2|0:0,0:0:0:0:
79,31,88505,6,0,B|74:126|14:63|-10:141|-16:184|49:233|94:176,1,258.75000987053,2|0,3:2|0:0,0:0:0:0:
103,307,88880,2,0,L|99:264,1,43.1250016450883,2|0,3:2|0:0,0:0:0:0:
79,31,89067,6,0,B|98:125|148:53|184:126|196:168|140:226|84:175,1,258.75000987053,2|0,3:2|0:0,0:0:0:0:
177,207,89442,6,0,L|184:292,1,86.2500032901765,0|0,3:0|0:0,0:0:0:0:
337,197,89630,2,0,B|322:183|322:183|245:191,1,86.2500032901765,0|0,3:0|0:0,0:0:0:0:
82,26,89817,2,0,P|130:10|191:63,1,86.2500032901765,0|0,3:0|0:0,0:0:0:0:
298,280,90005,6,0,B|272:89|353:199|342:4,1,258.75000987053,2|0,3:2|0:0,0:0:0:0:
258,77,90380,2,0,P|242:67|259:76,1,57.5,10|0,0:0|0:0,0:0:0:0:
434,129,90567,2,0,B|462:133|462:133|424:118,1,57.5,2|0,3:2|0:0,0:0:0:0:
300,300,90755,6,0,B|284:323|357:372|350:243|264:214|193:255|214:316|214:316|222:345|202:371,1,258.75000987053,2|0,0:0|0:0,0:0:0:0:
294,297,91130,2,0,P|262:271|245:279,1,43.1250016450883,10|0,0:2|0:0,0:0:0:0:
142,173,91317,2,0,P|122:194|127:241,1,43.1250016450883,2|0,3:2|0:0,0:0:0:0:
61,357,91505,6,0,B|11:284|11:284|19:260|19:260|205:230,1,293.2500055933,2|0,3:2|0:0,0:0:0:0:
246,166,91880,2,0,P|266:187|261:234,1,43.1250016450883,10|0,0:2|0:0,0:0:0:0:
55,144,92067,2,0,P|122:141|160:50,1,172.500006580353,2|2,3:2|0:2,0:0:0:0:
419,34,92442,5,2,3:2:0:0:
376,43,92536,1,2,3:2:0:0:
333,53,92630,2,0,P|311:59|272:37,1,63.2500019302369,10|0,0:2|0:0,0:0:0:0:
428,247,92817,2,0,P|441:179|454:148,1,63.2500019302369,2|0,3:2|0:0,0:0:0:0:
206,308,93005,6,0,P|178:297|104:283,1,63.2500019302369,2|0,3:2|0:0,0:0:0:0:
306,146,93192,2,0,P|278:157|204:171,1,63.2500019302369,2|0,0:2|0:0,0:0:0:0:
335,384,93380,2,0,P|307:373|233:359,1,63.2500019302369,10|0,0:2|0:0,0:0:0:0:
433,256,93567,2,0,P|405:267|331:281,1,63.2500019302369,2|0,3:2|0:0,0:0:0:0:
125,212,93755,2,0,P|76:249|69:310,1,126.500003860474,2|2,0:2|3:2,0:0:0:0:
77,318,94036,1,2,0:0:0:0:
77,318,94130,2,0,P|35:320|10:312,1,63.2500019302369,10|0,0:2|0:0,0:0:0:0:
208,284,94317,2,0,P|176:280|145:287,1,63.2500019302369,2|0,3:2|0:0,0:0:0:0:
37,167,94505,6,0,B|-21:156|-2:108|-4:75|69:55|69:55|42:123|89:118|48:180,1,293.2500055933,2|0,3:2|0:0,0:0:0:0:
135,94,94880,2,0,P|84:71|76:45,1,57.5,2|0,3:2|0:0,0:0:0:0:
195,186,95068,2,0,P|216:167|245:164,1,57.5,2|0,3:2|0:0,0:0:0:0:
306,34,95255,6,0,B|362:37|407:-7|407:-7|358:215,1,258.75000987053,2|0,3:2|0:0,0:0:0:0:
463,231,95630,1,2,3:2:0:0:
441,230,95723,1,2,0:0:0:0:
422,239,95817,1,2,0:0:0:0:
409,256,95911,1,2,0:0:0:0:
403,275,96005,6,0,L|195:326,1,206.999993682861,6|0,3:2|0:0,0:0:0:0:
270,216,96380,2,0,L|338:209,1,68.9999978942872,2|0,3:2|0:0,0:0:0:0:
437,367,96567,2,0,L|368:367,1,68.9999978942872,2|0,0:0|0:0,0:0:0:0:
195,241,96755,6,0,L|32:211,1,137.999995788574,2|0,3:2|0:0,0:0:0:0:
108,35,97036,1,0,0:0:0:0:
108,35,97130,2,0,L|173:56,1,68.9999978942872,2|0,3:2|0:0,0:0:0:0:
158,146,97317,2,0,L|96:115,1,68.9999978942872,2|0,0:0|0:0,0:0:0:0:
30,299,97505,6,0,L|144:376,1,137.999995788574,2|2,3:2|0:0,0:0:0:0:
246,287,97786,1,0,0:0:0:0:
246,287,97880,2,0,L|194:240,1,68.9999978942872,2|0,3:2|0:0,0:0:0:0:
252,166,98067,2,0,L|296:219,1,68.9999978942872,2|0,0:0|0:0,0:0:0:0:
390,211,98255,6,0,L|306:76,1,137.999995788574,2|0,3:2|0:0,0:0:0:0:
471,17,98630,2,0,L|498:80,1,68.9999978942872,2|0,3:2|0:0,0:0:0:0:
431,133,98817,2,0,L|412:66,1,68.9999978942872,2|0,0:0|0:0,0:0:0:0:
479,345,99005,5,2,3:2:0:0:
390,211,99192,2,0,L|399:279,1,68.9999978942872,2|0,0:0|0:0,0:0:0:0:
479,345,99380,2,0,L|479:197,1,137.999995788574,2|2,3:2|0:0,0:0:0:0:
297,331,99755,5,2,3:2:0:0:
297,331,99942,2,0,L|306:262,1,68.9999978942872,2|0,0:0|0:0,0:0:0:0:
245,161,100130,2,0,L|225:227,1,68.9999978942872,2|0,3:2|0:0,0:0:0:0:
101,300,100317,2,0,L|129:237,1,68.9999978942872,2|0,0:0|0:0,0:0:0:0:
300,110,100505,6,0,L|222:232,1,137.999995788574,2|2,3:2|0:0,0:0:0:0:
215,49,100880,2,0,L|170:101,1,68.9999978942872,2|0,3:2|0:0,0:0:0:0:
77,61,101067,2,0,L|128:15,1,68.9999978942872,2|0,0:0|0:0,0:0:0:0:
245,161,101255,2,0,L|129:236,3,137.999995788574,2|0|0|0,3:2|0:0|3:2|0:0,0:0:0:0:
295,32,102005,6,0,P|370:9|425:108,1,184,2|2,3:2|3:2,0:0:0:0:
429,82,102286,1,0,0:0:0:0:
429,82,102380,2,0,P|413:122|405:184,1,92,2|0,3:2|0:0,0:0:0:0:
293,240,102567,2,0,P|308:199|316:137,1,92,2|0,3:2|0:0,0:0:0:0:
451,262,102755,2,0,B|321:211|431:177|290:69|197:143,1,276,2|0,3:2|0:0,0:0:0:0:
173,202,103130,6,0,P|113:200|101:157,1,92,2|0,3:2|0:0,0:0:0:0:
26,155,103317,2,0,B|97:124|97:124|104:111|104:111|213:69,1,184,2|2,3:2|3:2,0:0:0:0:
164,296,103692,2,0,P|127:287|50:289,1,92,2|0,3:2|0:0,0:0:0:0:
272,347,103880,2,0,P|309:356|386:354,1,92,2|0,3:2|0:0,0:0:0:0:
164,296,104067,1,2,3:2:0:0:
308,277,104255,6,0,B|266:275|200:331|285:319|202:393|148:385,1,184,2|2,3:2|3:2,0:0:0:0:
77,374,104536,1,2,0:0:0:0:
77,374,104630,2,0,P|92:293|103:167,1,184,2|2,3:2|3:2,0:0:0:0:
322,21,105005,6,0,P|334:54|301:95,1,68.9999978942872,2|0,3:2|0:0,0:0:0:0:
149,29,105192,2,0,P|206:14|237:-19,1,68.9999978942872,2|0,3:2|0:0,0:0:0:0:
351,191,105380,2,0,P|356:157|383:137,1,68.9999978942872,2|0,3:2|0:0,0:0:0:0:
190,178,105567,2,0,P|184:146|163:84,1,68.9999978942872,2|0,3:2|0:0,0:0:0:0:
466,124,105755,6,0,P|454:162|443:235,1,68.9999978942872,2|0,3:2|0:0,0:0:0:0:
260,299,105942,2,0,P|270:266|278:232,1,68.9999978942872,2|0,3:2|0:0,0:0:0:0:
452,379,106130,2,0,P|440:341|429:268,1,68.9999978942872,2|0,3:2|0:0,0:0:0:0:
332,124,106317,2,0,P|342:156|350:190,1,68.9999978942872,2|0,3:2|0:0,0:0:0:0:
512,310,106505,6,0,B|520:206|520:206|497:170|497:170|494:175|494:175|379:225|379:225|374:218|374:218|274:200|274:200|269:204|269:204|173:240|173:240|173:247|173:247|141:221|81:250,1,551.999983154297,2|2,0:0|0:0,0:0:0:0:
193,20,107630,5,4,0:3:0:0:
186,53,107723,1,4,0:3:0:0:
179,87,107817,1,8,0:3:0:0:
173,121,107911,1,8,0:3:0:0:
166,155,108005,1,14,3:3:0:0:
